osu file format v14

[General]
AudioFilename: audio.mp3
AudioLeadIn: 0
PreviewTime: 40849
Countdown: 0
SampleSet: Soft
StackLeniency: 0.7
Mode: 3
LetterboxInBreaks: 0
SpecialStyle: 0
WidescreenStoryboard: 0

[Editor]
DistanceSpacing: 0.2
BeatDivisor: 12
GridSize: 8
TimelineZoom: 2.7

[Metadata]
Title:Run
TitleUnicode:Run
Artist:Joji
ArtistUnicode:Joji
Creator:Logan636
Version:Misery
Source:
Tags:Nectar Pop English R&B Soul Alternative Rock Alt Rock Indie Ballad Power Ballad Daniel Wilson Pink Guy Justin Parker Casey Cuayo Chris Athens Rob Kinelski
BeatmapID:3374444
BeatmapSetID:1653160

[Difficulty]
HPDrainRate:7.5
CircleSize:4
OverallDifficulty:7.5
ApproachRate:5
SliderMultiplier:1.4
SliderTickRate:1

[Events]
//Background and Video events
0,0,"joj.jpg",0,0
//Break Periods
//Storyboard Layer 0 (Background)
//Storyboard Layer 1 (Fail)
//Storyboard Layer 2 (Pass)
//Storyboard Layer 3 (Foreground)
//Storyboard Layer 4 (Overlay)
//Storyboard Sound Samples

[TimingPoints]
217,379.746835443038,3,2,1,40,1,0

[HitObjects]
192,192,217,128,0,596:0:0:0:0:
64,192,596,128,0,976:0:0:0:0:
320,192,976,128,0,1356:0:0:0:0:
448,192,1356,128,0,1735:0:0:0:0:
320,192,1735,128,0,2115:0:0:0:0:
192,192,2115,128,0,2495:0:0:0:0:
64,192,2495,128,0,2875:0:0:0:0:
320,192,2875,128,0,3254:0:0:0:0:
192,192,3254,128,0,3634:0:0:0:0:
448,192,3634,128,0,4014:0:0:0:0:
192,192,4014,128,0,4394:0:0:0:0:
64,192,4394,128,0,4773:0:0:0:0:
192,192,4773,128,0,5153:0:0:0:0:
64,192,5153,128,0,5533:0:0:0:0:
320,192,5533,128,0,5913:0:0:0:0:
448,192,5913,128,0,6292:0:0:0:0:
320,192,6292,128,0,6672:0:0:0:0:
192,192,6672,128,0,7052:0:0:0:0:
320,192,7052,128,0,7242:0:0:0:0:
64,192,7242,128,0,7432:0:0:0:0:
192,192,7622,128,0,7811:0:0:0:0:
448,192,8001,128,0,8191:0:0:0:0:
320,192,8191,128,0,8381:0:0:0:0:
192,192,8191,1,0,0:0:0:0:
64,192,8571,128,0,8951:0:0:0:0:
192,192,8951,128,0,9330:0:0:0:0:
448,192,9330,128,0,9710:0:0:0:0:
320,192,9710,128,0,10090:0:0:0:0:
64,192,10090,128,0,10470:0:0:0:0:
192,192,10470,128,0,10849:0:0:0:0:
320,192,10660,128,0,10849:0:0:0:0:
64,192,10849,128,0,11609:0:0:0:0:
448,192,11229,128,0,11989:0:0:0:0:
320,192,11609,128,0,11799:0:0:0:0:
64,192,11799,128,0,11989:0:0:0:0:
192,192,12179,128,0,12368:0:0:0:0:
448,192,12558,128,0,12748:0:0:0:0:
320,192,12748,128,0,12938:0:0:0:0:
192,192,12748,1,0,0:0:0:0:
64,192,13128,128,0,13508:0:0:0:0:
192,192,13508,128,0,13887:0:0:0:0:
448,192,13887,128,0,14267:0:0:0:0:
320,192,14267,128,0,14647:0:0:0:0:
64,192,14647,128,0,15027:0:0:0:0:
192,192,15027,128,0,15786:0:0:0:0:
64,192,15406,128,0,15786:0:0:0:0:
448,192,15596,128,0,15976:0:0:0:0:
320,192,15786,128,0,16166:0:0:0:0:
64,192,15976,128,0,16546:0:0:0:0:
448,192,16166,128,0,16546:0:0:0:0:
320,192,16546,128,0,16925:0:0:0:0:
192,192,16925,128,0,17305:0:0:0:0:
320,192,17305,128,0,17685:0:0:0:0:
64,192,17685,128,0,18065:0:0:0:0:
192,192,18065,128,0,18444:0:0:0:0:
448,192,18444,128,0,18824:0:0:0:0:
320,192,18824,128,0,19204:0:0:0:0:
192,192,19204,128,0,19584:0:0:0:0:
64,192,19584,128,0,20343:0:0:0:0:
448,192,19773,128,0,19963:0:0:0:0:
320,192,19963,128,0,20723:0:0:0:0:
192,192,20343,128,0,20723:0:0:0:0:
448,192,20723,128,0,21103:0:0:0:0:
192,192,21103,128,0,21482:0:0:0:0:
64,192,21482,128,0,21862:0:0:0:0:
192,192,21862,128,0,22242:0:0:0:0:
64,192,22242,128,0,22622:0:0:0:0:
320,192,22622,128,0,23001:0:0:0:0:
448,192,23001,128,0,23761:0:0:0:0:
320,192,23381,128,0,23761:0:0:0:0:
192,192,23761,128,0,24141:0:0:0:0:
320,192,24141,128,0,24330:0:0:0:0:
64,192,24330,128,0,24520:0:0:0:0:
192,192,24710,128,0,24900:0:0:0:0:
448,192,25090,128,0,25280:0:0:0:0:
192,192,25280,1,0,0:0:0:0:
320,192,25280,128,0,25470:0:0:0:0:
64,192,25660,128,0,26039:0:0:0:0:
192,192,26039,128,0,26419:0:0:0:0:
448,192,26419,128,0,26799:0:0:0:0:
320,192,26799,128,0,27179:0:0:0:0:
64,192,27179,128,0,27558:0:0:0:0:
192,192,27558,128,0,27938:0:0:0:0:
320,192,27748,128,0,27938:0:0:0:0:
64,192,27938,128,0,28698:0:0:0:0:
448,192,28318,128,0,28887:0:0:0:0:
320,192,28698,128,0,28887:0:0:0:0:
64,192,28887,128,0,29077:0:0:0:0:
192,192,29267,128,0,29457:0:0:0:0:
448,192,29647,128,0,29837:0:0:0:0:
320,192,29837,128,0,30027:0:0:0:0:
192,192,29837,1,0,0:0:0:0:
64,192,30217,128,0,30596:0:0:0:0:
192,192,30596,128,0,30976:0:0:0:0:
448,192,30976,128,0,31356:0:0:0:0:
320,192,31356,128,0,31735:0:0:0:0:
64,192,31735,128,0,32115:0:0:0:0:
192,192,32115,128,0,32875:0:0:0:0:
448,192,32495,128,0,32875:0:0:0:0:
64,192,32685,128,0,33065:0:0:0:0:
320,192,32875,128,0,33254:0:0:0:0:
192,192,33065,128,0,33634:0:0:0:0:
448,192,33254,128,0,33634:0:0:0:0:
320,192,33634,128,0,34014:0:0:0:0:
192,192,34014,128,0,34394:0:0:0:0:
320,192,34394,128,0,34773:0:0:0:0:
64,192,34394,1,0,0:0:0:0:
192,192,34584,128,0,34773:0:0:0:0:
64,192,34773,128,0,35153:0:0:0:0:
192,192,35153,128,0,35533:0:0:0:0:
448,192,35533,128,0,35913:0:0:0:0:
64,192,35723,128,0,35913:0:0:0:0:
320,192,35913,128,0,36292:0:0:0:0:
192,192,36292,128,0,36672:0:0:0:0:
64,192,36672,128,0,37052:0:0:0:0:
448,192,36672,128,0,36862:0:0:0:0:
192,192,36862,128,0,37052:0:0:0:0:
320,192,37052,128,0,37432:0:0:0:0:
192,192,37432,128,0,37811:0:0:0:0:
448,192,37811,128,0,38191:0:0:0:0:
192,192,38191,128,0,38571:0:0:0:0:
64,192,38571,128,0,38951:0:0:0:0:
192,192,38951,128,0,39330:0:0:0:0:
320,192,38951,1,0,0:0:0:0:
448,192,39141,128,0,39330:0:0:0:0:
64,192,39330,128,0,40090:0:0:0:0:
320,192,39710,128,0,40090:0:0:0:0:
448,192,40090,128,0,40470:0:0:0:0:
320,192,40470,128,0,40849:0:0:0:0:
64,192,40849,128,0,41039:0:0:0:0:
192,192,41039,128,0,41229:0:0:0:0:
320,192,41229,128,0,41609:0:0:0:0:
448,192,41229,128,0,41609:0:0:0:0:
64,192,41229,1,0,0:0:0:0:
64,192,41419,128,0,41799:0:0:0:0:
192,192,41419,1,0,0:0:0:0:
192,192,41799,128,0,42179:0:0:0:0:
448,192,41799,1,0,0:0:0:0:
64,192,41989,128,0,42179:0:0:0:0:
448,192,42179,128,0,42748:0:0:0:0:
320,192,42179,1,0,0:0:0:0:
192,192,42368,1,0,0:0:0:0:
320,192,42368,128,0,42748:0:0:0:0:
64,192,42558,128,0,42748:0:0:0:0:
192,192,42748,128,0,43508:0:0:0:0:
64,192,43128,128,0,43887:0:0:0:0:
448,192,43508,128,0,44267:0:0:0:0:
320,192,43508,1,0,0:0:0:0:
320,192,43887,128,0,44647:0:0:0:0:
192,192,44077,128,0,44267:0:0:0:0:
64,192,44267,128,0,45027:0:0:0:0:
192,192,44647,128,0,45027:0:0:0:0:
448,192,44647,128,0,44837:0:0:0:0:
320,192,45027,128,0,45786:0:0:0:0:
64,192,45217,128,0,45406:0:0:0:0:
448,192,45406,128,0,45786:0:0:0:0:
192,192,45786,128,0,45976:0:0:0:0:
64,192,45786,128,0,46166:0:0:0:0:
448,192,45976,128,0,46356:0:0:0:0:
320,192,45976,1,0,0:0:0:0:
320,192,46356,128,0,46735:0:0:0:0:
64,192,46356,1,0,0:0:0:0:
448,192,46546,128,0,46735:0:0:0:0:
64,192,46735,128,0,47115:0:0:0:0:
192,192,46735,1,0,0:0:0:0:
320,192,46925,1,0,0:0:0:0:
192,192,46925,128,0,47685:0:0:0:0:
448,192,47115,128,0,47305:0:0:0:0:
320,192,47305,128,0,48065:0:0:0:0:
64,192,47685,128,0,48444:0:0:0:0:
448,192,48065,128,0,48824:0:0:0:0:
192,192,48065,1,0,0:0:0:0:
320,192,48444,128,0,49204:0:0:0:0:
192,192,48634,128,0,48824:0:0:0:0:
64,192,48824,128,0,49204:0:0:0:0:
192,192,49204,128,0,49963:0:0:0:0:
448,192,49204,128,0,49394:0:0:0:0:
64,192,49584,128,0,50248:0:0:0:0:
320,192,49773,128,0,49963:0:0:0:0:
448,192,49963,128,0,50343:0:0:0:0:
64,192,50343,128,0,51482:0:0:0:0:
192,192,50343,128,0,50723:0:0:0:0:
320,192,50723,128,0,51387:0:0:0:0:
448,192,51103,128,0,51387:0:0:0:0:
448,192,51482,128,0,52147:0:0:0:0:
192,192,51482,128,0,51862:0:0:0:0:
320,192,51482,128,0,52432:0:0:0:0:
64,192,51862,1,0,0:0:0:0:
448,192,52242,128,0,52432:0:0:0:0:
192,192,52432,128,0,52622:0:0:0:0:
320,192,52622,128,0,53286:0:0:0:0:
64,192,52622,128,0,53001:0:0:0:0:
448,192,52622,128,0,53571:0:0:0:0:
192,192,53001,1,0,0:0:0:0:
320,192,53381,128,0,53571:0:0:0:0:
64,192,53571,128,0,53761:0:0:0:0:
192,192,53761,128,0,54425:0:0:0:0:
320,192,53761,128,0,54710:0:0:0:0:
448,192,53761,128,0,54141:0:0:0:0:
64,192,54141,1,0,0:0:0:0:
192,192,54520,128,0,54710:0:0:0:0:
448,192,54710,128,0,54900:0:0:0:0:
192,192,54900,128,0,55849:0:0:0:0:
64,192,54900,128,0,55565:0:0:0:0:
320,192,54900,128,0,55280:0:0:0:0:
448,192,55280,1,0,0:0:0:0:
64,192,55660,128,0,55849:0:0:0:0:
320,192,55849,128,0,56039:0:0:0:0:
192,192,56039,128,0,56324:0:0:0:0:
64,192,56039,128,0,56134:0:0:0:0:
448,192,56039,128,0,56514:0:0:0:0:
64,192,56229,128,0,56799:0:0:0:0:
192,192,56419,128,0,56799:0:0:0:0:
448,192,56609,128,0,57084:0:0:0:0:
320,192,56799,128,0,57558:0:0:0:0:
448,192,57179,128,0,57368:0:0:0:0:
192,192,57179,128,0,57938:0:0:0:0:
64,192,57179,128,0,57368:0:0:0:0:
64,192,57558,1,0,0:0:0:0:
320,192,57938,1,0,0:0:0:0:
320,192,58318,128,0,58887:0:0:0:0:
448,192,58318,128,0,58698:0:0:0:0:
64,192,58318,1,0,0:0:0:0:
64,192,58508,128,0,58698:0:0:0:0:
192,192,58508,1,0,0:0:0:0:
192,192,58887,128,0,59267:0:0:0:0:
448,192,58887,1,0,0:0:0:0:
64,192,59077,128,0,59267:0:0:0:0:
448,192,59267,128,0,59837:0:0:0:0:
320,192,59267,1,0,0:0:0:0:
192,192,59457,1,0,0:0:0:0:
320,192,59457,128,0,59837:0:0:0:0:
64,192,59647,128,0,59837:0:0:0:0:
192,192,59837,128,0,60596:0:0:0:0:
64,192,60217,128,0,60976:0:0:0:0:
448,192,60596,128,0,61356:0:0:0:0:
320,192,60596,1,0,0:0:0:0:
320,192,60976,128,0,61735:0:0:0:0:
192,192,61166,128,0,61356:0:0:0:0:
64,192,61356,128,0,62115:0:0:0:0:
192,192,61735,128,0,62115:0:0:0:0:
448,192,61735,128,0,61925:0:0:0:0:
320,192,62115,128,0,62875:0:0:0:0:
64,192,62305,128,0,62495:0:0:0:0:
448,192,62495,128,0,62875:0:0:0:0:
192,192,62875,128,0,63254:0:0:0:0:
64,192,62875,128,0,63065:0:0:0:0:
448,192,63065,128,0,63444:0:0:0:0:
320,192,63065,1,0,0:0:0:0:
320,192,63444,128,0,63824:0:0:0:0:
64,192,63444,1,0,0:0:0:0:
448,192,63634,128,0,63824:0:0:0:0:
64,192,63824,128,0,64204:0:0:0:0:
192,192,63824,1,0,0:0:0:0:
320,192,64014,1,0,0:0:0:0:
192,192,64014,128,0,64773:0:0:0:0:
448,192,64204,128,0,64394:0:0:0:0:
320,192,64394,128,0,65153:0:0:0:0:
64,192,64773,128,0,65533:0:0:0:0:
448,192,65153,128,0,65533:0:0:0:0:
192,192,65153,1,0,0:0:0:0:
320,192,65533,128,0,66292:0:0:0:0:
192,192,65723,128,0,65913:0:0:0:0:
64,192,65913,128,0,66292:0:0:0:0:
192,192,66292,128,0,67052:0:0:0:0:
448,192,66292,128,0,66482:0:0:0:0:
64,192,66672,128,0,67337:0:0:0:0:
320,192,66862,128,0,67052:0:0:0:0:
448,192,67052,128,0,67432:0:0:0:0:
64,192,67432,128,0,68476:0:0:0:0:
320,192,67432,128,0,67811:0:0:0:0:
448,192,67811,128,0,68191:0:0:0:0:
192,192,68191,128,0,68476:0:0:0:0:
192,192,68571,128,0,69615:0:0:0:0:
320,192,68571,128,0,68856:0:0:0:0:
64,192,68571,128,0,69615:0:0:0:0:
320,192,68951,128,0,69235:0:0:0:0:
320,192,69330,128,0,69615:0:0:0:0:
192,192,69710,128,0,69995:0:0:0:0:
64,192,69710,128,0,70470:0:0:0:0:
320,192,69710,128,0,70470:0:0:0:0:
192,192,70090,128,0,70375:0:0:0:0:
192,192,70470,128,0,70660:0:0:0:0:
320,192,70660,128,0,70849:0:0:0:0:
64,192,70849,128,0,71134:0:0:0:0:
192,192,70849,128,0,71894:0:0:0:0:
448,192,70849,128,0,71894:0:0:0:0:
64,192,71229,128,0,71514:0:0:0:0:
64,192,71609,128,0,71894:0:0:0:0:
192,192,71989,128,0,72748:0:0:0:0:
448,192,71989,128,0,72273:0:0:0:0:
64,192,71989,128,0,72748:0:0:0:0:
448,192,72368,128,0,72653:0:0:0:0:
448,192,72748,128,0,72938:0:0:0:0:
192,192,72938,128,0,73128:0:0:0:0:
64,192,73128,128,0,74172:0:0:0:0:
320,192,73128,128,0,73413:0:0:0:0:
448,192,73128,128,0,74172:0:0:0:0:
320,192,73508,128,0,73792:0:0:0:0:
320,192,73887,128,0,74172:0:0:0:0:
320,192,74267,128,0,74647:0:0:0:0:
448,192,74267,128,0,75027:0:0:0:0:
64,192,74267,1,0,0:0:0:0:
64,192,74647,1,0,0:0:0:0:
64,192,75027,1,0,0:0:0:0:
320,192,75406,128,0,75596:0:0:0:0:
192,192,75406,1,0,0:0:0:0:
64,192,75596,128,0,75786:0:0:0:0:
192,192,75596,1,0,0:0:0:0:
192,192,75976,128,0,76166:0:0:0:0:
320,192,75976,1,0,0:0:0:0:
448,192,76356,128,0,76546:0:0:0:0:
192,192,76356,1,0,0:0:0:0:
320,192,76546,128,0,76735:0:0:0:0:
192,192,76546,1,0,0:0:0:0:
64,192,76925,1,0,0:0:0:0:
448,192,77115,1,0,0:0:0:0:
64,192,77305,128,0,77685:0:0:0:0:
448,192,77685,128,0,78065:0:0:0:0:
192,192,77685,1,0,0:0:0:0:
320,192,78065,128,0,78444:0:0:0:0:
64,192,78444,128,0,78824:0:0:0:0:
192,192,78824,128,0,79204:0:0:0:0:
448,192,78824,1,0,0:0:0:0:
320,192,79014,128,0,79204:0:0:0:0:
64,192,79204,128,0,79963:0:0:0:0:
448,192,79584,128,0,80343:0:0:0:0:
320,192,79963,128,0,80153:0:0:0:0:
192,192,79963,1,0,0:0:0:0:
64,192,80153,128,0,80343:0:0:0:0:
192,192,80153,1,0,0:0:0:0:
192,192,80533,128,0,80723:0:0:0:0:
320,192,80533,1,0,0:0:0:0:
448,192,80913,128,0,81103:0:0:0:0:
192,192,80913,1,0,0:0:0:0:
320,192,81103,128,0,81292:0:0:0:0:
192,192,81103,1,0,0:0:0:0:
64,192,81482,128,0,81862:0:0:0:0:
192,192,81862,128,0,82242:0:0:0:0:
448,192,82242,128,0,82622:0:0:0:0:
320,192,82242,1,0,0:0:0:0:
320,192,82622,128,0,83001:0:0:0:0:
64,192,83001,128,0,83381:0:0:0:0:
448,192,83191,128,0,83381:0:0:0:0:
192,192,83381,128,0,84141:0:0:0:0:
320,192,83381,1,0,0:0:0:0:
64,192,83761,128,0,84520:0:0:0:0:
320,192,84141,128,0,84900:0:0:0:0:
448,192,84520,128,0,84900:0:0:0:0:
192,192,84520,1,0,0:0:0:0:
192,192,84900,128,0,85280:0:0:0:0:
64,192,85280,128,0,85660:0:0:0:0:
320,192,85660,128,0,86039:0:0:0:0:
192,192,85660,1,0,0:0:0:0:
448,192,85849,128,0,86039:0:0:0:0:
64,192,86039,128,0,86419:0:0:0:0:
192,192,86419,128,0,86799:0:0:0:0:
448,192,86799,128,0,87179:0:0:0:0:
64,192,86799,1,0,0:0:0:0:
320,192,87179,128,0,87558:0:0:0:0:
192,192,87558,128,0,87938:0:0:0:0:
64,192,87938,128,0,88698:0:0:0:0:
320,192,87938,1,0,0:0:0:0:
448,192,88128,128,0,88318:0:0:0:0:
320,192,88318,128,0,89077:0:0:0:0:
192,192,88698,128,0,89077:0:0:0:0:
448,192,89077,128,0,89457:0:0:0:0:
192,192,89457,128,0,89837:0:0:0:0:
64,192,89837,128,0,90217:0:0:0:0:
448,192,90217,128,0,90596:0:0:0:0:
320,192,90217,1,0,0:0:0:0:
192,192,90406,128,0,90596:0:0:0:0:
64,192,90596,128,0,90976:0:0:0:0:
320,192,90976,128,0,91356:0:0:0:0:
448,192,91356,128,0,92495:0:0:0:0:
320,192,91735,128,0,92115:0:0:0:0:
192,192,92115,128,0,92495:0:0:0:0:
320,192,92495,128,0,92685:0:0:0:0:
64,192,92495,1,0,0:0:0:0:
64,192,92685,128,0,92875:0:0:0:0:
192,192,92685,1,0,0:0:0:0:
192,192,93065,128,0,93254:0:0:0:0:
320,192,93065,1,0,0:0:0:0:
448,192,93444,128,0,93634:0:0:0:0:
192,192,93444,1,0,0:0:0:0:
192,192,93634,1,0,0:0:0:0:
320,192,93634,128,0,93824:0:0:0:0:
64,192,94014,128,0,94394:0:0:0:0:
192,192,94394,128,0,94963:0:0:0:0:
448,192,94773,128,0,95533:0:0:0:0:
320,192,94773,1,0,0:0:0:0:
64,192,94963,128,0,95153:0:0:0:0:
320,192,95153,128,0,95913:0:0:0:0:
64,192,95533,128,0,95913:0:0:0:0:
192,192,95913,128,0,96292:0:0:0:0:
448,192,95913,1,0,0:0:0:0:
320,192,96103,128,0,96672:0:0:0:0:
64,192,96292,128,0,97052:0:0:0:0:
448,192,96672,128,0,97242:0:0:0:0:
320,192,97052,128,0,97242:0:0:0:0:
192,192,97052,1,0,0:0:0:0:
64,192,97242,128,0,97432:0:0:0:0:
192,192,97242,1,0,0:0:0:0:
192,192,97622,128,0,97811:0:0:0:0:
64,192,97622,1,0,0:0:0:0:
448,192,98001,128,0,98191:0:0:0:0:
192,192,98001,1,0,0:0:0:0:
320,192,98191,128,0,98381:0:0:0:0:
192,192,98191,1,0,0:0:0:0:
64,192,98571,128,0,99330:0:0:0:0:
192,192,98951,128,0,99710:0:0:0:0:
448,192,99330,128,0,100090:0:0:0:0:
320,192,99330,1,0,0:0:0:0:
320,192,99710,128,0,100090:0:0:0:0:
64,192,100090,128,0,100470:0:0:0:0:
448,192,100280,128,0,100470:0:0:0:0:
192,192,100470,128,0,101229:0:0:0:0:
320,192,100470,1,0,0:0:0:0:
448,192,100849,128,0,101229:0:0:0:0:
64,192,101039,128,0,101419:0:0:0:0:
320,192,101229,128,0,101609:0:0:0:0:
192,192,101419,128,0,101989:0:0:0:0:
448,192,101609,128,0,101989:0:0:0:0:
64,192,101609,1,0,0:0:0:0:
320,192,101989,128,0,102368:0:0:0:0:
192,192,102368,128,0,102748:0:0:0:0:
320,192,102748,128,0,103128:0:0:0:0:
448,192,102748,1,0,0:0:0:0:
64,192,103128,128,0,103508:0:0:0:0:
192,192,103508,128,0,103887:0:0:0:0:
448,192,103887,128,0,104267:0:0:0:0:
320,192,103887,1,0,0:0:0:0:
64,192,104077,128,0,104267:0:0:0:0:
320,192,104267,128,0,104647:0:0:0:0:
192,192,104647,128,0,105027:0:0:0:0:
64,192,105027,128,0,105406:0:0:0:0:
320,192,105027,1,0,0:0:0:0:
192,192,105217,128,0,105596:0:0:0:0:
448,192,105406,128,0,105691:0:0:0:0:
320,192,105596,128,0,105691:0:0:0:0:
64,192,105691,128,0,106166:0:0:0:0:
448,192,106166,128,0,106546:0:0:0:0:
192,192,106166,1,0,0:0:0:0:
320,192,106546,128,0,106925:0:0:0:0:
192,192,106925,128,0,107305:0:0:0:0:
448,192,107115,128,0,107685:0:0:0:0:
64,192,107305,128,0,107685:0:0:0:0:
320,192,107305,1,0,0:0:0:0:
192,192,107685,128,0,107875:0:0:0:0:
448,192,108065,128,0,108444:0:0:0:0:
320,192,108444,128,0,108729:0:0:0:0:
192,192,109394,128,0,109584:0:0:0:0:
448,192,109584,128,0,109963:0:0:0:0:
320,192,109584,128,0,109963:0:0:0:0:
64,192,109584,1,0,0:0:0:0:
192,192,109773,1,0,0:0:0:0:
64,192,109773,128,0,110153:0:0:0:0:
448,192,110153,1,0,0:0:0:0:
192,192,110153,128,0,110533:0:0:0:0:
64,192,110343,128,0,110533:0:0:0:0:
320,192,110533,1,0,0:0:0:0:
448,192,110533,128,0,111103:0:0:0:0:
320,192,110723,128,0,111103:0:0:0:0:
192,192,110723,1,0,0:0:0:0:
64,192,110913,128,0,111103:0:0:0:0:
192,192,111103,128,0,111862:0:0:0:0:
64,192,111482,128,0,112242:0:0:0:0:
320,192,111862,1,0,0:0:0:0:
448,192,111862,128,0,112622:0:0:0:0:
320,192,112242,128,0,113001:0:0:0:0:
192,192,112432,128,0,112622:0:0:0:0:
64,192,112622,128,0,113381:0:0:0:0:
448,192,113001,128,0,113191:0:0:0:0:
192,192,113001,128,0,113381:0:0:0:0:
320,192,113381,128,0,114141:0:0:0:0:
64,192,113571,128,0,113761:0:0:0:0:
448,192,113761,128,0,114141:0:0:0:0:
64,192,114141,128,0,114520:0:0:0:0:
192,192,114141,128,0,114330:0:0:0:0:
320,192,114330,1,0,0:0:0:0:
448,192,114330,128,0,114710:0:0:0:0:
64,192,114710,1,0,0:0:0:0:
320,192,114710,128,0,115090:0:0:0:0:
448,192,114900,128,0,115090:0:0:0:0:
192,192,115090,1,0,0:0:0:0:
64,192,115090,128,0,115470:0:0:0:0:
192,192,115280,128,0,116039:0:0:0:0:
320,192,115280,1,0,0:0:0:0:
448,192,115470,128,0,115660:0:0:0:0:
320,192,115660,128,0,116419:0:0:0:0:
64,192,116039,128,0,116799:0:0:0:0:
192,192,116419,1,0,0:0:0:0:
448,192,116419,128,0,117179:0:0:0:0:
320,192,116799,128,0,117558:0:0:0:0:
192,192,116989,128,0,117179:0:0:0:0:
64,192,117179,128,0,117558:0:0:0:0:
448,192,117558,128,0,117748:0:0:0:0:
192,192,117558,128,0,118318:0:0:0:0:
64,192,117938,128,0,118603:0:0:0:0:
320,192,118128,128,0,118318:0:0:0:0:
448,192,118318,128,0,118698:0:0:0:0:
192,192,118698,128,0,119077:0:0:0:0:
64,192,118698,128,0,119837:0:0:0:0:
320,192,119077,128,0,119742:0:0:0:0:
448,192,119457,128,0,119742:0:0:0:0:
320,192,119837,128,0,120786:0:0:0:0:
192,192,119837,128,0,120217:0:0:0:0:
448,192,119837,128,0,120501:0:0:0:0:
64,192,120217,1,0,0:0:0:0:
448,192,120596,128,0,120786:0:0:0:0:
192,192,120786,128,0,120976:0:0:0:0:
448,192,120976,128,0,121925:0:0:0:0:
64,192,120976,128,0,121356:0:0:0:0:
320,192,120976,128,0,121641:0:0:0:0:
192,192,121356,1,0,0:0:0:0:
320,192,121735,128,0,121925:0:0:0:0:
64,192,121925,128,0,122115:0:0:0:0:
448,192,122115,128,0,122495:0:0:0:0:
320,192,122115,128,0,123065:0:0:0:0:
192,192,122115,128,0,122780:0:0:0:0:
64,192,122495,1,0,0:0:0:0:
192,192,122875,128,0,123065:0:0:0:0:
448,192,123065,128,0,123254:0:0:0:0:
320,192,123254,128,0,123634:0:0:0:0:
64,192,123254,128,0,123919:0:0:0:0:
192,192,123254,128,0,124204:0:0:0:0:
448,192,123634,1,0,0:0:0:0:
64,192,124014,128,0,124204:0:0:0:0:
320,192,124204,128,0,124394:0:0:0:0:
448,192,124394,128,0,124868:0:0:0:0:
64,192,124394,128,0,124489:0:0:0:0:
192,192,124394,128,0,124679:0:0:0:0:
64,192,124584,128,0,125153:0:0:0:0:
192,192,124773,128,0,125153:0:0:0:0:
448,192,124963,128,0,125438:0:0:0:0:
320,192,125153,128,0,125913:0:0:0:0:
64,192,125533,128,0,125723:0:0:0:0:
192,192,125533,128,0,126292:0:0:0:0:
448,192,125533,128,0,125723:0:0:0:0:
64,192,125913,1,0,0:0:0:0:
320,192,126292,1,0,0:0:0:0:
448,192,126672,128,0,127052:0:0:0:0:
320,192,126672,128,0,127242:0:0:0:0:
64,192,126672,1,0,0:0:0:0:
192,192,126862,1,0,0:0:0:0:
64,192,126862,128,0,127052:0:0:0:0:
448,192,127242,1,0,0:0:0:0:
192,192,127242,128,0,127622:0:0:0:0:
64,192,127432,128,0,127622:0:0:0:0:
320,192,127622,1,0,0:0:0:0:
448,192,127622,128,0,128191:0:0:0:0:
320,192,127811,128,0,128191:0:0:0:0:
192,192,127811,1,0,0:0:0:0:
64,192,128001,128,0,128191:0:0:0:0:
192,192,128191,128,0,128951:0:0:0:0:
64,192,128571,128,0,129330:0:0:0:0:
320,192,128951,1,0,0:0:0:0:
448,192,128951,128,0,129710:0:0:0:0:
320,192,129330,128,0,130090:0:0:0:0:
192,192,129520,128,0,129710:0:0:0:0:
64,192,129710,128,0,130470:0:0:0:0:
448,192,130090,128,0,130280:0:0:0:0:
192,192,130090,128,0,130470:0:0:0:0:
320,192,130470,128,0,131229:0:0:0:0:
64,192,130660,128,0,130849:0:0:0:0:
448,192,130849,128,0,131229:0:0:0:0:
64,192,131229,128,0,131419:0:0:0:0:
192,192,131229,128,0,131609:0:0:0:0:
320,192,131419,1,0,0:0:0:0:
448,192,131419,128,0,131799:0:0:0:0:
64,192,131799,1,0,0:0:0:0:
320,192,131799,128,0,132179:0:0:0:0:
448,192,131989,128,0,132179:0:0:0:0:
192,192,132179,1,0,0:0:0:0:
64,192,132179,128,0,132558:0:0:0:0:
192,192,132368,128,0,133128:0:0:0:0:
320,192,132368,1,0,0:0:0:0:
448,192,132558,128,0,132748:0:0:0:0:
320,192,132748,128,0,133508:0:0:0:0:
64,192,133128,128,0,133887:0:0:0:0:
192,192,133508,1,0,0:0:0:0:
448,192,133508,128,0,133887:0:0:0:0:
320,192,133887,128,0,134647:0:0:0:0:
192,192,134077,128,0,134267:0:0:0:0:
64,192,134267,128,0,134647:0:0:0:0:
448,192,134647,128,0,134837:0:0:0:0:
192,192,134647,128,0,135406:0:0:0:0:
64,192,135027,128,0,135691:0:0:0:0:
320,192,135217,128,0,135406:0:0:0:0:
448,192,135406,128,0,135786:0:0:0:0:
320,192,135786,128,0,136166:0:0:0:0:
64,192,135786,128,0,136830:0:0:0:0:
448,192,136166,128,0,136546:0:0:0:0:
192,192,136546,128,0,136830:0:0:0:0:
64,192,136925,128,0,137970:0:0:0:0:
320,192,136925,128,0,137210:0:0:0:0:
192,192,136925,128,0,137970:0:0:0:0:
320,192,137305,128,0,137590:0:0:0:0:
320,192,137685,128,0,137970:0:0:0:0:
320,192,138065,128,0,138824:0:0:0:0:
64,192,138065,128,0,138824:0:0:0:0:
192,192,138065,128,0,138349:0:0:0:0:
192,192,138444,128,0,138729:0:0:0:0:
192,192,138824,128,0,139014:0:0:0:0:
320,192,139014,128,0,139204:0:0:0:0:
448,192,139204,128,0,140248:0:0:0:0:
192,192,139204,128,0,140248:0:0:0:0:
64,192,139204,128,0,139489:0:0:0:0:
64,192,139584,128,0,139868:0:0:0:0:
64,192,139963,128,0,140248:0:0:0:0:
64,192,140343,128,0,141103:0:0:0:0:
448,192,140343,128,0,140628:0:0:0:0:
192,192,140343,128,0,141103:0:0:0:0:
448,192,140723,128,0,141008:0:0:0:0:
448,192,141103,128,0,141292:0:0:0:0:
192,192,141292,128,0,141482:0:0:0:0:
448,192,141482,128,0,142527:0:0:0:0:
320,192,141482,128,0,141767:0:0:0:0:
64,192,141482,128,0,142527:0:0:0:0:
320,192,141862,128,0,142147:0:0:0:0:
320,192,142242,128,0,142527:0:0:0:0:
64,192,142622,1,0,0:0:0:0:
448,192,142622,128,0,143381:0:0:0:0:
320,192,142622,128,0,143001:0:0:0:0:
64,192,143001,1,0,0:0:0:0:
64,192,143381,1,0,0:0:0:0:
320,192,143761,128,0,143951:0:0:0:0:
448,192,143761,128,0,143951:0:0:0:0:
64,192,143761,1,0,0:0:0:0:
64,192,143951,128,0,144141:0:0:0:0:
192,192,143951,128,0,144141:0:0:0:0:
192,192,144330,128,0,144710:0:0:0:0:
320,192,144330,128,0,144520:0:0:0:0:
64,192,144520,128,0,144900:0:0:0:0:
448,192,144710,128,0,144900:0:0:0:0:
320,192,144900,128,0,145090:0:0:0:0:
192,192,144900,1,0,0:0:0:0:
64,192,145090,128,0,145280:0:0:0:0:
448,192,145090,1,0,0:0:0:0:
192,192,145470,128,0,145849:0:0:0:0:
64,192,145660,128,0,146039:0:0:0:0:
448,192,145849,128,0,146039:0:0:0:0:
192,192,146039,1,0,0:0:0:0:
320,192,146039,128,0,146989:0:0:0:0:
192,192,146419,128,0,146989:0:0:0:0:
64,192,146989,128,0,147179:0:0:0:0:
448,192,147179,128,0,147463:0:0:0:0:
192,192,147179,128,0,147273:0:0:0:0:
192,192,147368,128,0,147653:0:0:0:0:
448,192,147558,128,0,147938:0:0:0:0:
192,192,147748,128,0,147938:0:0:0:0:
320,192,147938,128,0,148191:0:0:0:0:
192,192,148065,128,0,148318:0:0:0:0:
64,192,148191,128,0,148318:0:0:0:0:
320,192,148318,128,0,148698:0:0:0:0:
448,192,148318,128,0,149077:0:0:0:0:
192,192,148698,128,0,149077:0:0:0:0:
192,192,149457,1,0,0:0:0:0:
64,192,149457,1,0,0:0:0:0:
320,192,149837,128,0,150406:0:0:0:0:
448,192,150027,128,0,150406:0:0:0:0:
192,192,150217,128,0,150406:0:0:0:0:
320,192,150596,128,0,151735:0:0:0:0:
192,192,150596,128,0,151546:0:0:0:0:
64,192,151546,128,0,151735:0:0:0:0:
192,192,151735,128,0,152020:0:0:0:0:
448,192,151735,128,0,151830:0:0:0:0:
448,192,151925,128,0,152210:0:0:0:0:
192,192,152115,128,0,152495:0:0:0:0:
448,192,152305,128,0,152495:0:0:0:0:
320,192,152495,128,0,152875:0:0:0:0:
64,192,152685,128,0,152875:0:0:0:0:
192,192,152875,128,0,153254:0:0:0:0:
448,192,152875,1,0,0:0:0:0:
64,192,153254,128,0,153634:0:0:0:0:
320,192,154014,1,0,0:0:0:0:
448,192,154014,1,0,0:0:0:0:
64,192,154204,1,0,0:0:0:0:
448,192,154394,128,0,154773:0:0:0:0:
192,192,154584,1,0,0:0:0:0:
64,192,154773,128,0,155153:0:0:0:0:
448,192,154963,1,0,0:0:0:0:
192,192,155153,128,0,155723:0:0:0:0:
320,192,155153,128,0,155723:0:0:0:0:
64,192,155723,128,0,156008:0:0:0:0:
448,192,155723,128,0,155818:0:0:0:0:
448,192,155913,128,0,156198:0:0:0:0:
64,192,156103,128,0,156387:0:0:0:0:
448,192,156292,128,0,156577:0:0:0:0:
320,192,156292,1,0,0:0:0:0:
64,192,156482,128,0,156862:0:0:0:0:
448,192,156672,128,0,156862:0:0:0:0:
192,192,156862,128,0,157052:0:0:0:0:
448,192,157052,128,0,157432:0:0:0:0:
320,192,157179,128,0,157305:0:0:0:0:
64,192,157305,128,0,157432:0:0:0:0:
320,192,157432,128,0,157811:0:0:0:0:
192,192,157432,1,0,0:0:0:0:
64,192,157558,128,0,157811:0:0:0:0:
448,192,157685,128,0,157811:0:0:0:0:
192,192,157811,128,0,158191:0:0:0:0:
320,192,157938,128,0,158191:0:0:0:0:
448,192,158065,128,0,158191:0:0:0:0:
64,192,158191,128,0,158444:0:0:0:0:
192,192,158318,128,0,158571:0:0:0:0:
320,192,158444,128,0,158571:0:0:0:0:
448,192,158571,128,0,159330:0:0:0:0:
64,192,158571,128,0,158761:0:0:0:0:
64,192,158951,128,0,159330:0:0:0:0:
192,192,159330,128,0,159425:0:0:0:0:
320,192,159425,128,0,159710:0:0:0:0:
448,192,159710,128,0,160660:0:0:0:0:
192,192,159710,128,0,159900:0:0:0:0:
64,192,159900,128,0,160849:0:0:0:0:
320,192,160660,128,0,160849:0:0:0:0:
192,192,160849,128,0,161324:0:0:0:0:
448,192,160849,128,0,161514:0:0:0:0:
192,192,161419,128,0,161704:0:0:0:0:
448,192,161609,128,0,161989:0:0:0:0:
192,192,161799,128,0,161989:0:0:0:0:
64,192,161989,1,0,0:0:0:0:
320,192,161989,128,0,162653:0:0:0:0:
192,192,162115,128,0,162653:0:0:0:0:
448,192,162653,128,0,163033:0:0:0:0:
64,192,162653,128,0,163128:0:0:0:0:
320,192,163128,128,0,163318:0:0:0:0:
448,192,163128,128,0,163508:0:0:0:0:
192,192,163318,128,0,163508:0:0:0:0:
64,192,163508,128,0,163887:0:0:0:0:
320,192,163508,128,0,163603:0:0:0:0:
320,192,163698,128,0,163887:0:0:0:0:
192,192,163887,128,0,164267:0:0:0:0:
320,192,164267,128,0,164773:0:0:0:0:
448,192,164267,128,0,164773:0:0:0:0:
192,192,164773,128,0,165122:0:0:0:0:
64,192,164932,128,0,165122:0:0:0:0:
320,192,165122,128,0,165786:0:0:0:0:
192,192,165406,128,0,165786:0:0:0:0:
64,192,165406,1,0,0:0:0:0:
64,192,165786,128,0,166546:0:0:0:0:
448,192,166166,128,0,166451:0:0:0:0:
192,192,166546,128,0,167052:0:0:0:0:
320,192,166546,128,0,166925:0:0:0:0:
448,192,166546,128,0,167590:0:0:0:0:
320,192,167052,128,0,167590:0:0:0:0:
64,192,167210,128,0,167400:0:0:0:0:
192,192,167400,128,0,167685:0:0:0:0:
320,192,167685,1,0,0:0:0:0:
448,192,167685,1,0,0:0:0:0:
64,192,168065,128,0,168444:0:0:0:0:
448,192,168065,128,0,168444:0:0:0:0:
320,192,168444,128,0,168634:0:0:0:0:
192,192,168824,128,0,169204:0:0:0:0:
64,192,168824,128,0,169204:0:0:0:0:
320,192,169204,128,0,169584:0:0:0:0:
448,192,169394,128,0,169773:0:0:0:0:
192,192,169584,128,0,169963:0:0:0:0:
64,192,169773,128,0,169963:0:0:0:0:
320,192,169963,128,0,170343:0:0:0:0:
448,192,169963,128,0,170343:0:0:0:0:
192,192,170343,128,0,170723:0:0:0:0:
64,192,170533,128,0,170913:0:0:0:0:
320,192,170723,128,0,170913:0:0:0:0:
448,192,170913,128,0,171103:0:0:0:0:
192,192,171103,128,0,171482:0:0:0:0:
64,192,171103,128,0,171957:0:0:0:0:
320,192,171482,128,0,171957:0:0:0:0:
448,192,171957,128,0,173001:0:0:0:0:
320,192,172242,128,0,173001:0:0:0:0:
64,192,172242,128,0,173001:0:0:0:0:
192,192,173001,128,0,173191:0:0:0:0:
320,192,173191,128,0,173381:0:0:0:0:
192,192,173381,128,0,174141:0:0:0:0:
64,192,173381,128,0,174141:0:0:0:0:
448,192,173761,128,0,173951:0:0:0:0:
320,192,174141,128,0,174330:0:0:0:0:
448,192,174520,128,0,174710:0:0:0:0:
320,192,174520,128,0,174710:0:0:0:0:
448,192,174900,128,0,175058:0:0:0:0:
448,192,175153,128,0,175311:0:0:0:0:
448,192,175406,128,0,175565:0:0:0:0:
192,192,175660,128,0,176609:0:0:0:0:
64,192,175660,128,0,177179:0:0:0:0:
320,192,175754,128,0,177179:0:0:0:0:
448,192,176324,128,0,176609:0:0:0:0:
192,192,176799,1,0,0:0:0:0:
448,192,176799,1,0,0:0:0:0:
192,192,177179,128,0,177558:0:0:0:0:
64,192,177558,128,0,177843:0:0:0:0:
320,192,177653,128,0,177843:0:0:0:0:
448,192,177843,128,0,178128:0:0:0:0:
192,192,177938,1,0,0:0:0:0:
64,192,177938,1,0,0:0:0:0:
192,192,178128,128,0,178318:0:0:0:0:
320,192,178223,128,0,178318:0:0:0:0:
64,192,178318,128,0,178508:0:0:0:0:
192,192,178603,128,0,178792:0:0:0:0:
64,192,178603,128,0,178792:0:0:0:0:
320,192,178792,128,0,178887:0:0:0:0:
192,192,178887,128,0,179837:0:0:0:0:
64,192,178887,128,0,179837:0:0:0:0:
320,192,179077,1,0,0:0:0:0:
448,192,179077,1,0,0:0:0:0:
320,192,179837,128,0,180027:0:0:0:0:
448,192,180027,128,0,180217:0:0:0:0:
64,192,180217,1,0,0:0:0:0:
192,192,180217,128,0,180501:0:0:0:0:
320,192,180311,128,0,180596:0:0:0:0:
192,192,180596,128,0,180976:0:0:0:0:
320,192,180691,128,0,180976:0:0:0:0:
448,192,180976,128,0,182115:0:0:0:0:
320,192,181356,128,0,181546:0:0:0:0:
64,192,181356,1,0,0:0:0:0:
192,192,181546,128,0,181735:0:0:0:0:
64,192,181925,128,0,182368:0:0:0:0:
320,192,182368,1,0,0:0:0:0:
448,192,182368,1,0,0:0:0:0:
320,192,182495,1,0,0:0:0:0:
448,192,182495,128,0,182875:0:0:0:0:
64,192,182875,128,0,183919:0:0:0:0:
320,192,183065,128,0,183729:0:0:0:0:
192,192,183634,1,0,0:0:0:0:
448,192,183634,1,0,0:0:0:0:
320,192,183824,128,0,184109:0:0:0:0:
64,192,184014,128,0,184299:0:0:0:0:
320,192,184204,128,0,184489:0:0:0:0:
64,192,184394,128,0,184679:0:0:0:0:
320,192,184584,128,0,184773:0:0:0:0:
64,192,184773,1,0,0:0:0:0:
192,192,184773,1,0,0:0:0:0:
320,192,184868,128,0,185438:0:0:0:0:
448,192,184868,128,0,185438:0:0:0:0:
192,192,185438,128,0,185628:0:0:0:0:
320,192,185628,128,0,186482:0:0:0:0:
448,192,185913,128,0,186387:0:0:0:0:
192,192,185913,128,0,186198:0:0:0:0:
64,192,186103,128,0,186387:0:0:0:0:
192,192,186292,128,0,186482:0:0:0:0:
448,192,186482,128,0,186925:0:0:0:0:
64,192,186482,128,0,186799:0:0:0:0:
192,192,186925,1,0,0:0:0:0:
64,192,186925,1,0,0:0:0:0:
192,192,187052,128,0,187622:0:0:0:0:
64,192,187052,128,0,187527:0:0:0:0:
320,192,187432,128,0,187622:0:0:0:0:
448,192,187622,128,0,188096:0:0:0:0:
64,192,187622,128,0,188001:0:0:0:0:
192,192,188001,128,0,188476:0:0:0:0:
320,192,188191,128,0,188761:0:0:0:0:
448,192,188191,128,0,188666:0:0:0:0:
192,192,188571,128,0,188761:0:0:0:0:
64,192,188761,128,0,189330:0:0:0:0:
448,192,188761,128,0,189141:0:0:0:0:
320,192,189141,128,0,190470:0:0:0:0:
192,192,189330,128,0,190470:0:0:0:0:
448,192,189330,128,0,190280:0:0:0:0:
64,192,190280,1,0,0:0:0:0:
448,192,190470,128,0,190660:0:0:0:0:
64,192,190660,128,0,190849:0:0:0:0:
448,192,191039,128,0,191229:0:0:0:0:
64,192,191229,128,0,191419:0:0:0:0:
320,192,191419,1,0,0:0:0:0:
448,192,191609,1,0,0:0:0:0:
