osu file format v14

[General]
AudioFilename: audio.mp3
AudioLeadIn: 0
PreviewTime: 27789
Countdown: 0
SampleSet: Normal
StackLeniency: 0.7
Mode: 1
LetterboxInBreaks: 0
WidescreenStoryboard: 1

[Editor]
Bookmarks: 3485,9561,27789,52093,76397,100701
DistanceSpacing: 0.1
BeatDivisor: 4
GridSize: 32
TimelineZoom: 1

[Metadata]
Title:Gimme Love (Cut Ver.)
TitleUnicode:Gimme Love (Cut Ver.)
Artist:Joji
ArtistUnicode:Joji
Creator:Hivie
Version:Kantan
Source:
Tags:phob english pop nectar 88rising george kusunoki miller ジョージ 楠木 ミラー 12 tone 2020
BeatmapID:2791137
BeatmapSetID:1347803

[Difficulty]
HPDrainRate:8
CircleSize:2
OverallDifficulty:3
ApproachRate:9
SliderMultiplier:1.4
SliderTickRate:1

[Events]
//Background and Video events
0,0,"joji.jpg",0,-45
//Break Periods
//Storyboard Layer 0 (Background)
//Storyboard Layer 1 (Fail)
//Storyboard Layer 2 (Pass)
//Storyboard Layer 3 (Foreground)
//Storyboard Layer 4 (Overlay)
//Storyboard Sound Samples

[TimingPoints]
448,379.746835443038,4,1,0,40,1,0
3485,-100,4,1,0,50,0,0
9561,-100,4,1,0,65,0,0
27789,-100,4,1,0,70,0,1
52093,-100,4,1,0,65,0,0
76397,-100,4,1,0,70,0,1
100701,-100,4,1,0,40,0,0

[HitObjects]
256,192,448,5,0,0:0:0:0:
256,192,827,1,8,0:0:0:0:
256,192,1966,5,0,0:0:0:0:
256,192,2346,1,8,0:0:0:0:
256,192,3485,1,0,0:0:0:0:
256,192,3865,1,8,0:0:0:0:
256,192,5004,1,0,0:0:0:0:
256,192,5764,1,0,0:0:0:0:
256,192,6144,1,8,0:0:0:0:
256,192,6523,1,0,0:0:0:0:
256,192,6903,1,8,0:0:0:0:
256,192,8042,1,0,0:0:0:0:
256,192,8802,1,0,0:0:0:0:
256,192,9182,1,8,0:0:0:0:
256,192,9561,1,0,0:0:0:0:
256,192,9941,1,8,0:0:0:0:
256,192,11080,1,0,0:0:0:0:
256,192,11840,1,0,0:0:0:0:
256,192,12220,1,8,0:0:0:0:
256,192,12599,1,0,0:0:0:0:
256,192,12979,1,0,0:0:0:0:
256,192,13739,1,0,0:0:0:0:
256,192,14118,1,8,0:0:0:0:
256,192,14878,1,0,0:0:0:0:
256,192,15258,1,8,0:0:0:0:
256,192,15637,1,0,0:0:0:0:
256,192,16017,1,8,0:0:0:0:
256,192,17156,1,0,0:0:0:0:
256,192,17916,1,0,0:0:0:0:
256,192,18296,1,8,0:0:0:0:
256,192,18675,1,0,0:0:0:0:
256,192,19055,1,8,0:0:0:0:
256,192,19815,1,0,0:0:0:0:
256,192,20194,1,8,0:0:0:0:
256,192,20954,1,8,0:0:0:0:
256,192,21334,1,8,0:0:0:0:
256,192,21713,1,0,0:0:0:0:
256,192,22093,1,8,0:0:0:0:
256,192,23232,1,0,0:0:0:0:
256,192,23992,1,0,0:0:0:0:
256,192,24372,1,8,0:0:0:0:
256,192,24751,1,0,0:0:0:0:
256,192,25131,1,8,0:0:0:0:
256,192,25891,1,0,0:0:0:0:
256,192,26270,12,0,27409,0:0:0:0:
256,192,27789,5,8,0:0:0:0:
256,192,28169,1,8,0:0:0:0:
256,192,28549,1,0,0:0:0:0:
256,192,29118,1,8,0:0:0:0:
256,192,30068,1,0,0:0:0:0:
256,192,30827,5,8,0:0:0:0:
256,192,31207,1,8,0:0:0:0:
256,192,31587,1,0,0:0:0:0:
256,192,32156,1,8,0:0:0:0:
256,192,33106,1,0,0:0:0:0:
256,192,33485,1,8,0:0:0:0:
256,192,33865,1,0,0:0:0:0:
256,192,35004,1,8,0:0:0:0:
256,192,35384,1,0,0:0:0:0:
256,192,35764,1,0,0:0:0:0:
256,192,36523,1,8,0:0:0:0:
256,192,36903,1,0,0:0:0:0:
256,192,37663,1,0,0:0:0:0:
256,192,38042,1,8,0:0:0:0:
256,192,38422,1,0,0:0:0:0:
256,192,39182,1,0,0:0:0:0:
256,192,39941,5,8,0:0:0:0:
256,192,40321,1,8,0:0:0:0:
256,192,40701,1,0,0:0:0:0:
256,192,41270,1,8,0:0:0:0:
256,192,42220,1,0,0:0:0:0:
256,192,42979,5,8,0:0:0:0:
256,192,43359,1,8,0:0:0:0:
256,192,43739,1,0,0:0:0:0:
256,192,44308,1,8,0:0:0:0:
256,192,45258,1,0,0:0:0:0:
256,192,45637,1,8,0:0:0:0:
256,192,46017,1,0,0:0:0:0:
256,192,47156,1,0,0:0:0:0:
256,192,47536,1,0,0:0:0:0:
256,192,47916,1,8,0:0:0:0:
256,192,48675,1,8,0:0:0:0:
256,192,49055,1,0,0:0:0:0:
256,192,50194,1,8,0:0:0:0:
256,192,50574,1,0,0:0:0:0:
256,192,50954,1,0,0:0:0:0:
256,192,52093,1,8,0:0:0:0:
256,192,52853,1,8,0:0:0:0:
256,192,53612,1,0,0:0:0:0:
256,192,53992,1,0,0:0:0:0:
256,192,54372,1,8,0:0:0:0:
256,192,55131,1,0,0:0:0:0:
256,192,55891,5,0,0:0:0:0:
256,192,56650,1,8,0:0:0:0:
256,192,57030,1,8,0:0:0:0:
256,192,57410,1,8,0:0:0:0:
256,192,58169,1,0,0:0:0:0:
256,192,58929,1,8,0:0:0:0:
256,192,59688,1,0,0:0:0:0:
256,192,60068,1,8,0:0:0:0:
256,192,60448,1,0,0:0:0:0:
256,192,61207,1,0,0:0:0:0:
256,192,61967,5,8,0:0:0:0:
256,192,63486,1,8,0:0:0:0:
256,192,64245,1,0,0:0:0:0:
256,192,64625,1,0,0:0:0:0:
256,192,65004,5,8,0:0:0:0:
256,192,65764,1,0,0:0:0:0:
256,192,66523,1,8,0:0:0:0:
256,192,67283,1,0,0:0:0:0:
256,192,67663,1,8,0:0:0:0:
256,192,68042,1,0,0:0:0:0:
256,192,68802,1,8,0:0:0:0:
256,192,69561,1,0,0:0:0:0:
256,192,70131,1,8,0:0:0:0:
256,192,71080,1,8,0:0:0:0:
256,192,71650,1,0,0:0:0:0:
256,192,72599,1,8,0:0:0:0:
256,192,73169,1,8,0:0:0:0:
256,192,74118,1,8,0:0:0:0:
256,192,74688,1,0,0:0:0:0:
256,192,75637,1,0,0:0:0:0:
256,192,76397,5,8,0:0:0:0:
256,192,76777,1,8,0:0:0:0:
256,192,77157,1,0,0:0:0:0:
256,192,77726,1,8,0:0:0:0:
256,192,78676,1,0,0:0:0:0:
256,192,79435,5,8,0:0:0:0:
256,192,79815,1,8,0:0:0:0:
256,192,80195,1,0,0:0:0:0:
256,192,80764,1,8,0:0:0:0:
256,192,81714,1,0,0:0:0:0:
256,192,82093,1,8,0:0:0:0:
256,192,82473,1,0,0:0:0:0:
256,192,83612,1,8,0:0:0:0:
256,192,83992,1,0,0:0:0:0:
256,192,84372,1,0,0:0:0:0:
256,192,85131,1,8,0:0:0:0:
256,192,85511,1,0,0:0:0:0:
256,192,86271,1,0,0:0:0:0:
256,192,86650,1,8,0:0:0:0:
256,192,87030,1,0,0:0:0:0:
256,192,87790,1,0,0:0:0:0:
256,192,88549,5,8,0:0:0:0:
256,192,88929,1,8,0:0:0:0:
256,192,89309,1,0,0:0:0:0:
256,192,89878,1,8,0:0:0:0:
256,192,90828,1,0,0:0:0:0:
256,192,91587,5,8,0:0:0:0:
256,192,91967,1,8,0:0:0:0:
256,192,92347,1,0,0:0:0:0:
256,192,92916,1,8,0:0:0:0:
256,192,93866,1,0,0:0:0:0:
256,192,94245,1,8,0:0:0:0:
256,192,94625,1,0,0:0:0:0:
256,192,95764,1,0,0:0:0:0:
256,192,96144,1,0,0:0:0:0:
256,192,96524,1,8,0:0:0:0:
256,192,97283,1,8,0:0:0:0:
256,192,97663,1,0,0:0:0:0:
256,192,98802,1,8,0:0:0:0:
256,192,99182,1,0,0:0:0:0:
256,192,99561,1,0,0:0:0:0:
256,192,100321,1,0,0:0:0:0:
256,192,100701,1,8,0:0:0:0:
