osu file format v14

[General]
AudioFilename: audio.ogg
AudioLeadIn: 0
PreviewTime: 55519
Countdown: 0
SampleSet: Soft
StackLeniency: 0.5
Mode: 0
LetterboxInBreaks: 0
WidescreenStoryboard: 0

[Editor]
DistanceSpacing: 1
BeatDivisor: 8
GridSize: 16
TimelineZoom: 3

[Metadata]
Title:Feeling Like The End
TitleUnicode:Feeling Like The End
Artist:Joji
ArtistUnicode:Joji
Creator:HakuYT
Version:SMITHEREENS
Source:
Tags:alternative 88rising english pop filthy frank tvfilthyfrank pink guy george miller smithereens soraka
BeatmapID:3982806
BeatmapSetID:1928560

[Difficulty]
HPDrainRate:5
CircleSize:4.2
OverallDifficulty:8
ApproachRate:9
SliderMultiplier:2.1
SliderTickRate:1

[Events]
//Background and Video events
0,0,"vrju1i20b2m91.jpg",0,0
//Break Periods
//Storyboard Layer 0 (Background)
//Storyboard Layer 1 (Fail)
//Storyboard Layer 2 (Pass)
//Storyboard Layer 3 (Foreground)
//Storyboard Layer 4 (Overlay)
//Storyboard Sound Samples

[TimingPoints]
435,405.405405405405,4,2,1,55,1,0
435,-133.333333333333,4,2,1,55,0,0
16651,-117.647058823529,4,2,1,60,0,0
30840,-90.9090909090909,4,2,1,75,0,0
56786,-90.9090909090909,4,2,1,85,0,1
81516,-90.9090909090909,4,2,1,85,0,0

[Colours]
Combo1 : 85,187,147
Combo2 : 114,130,158
Combo3 : 73,145,159

[HitObjects]
25,86,3678,5,2,0:2:0:0:
63,17,3880,1,0,0:2:0:0:
134,50,4083,1,0,0:2:0:0:
25,86,4286,5,2,0:2:0:0:
63,17,4488,1,0,0:2:0:0:
134,50,4691,1,0,0:2:0:0:
99,125,4894,5,2,0:2:0:0:
99,125,5097,1,2,0:2:0:0:
219,88,5299,6,0,P|210:140|203:191,1,78.7500030040742,2|0,0:2|0:2,0:2:0:0:
294,138,5705,2,0,P|303:190|310:241,1,78.7500030040742,2|0,0:2|0:2,0:2:0:0:
394,188,6110,2,0,P|388:226|381:265,1,78.7500030040742,2|0,0:2|0:2,0:2:0:0:
468,238,6516,2,0,P|473:276|480:315,1,78.7500030040742,2|0,0:2|0:2,0:2:0:0:
385,354,6921,5,2,0:2:0:0:
385,354,7124,1,0,0:2:0:0:
380,265,7326,1,0,0:2:0:0:
302,306,7529,1,2,0:2:0:0:
306,215,7732,1,0,0:2:0:0:
394,188,7934,1,0,0:2:0:0:
306,215,8137,1,2,0:2:0:0:
394,188,8340,1,2,0:2:0:0:
323,127,8543,6,0,L|307:31,1,78.7500030040742,2|0,0:2|0:2,0:2:0:0:
216,152,8948,2,0,L|232:56,1,78.7500030040742,2|0,0:2|0:2,0:2:0:0:
134,177,9353,2,0,L|121:99,1,78.7500030040742,2|0,0:2|0:2,0:2:0:0:
26,202,9759,2,0,L|38:124,1,78.7500030040742,2|0,0:2|0:2,0:2:0:0:
55,38,10164,5,2,0:2:0:0:
121,99,10367,1,0,0:2:0:0:
168,26,10570,1,0,0:2:0:0:
168,26,10772,1,2,0:2:0:0:
121,99,10975,5,0,0:2:0:0:
178,163,11178,1,0,0:2:0:0:
256,128,11380,1,2,0:2:0:0:
251,41,11583,1,2,0:2:0:0:
345,142,11786,6,0,P|378:117|416:119,1,78.7500030040742,2|0,0:2|0:2,0:2:0:0:
404,204,12191,2,0,P|445:206|473:232,1,78.7500030040742,2|0,0:2|0:2,0:2:0:0:
409,289,12597,2,0,P|439:317|443:354,1,78.7500030040742,2|0,0:2|0:2,0:2:0:0:
359,368,13002,1,2,0:2:0:0:
359,368,13205,1,2,0:2:0:0:
301,276,13407,6,0,P|293:235|284:189,2,78.7500030040742,2|2|0,0:2|0:2|0:2,0:2:0:0:
238,336,14016,2,0,B|168:342|168:342|152:332|152:332|80:339,1,157.500006008148,2|2,0:2|0:2,0:2:0:0:
12,289,14624,1,2,0:2:0:0:
74,229,14826,1,2,0:2:0:0:
157,252,15029,6,0,P|165:211|174:165,2,78.7500030040742,2|0|2,0:2|0:2|0:2,0:2:0:0:
74,229,15637,1,0,0:2:0:0:
105,126,15840,2,0,P|142:94|179:93,1,78.7500030040742,2|0,0:2|0:2,0:2:0:0:
187,6,16245,2,0,P|225:12|252:40,1,78.7500030040742,2|0,0:2|0:2,0:2:0:0:
295,143,16651,5,2,3:2:0:0:
295,143,16752,1,0,3:2:0:0:
295,143,16853,1,0,3:2:0:0:
338,63,17055,1,0,3:2:0:0:
419,101,17259,1,2,3:2:0:0:
295,143,17462,5,8,3:2:0:0:
338,63,17664,1,0,3:2:0:0:
419,101,17867,1,2,3:2:0:0:
419,101,18070,1,2,3:2:0:0:
338,217,18272,6,0,P|379:205|433:194,1,89.2500017023087,2|0,3:2|3:2,0:2:0:0:
402,282,18678,1,2,3:2:0:0:
498,255,18880,1,0,3:2:0:0:
429,374,19083,2,0,P|388:362|334:351,1,89.2500017023087,10|0,3:2|3:2,0:2:0:0:
277,264,19489,2,0,P|233:273|190:285,1,89.2500017023087,2|0,3:2|3:2,0:2:0:0:
120,348,19894,5,2,3:2:0:0:
200,367,20097,1,0,3:2:0:0:
112,258,20299,1,0,3:2:0:0:
42,301,20502,1,2,3:2:0:0:
139,181,20705,1,8,3:2:0:0:
190,285,20907,1,0,3:2:0:0:
53,200,21110,1,2,3:2:0:0:
139,181,21313,1,2,3:2:0:0:
33,106,21516,6,0,P|80:109|117:87,1,89.2500017023087,2|0,3:2|3:2,0:2:0:0:
174,5,21921,1,2,3:2:0:0:
62,27,22124,1,0,3:2:0:0:
202,91,22326,2,0,L|182:200,1,89.2500017023087,10|0,3:2|3:2,0:2:0:0:
283,32,22732,2,0,L|299:119,1,89.2500017023087,2|0,3:2|3:2,0:2:0:0:
370,191,23137,5,2,3:2:0:0:
402,93,23340,1,0,3:2:0:0:
299,119,23543,1,0,3:2:0:0:
402,93,23745,1,2,3:2:0:0:
276,207,23948,1,8,3:2:0:0:
299,119,24151,1,0,3:2:0:0:
370,191,24353,1,2,3:2:0:0:
337,275,24556,1,2,3:2:0:0:
459,198,24759,6,0,P|447:239|436:293,1,89.2500017023087,2|0,3:2|3:2,0:2:0:0:
454,380,25164,1,2,3:2:0:0:
512,316,25367,1,0,3:2:0:0:
367,370,25570,2,0,P|326:358|272:347,1,89.2500017023087,10|0,3:2|3:2,0:2:0:0:
181,362,25975,1,2,3:2:0:0:
201,270,26178,1,2,3:2:0:0:
296,260,26380,6,0,L|302:230,4,22.3125004255772,2|0|0|0|2,3:2|3:2|3:2|3:2|3:2,0:2:0:0:
321,146,26786,1,0,3:2:0:0:
321,146,26989,2,0,P|277:155|234:167,1,89.2500017023087,2|8,3:2|3:2,0:2:0:0:
136,210,27394,5,2,3:2:0:0:
201,270,27597,1,2,3:2:0:0:
163,135,27799,1,2,3:2:0:0:
43,187,28002,6,0,P|54:229|63:273,2,89.2500017023087,2|0|2,3:2|3:2|3:2,0:2:0:0:
19,107,28610,1,0,3:2:0:0:
163,135,28813,1,10,3:2:0:0:
88,46,29016,6,0,P|85:35|82:24,2,22.3125004255772,0|0|0,3:2|3:2|3:2,0:2:0:0:
94,67,29218,1,2,3:2:0:0:
183,38,29421,1,0,3:2:0:0:
183,38,30840,5,2,1:2:0:0:
290,101,31043,2,0,P|346:86|417:73,1,115.50000352478,2|0,3:2|3:2,0:2:0:0:
369,168,31448,1,2,3:2:0:0:
196,128,31651,2,0,P|211:184|224:255,1,115.50000352478,2|0,1:2|3:2,0:2:0:0:
157,379,32056,5,10,3:2:0:0:
263,322,32259,1,8,3:0:0:0:
118,282,32462,1,2,3:2:0:0:
77,359,32664,1,2,3:2:0:0:
41,227,32867,1,0,1:2:0:0:
155,149,33070,1,2,3:2:0:0:
107,59,33272,6,0,P|61:93|42:146,1,115.50000352478,2|0,3:2|3:2,0:2:0:0:
261,169,33678,2,0,P|254:112|217:69,1,115.50000352478,10|0,3:2|3:2,0:2:0:0:
119,231,34083,1,2,1:2:0:0:
242,282,34286,6,0,L|371:261,1,115.50000352478,2|0,3:2|3:2,0:2:0:0:
154,324,34691,1,2,3:2:0:0:
261,169,34894,2,0,L|242:282,1,115.50000352478,2|0,1:2|3:2,0:2:0:0:
151,157,35299,5,10,3:2:0:0:
334,122,35502,1,10,3:0:0:0:
216,53,35705,1,2,1:2:0:0:
216,53,35806,1,0,1:2:0:0:
216,53,35907,1,2,1:2:0:0:
364,45,36110,6,0,P|420:34|476:19,1,115.50000352478,0|0,1:2|3:2,0:2:0:0:
512,149,36516,2,0,P|456:160|400:175,1,115.50000352478,0|0,3:2|3:2,0:2:0:0:
322,301,36921,5,10,3:2:0:0:
399,345,37124,1,2,3:2:0:0:
315,216,37326,1,2,1:2:0:0:
243,339,37529,6,0,B|108:377|166:253|36:283,1,231.000007049561,2|0,3:2|3:2,0:2:0:0:
159,167,38137,2,0,P|206:206|199:267,1,115.50000352478,0|0,1:2|3:2,0:2:0:0:
64,358,38543,5,10,3:2:0:0:
204,256,38745,1,10,3:0:0:0:
159,167,38948,1,2,3:2:0:0:
289,219,39151,1,2,3:2:0:0:
244,88,39353,6,0,L|250:54,4,28.8750008811951,0|0|0|0|0,1:2|3:2|3:2|3:2|3:2,0:2:0:0:
368,160,39759,2,0,P|434:155|464:116,1,115.50000352478,0|0,3:2|3:2,0:2:0:0:
359,3,40164,5,10,3:2:0:0:
390,84,40367,1,2,3:2:0:0:
250,60,40570,1,2,1:2:0:0:
368,160,40772,6,0,B|269:175|269:175|240:160|240:160|141:176,1,231.000007049561,2|0,3:2|3:2,0:2:0:0:
15,131,41380,2,0,P|30:187|43:258,1,115.50000352478,0|0,1:2|3:2,0:2:0:0:
13,381,41786,5,8,3:2:0:0:
127,268,41989,1,8,3:0:0:0:
263,334,42191,1,0,1:2:0:0:
263,334,42293,1,0,1:2:0:0:
263,334,42394,1,0,1:2:0:0:
399,268,42597,6,0,L|386:331,2,57.7500017623902,2|0|0,1:2|3:2|3:2,0:2:0:0:
483,193,43002,2,0,P|426:182|370:167,1,115.50000352478,2|0,3:2|3:2,0:2:0:0:
210,108,43407,2,0,B|270:109|289:182|289:182|281:102|363:84,1,231.000007049561,10|2,3:2|1:2,0:2:0:0:
205,187,44016,6,0,P|190:242|179:299,1,115.50000352478,2|0,3:2|3:2,0:2:0:0:
296,365,44421,1,2,3:2:0:0:
123,379,44624,2,0,P|85:330|92:261,1,115.50000352478,2|0,1:2|3:2,0:2:0:0:
137,135,45029,5,10,3:2:0:0:
179,299,45232,1,8,3:0:0:0:
205,187,45434,1,2,3:2:0:0:
287,266,45637,1,2,3:2:0:0:
131,217,45840,5,0,1:2:0:0:
210,99,46043,1,2,3:2:0:0:
319,183,46245,2,0,P|374:168|431:157,1,115.50000352478,2|0,3:2|3:2,0:2:0:0:
486,16,46651,2,0,P|402:38|317:55,1,173.250005287171,10|0,3:2|3:2,0:2:0:0:
293,60,47056,1,2,1:2:0:0:
235,211,47259,6,0,P|222:148|209:96,1,115.50000352478,2|0,3:2|3:2,0:2:0:0:
138,15,47664,1,2,3:2:0:0:
44,128,47867,1,2,1:2:0:0:
122,96,48070,1,2,3:2:0:0:
32,213,48272,1,10,3:2:0:0:
15,50,48475,1,8,3:0:0:0:
120,182,48678,1,2,1:2:0:0:
120,182,48779,1,0,1:2:0:0:
120,182,48880,1,2,1:2:0:0:
211,59,49083,6,0,P|224:122|237:174,1,115.50000352478,0|0,1:2|3:2,0:2:0:0:
379,189,49489,2,0,P|367:132|353:76,1,115.50000352478,0|0,3:2|3:2,0:2:0:0:
214,280,49894,6,0,B|349:242|291:366|421:336,1,231.000007049561,10|2,3:2|1:2,0:2:0:0:
511,252,50502,2,0,P|470:151|372:215,1,231.000007049561,2|0,3:2|3:2,0:2:0:0:
420,336,51110,5,0,1:2:0:0:
444,224,51313,1,0,3:2:0:0:
304,168,51516,1,10,3:2:0:0:
332,315,51718,1,8,3:0:0:0:
242,253,51921,1,2,3:2:0:0:
233,353,52124,1,2,3:2:0:0:
136,277,52326,6,0,L|129:312,4,28.8750008811951,0|0|0|0|0,1:2|3:2|3:2|3:2|3:2,0:2:0:0:
25,249,52732,2,0,L|48:365,1,115.50000352478,0|0,3:2|3:2,0:2:0:0:
95,195,53137,2,0,P|135:155|136:99,1,115.50000352478,10|0,3:2|3:2,0:2:0:0:
31,0,53543,1,2,1:2:0:0:
61,122,53745,1,2,3:2:0:0:
166,27,53948,6,0,P|278:51|393:57,1,231.000007049561,0|0,3:2|1:2,0:2:0:0:
506,11,54556,1,0,3:2:0:0:
491,166,54759,1,8,3:2:0:0:
394,56,54962,1,8,3:0:0:0:
373,174,55164,1,0,1:2:0:0:
373,174,55266,1,0,1:2:0:0:
373,174,55367,1,0,1:2:0:0:
163,151,55570,5,2,0:2:0:0:
210,63,55772,1,0,0:2:0:0:
299,104,55975,1,0,0:2:0:0:
163,151,56178,5,2,0:2:0:0:
210,63,56380,1,0,0:2:0:0:
299,104,56583,1,0,0:2:0:0:
105,69,56786,5,2,1:2:0:0:
304,14,56989,1,2,3:2:0:0:
246,171,57191,6,0,P|231:254|223:322,1,115.50000352478,2|0,3:2|3:2,0:2:0:0:
411,205,57597,2,0,P|402:147|391:91,1,115.50000352478,2|0,1:2|3:2,0:2:0:0:
318,322,58002,5,10,3:2:0:0:
488,261,58205,1,8,3:0:0:0:
410,384,58407,1,2,3:2:0:0:
327,219,58610,1,0,3:2:0:0:
244,370,58813,5,2,1:2:0:0:
399,288,59016,1,2,3:2:0:0:
163,240,59218,1,2,3:2:0:0:
318,322,59421,1,2,3:2:0:0:
240,172,59624,5,10,3:2:0:0:
171,324,59826,1,2,3:2:0:0:
327,219,60029,1,2,1:2:0:0:
244,370,60232,1,2,3:2:0:0:
166,135,60434,6,0,P|212:91|271:93,1,115.50000352478,2|0,3:2|3:2,0:2:0:0:
163,240,60840,2,0,P|101:222|74:170,1,115.50000352478,2|0,1:2|3:2,0:2:0:0:
42,30,61245,1,10,3:2:0:0:
166,135,61448,5,0,1:2:0:0:
35,8,61651,1,2,1:2:0:0:
0,211,61853,1,0,1:2:0:0:
141,42,62056,5,2,1:2:0:0:
76,180,62259,1,2,3:2:0:0:
240,172,62462,1,2,3:2:0:0:
261,83,62664,1,2,3:2:0:0:
159,220,62867,5,10,3:2:0:0:
180,309,63069,1,2,3:2:0:0:
315,257,63272,1,2,1:2:0:0:
336,168,63474,1,2,3:2:0:0:
181,22,63678,6,0,P|172:79|161:135,1,115.50000352478,2|0,3:2|3:2,0:2:0:0:
346,84,64083,2,0,P|402:72|459:64,1,115.50000352478,2|0,1:2|3:2,0:2:0:0:
280,1,64489,5,10,3:2:0:0:
240,172,64691,1,8,3:0:0:0:
181,22,64894,1,2,3:2:0:0:
346,84,65097,1,2,3:2:0:0:
157,117,65299,1,2,1:2:0:0:
411,205,65502,6,0,B|280:163|333:300|190:257,1,231.000007049561,2|0,3:2|3:2,0:2:0:0:
9,243,66110,2,0,P|46:191|117:214,1,115.50000352478,8|0,3:2|3:2,0:2:0:0:
161,342,66516,2,0,P|218:350|274:361,1,115.50000352478,0|0,1:2|3:2,0:2:0:0:
406,341,66921,5,0,3:2:0:0:
284,245,67124,1,0,3:2:0:0:
460,205,67326,1,0,1:2:0:0:
379,256,67529,1,0,3:2:0:0:
345,101,67732,1,8,3:2:0:0:
455,296,67934,5,0,1:2:0:0:
495,110,68137,1,0,1:2:0:0:
452,315,68340,1,0,1:2:0:0:
269,155,68543,5,2,1:2:0:0:
211,262,68745,1,0,3:2:0:0:
103,212,68948,1,0,3:2:0:0:
269,155,69151,5,2,3:2:0:0:
211,262,69353,1,8,3:2:0:0:
103,212,69556,1,0,3:2:0:0:
316,260,69759,5,2,1:2:0:0:
117,315,69962,1,2,3:2:0:0:
180,166,70164,6,0,P|195:83|203:15,1,115.50000352478,2|0,3:2|3:2,0:2:0:0:
7,7,70570,2,0,P|16:65|27:121,1,115.50000352478,2|0,1:2|3:2,0:2:0:0:
189,269,70975,5,10,3:2:0:0:
19,208,71178,1,8,3:0:0:0:
97,331,71380,1,2,3:2:0:0:
180,166,71583,1,0,3:2:0:0:
183,354,71786,5,2,1:2:0:0:
107,236,71989,1,2,3:2:0:0:
266,180,72191,1,2,3:2:0:0:
268,321,72394,1,2,3:2:0:0:
237,99,72597,5,10,3:2:0:0:
189,269,72799,1,2,3:2:0:0:
356,195,73002,1,2,1:2:0:0:
268,321,73205,1,2,3:2:0:0:
440,251,73407,6,0,P|425:334|417:402,1,115.50000352478,2|0,3:2|3:2,0:2:0:0:
356,195,73813,2,0,P|410:173|465:155,1,115.50000352478,2|0,1:2|3:2,0:2:0:0:
343,277,74218,1,10,3:2:0:0:
316,63,74421,5,0,1:2:0:0:
211,229,74624,1,2,1:2:0:0:
312,41,74826,1,0,1:2:0:0:
113,107,75029,5,2,1:2:0:0:
297,159,75232,1,2,3:2:0:0:
202,42,75434,1,2,3:2:0:0:
126,196,75637,1,2,3:2:0:0:
110,11,75840,5,10,3:2:0:0:
204,132,76043,1,2,3:2:0:0:
30,60,76245,1,2,1:2:0:0:
36,215,76448,1,2,3:2:0:0:
204,132,76651,6,0,P|231:182|230:240,1,115.50000352478,2|0,3:2|3:2,0:2:0:0:
94,374,77056,2,0,P|123:325|174:297,1,115.50000352478,2|0,1:2|3:2,0:2:0:0:
348,341,77462,5,10,3:2:0:0:
180,378,77664,1,8,3:0:0:0:
314,254,77867,1,2,3:2:0:0:
416,285,78070,1,2,3:2:0:0:
311,153,78272,1,2,1:2:0:0:
134,98,78475,6,0,B|230:89|230:89|259:61|259:61|369:51,1,231.000007049561,2|0,3:2|3:2,0:2:0:0:
507,186,79083,2,0,P|450:174|393:166,1,115.50000352478,8|0,3:2|3:2,0:2:0:0:
190,176,79489,2,0,P|247:204|235:278,1,115.50000352478,0|0,1:2|3:2,0:2:0:0:
162,372,79894,5,0,3:2:0:0:
106,235,80097,1,0,3:2:0:0:
262,343,80299,1,0,1:2:0:0:
81,326,80502,1,0,3:2:0:0:
190,176,80705,1,8,3:2:0:0:
162,372,80907,5,0,1:2:0:0:
307,180,81110,1,0,1:2:0:0:
91,119,81313,1,0,1:2:0:0:
181,268,81516,1,0,1:2:0:0:
