osu file format v14

[General]
AudioFilename: audio.mp3
AudioLeadIn: 0
PreviewTime: 63213
Countdown: 0
SampleSet: Soft
StackLeniency: 0.7
Mode: 0
LetterboxInBreaks: 0
WidescreenStoryboard: 1

[Editor]
Bookmarks: 4136,18905,29982,33674,48444,63213,70597,73828,83520,90905,92751
DistanceSpacing: 1
BeatDivisor: 4
GridSize: 8
TimelineZoom: 1.6

[Metadata]
Title:CAN'T GET OVER YOU (feat. Clams Casino)
TitleUnicode:CAN'T GET OVER YOU (feat. Clams Casino)
Artist:Joji
ArtistUnicode:Joji
Creator:Vanchanical
Version:HARD
Source:
Tags:english hip hop hip-hop rap george miller filthyfrank filthy frank pink guy BALLADS 1 Thundercat Roget 88rising 88 cant pop alternative r&b
BeatmapID:2983639
BeatmapSetID:1448700

[Difficulty]
HPDrainRate:5
CircleSize:4.3
OverallDifficulty:6.5
ApproachRate:7.8
SliderMultiplier:1.6
SliderTickRate:1

[Events]
//Background and Video events
0,0,"69250814_p0.jpg",0,0
//Break Periods
//Storyboard Layer 0 (Background)
//Storyboard Layer 1 (Fail)
//Storyboard Layer 2 (Pass)
//Storyboard Layer 3 (Foreground)
//Storyboard Layer 4 (Overlay)
//Storyboard Sound Samples

[TimingPoints]
6,461.538461538462,4,2,0,40,1,0
6,-100,4,2,0,40,0,0
32544,-100,4,2,0,5,0,0
33236,-100,4,2,0,40,0,0
62775,-100,4,2,0,40,0,1
70159,-100,4,2,0,40,0,0

[Colours]
Combo1 : 154,147,240
Combo2 : 192,192,192
Combo3 : 208,139,119
Combo4 : 252,163,167

[HitObjects]
0,89,6,6,0,B|52:47|111:83|82:129|167:129,1,160,8|2,2:3|2:3,0:0:0:0:
199,75,698,1,0,2:3:0:0:
199,75,929,2,0,P|232:73|282:56,1,80,0|0,2:3|2:3,0:0:0:0:
339,9,1390,2,0,P|372:11|422:28,1,80,2|0,2:3|2:3,0:0:0:0:
474,80,1852,6,0,B|447:120|447:120|487:234,1,160,8|2,2:3|2:3,0:0:0:0:
483,305,2544,2,0,P|420:309|402:324,1,80,0|0,2:3|2:3,0:0:0:0:
362,383,3006,1,8,2:3:0:0:
242,296,3236,6,0,L|212:294,3,26.6666666666667,8|8|8|8,2:0|2:0|2:0|2:0,0:0:0:0:
156,349,3698,6,0,P|88:350|54:262,1,160,6|2,2:0|2:3,0:0:0:0:
12,204,4390,1,0,2:3:0:0:
12,204,4621,2,0,L|22:107,1,80,0|0,2:3|2:3,0:0:0:0:
61,56,5082,6,0,P|101:57|130:27,1,80,2|0,2:3|0:0,0:0:0:0:
180,111,5544,6,0,P|250:73|312:116,1,160,2|2,2:0|2:3,0:0:0:0:
340,192,6236,1,0,2:3:0:0:
340,192,6467,2,0,P|323:257|320:292,1,80,0|8,2:3|2:3,0:0:0:0:
363,338,6929,6,0,P|395:339|424:384,1,80,2|0,2:3|0:0,0:0:0:0:
493,308,7390,6,0,P|466:238|383:235,1,160,2|2,2:0|2:3,0:0:0:0:
329,177,8082,1,8,2:3:0:0:
276,237,8313,2,0,B|224:279|165:243|194:197|109:197,1,160,2|2,2:0|2:3,0:0:0:0:
70,155,9006,1,0,2:3:0:0:
53,77,9236,6,0,P|102:70|133:38,1,80,2|0,2:0|0:0,0:0:0:0:
193,92,9698,2,0,P|232:94|264:117,1,80,2|0,2:3|2:3,0:0:0:0:
365,140,10159,2,0,P|360:80|347:54,1,80,2|0,2:0|2:3,0:0:0:0:
476,0,10621,2,0,P|462:37|463:77,1,80,2|0,2:0|2:3,0:0:0:0:
502,147,11082,6,0,P|435:210|452:295,1,160,2|2,2:0|2:3,0:0:0:0:
458,354,11775,1,0,2:3:0:0:
458,354,12006,2,0,L|366:351,1,80,0|0,2:3|2:3,0:0:0:0:
304,318,12467,6,0,P|260:323|238:351,1,80,2|0,2:3|0:0,0:0:0:0:
198,261,12929,6,0,P|147:267|82:185,1,160,2|2,2:0|2:3,0:0:0:0:
27,139,13621,1,0,2:3:0:0:
27,139,13852,2,0,P|42:93|33:51,1,80,0|0,2:3|0:0,0:0:0:0:
104,18,14313,2,0,P|151:21|186:59,1,80,2|0,2:3|2:3,0:0:0:0:
249,73,14775,6,0,L|232:263,1,160,2|2,2:0|2:3,0:0:0:0:
182,292,15467,1,8,2:3:0:0:
244,364,15698,5,2,2:0:0:0:
327,346,15929,1,0,0:0:0:0:
327,346,16044,1,0,0:0:0:0:
327,346,16159,2,0,L|426:355,1,80,2|0,2:3|2:3,0:0:0:0:
467,300,16621,2,0,L|440:130,1,160,2|2,2:0|2:3,0:0:0:0:
404,71,17313,1,0,2:3:0:0:
337,115,17544,2,0,P|287:125|256:104,1,80,2|8,2:0|2:3,0:0:0:0:
208,53,18006,2,0,P|158:43|127:64,1,80,2|8,2:0|2:3,0:0:0:0:
56,73,18467,6,0,P|78:118|78:170,1,80,2|0,2:0|2:3,0:0:0:0:
108,182,18813,1,0,0:0:0:0:
108,182,18929,2,0,P|104:231|78:277,1,80,2|0,2:3|2:3,0:0:0:0:
36,316,19390,1,0,2:3:0:0:
93,371,19621,1,0,2:3:0:0:
159,326,19852,6,0,P|204:318|237:348,1,80,2|0,2:3|0:0,0:0:0:0:
323,291,20313,6,0,P|305:240|278:224,1,80,2|0,2:0|2:3,0:0:0:0:
266,196,20659,1,0,0:0:0:0:
266,196,20775,2,0,P|212:186|185:201,1,80,2|0,2:3|2:3,0:0:0:0:
122,237,21236,1,0,2:3:0:0:
75,171,21467,1,8,2:3:0:0:
104,96,21698,6,0,L|189:90,1,80,2|0,2:3|2:3,0:0:0:0:
235,29,22159,2,0,L|327:34,1,80,2|0,2:0|2:3,0:0:0:0:
342,69,22506,1,0,0:0:0:0:
342,69,22621,2,0,L|434:64,1,80,2|8,2:3|2:3,0:0:0:0:
485,128,23082,5,2,2:0:0:0:
485,128,23198,1,0,0:0:0:0:
485,128,23313,2,0,P|465:173|482:222,1,80,0|2,2:3|2:3,0:0:0:0:
499,276,23775,1,0,2:3:0:0:
446,336,24006,6,0,P|385:355|350:333,1,80,2|0,2:0|2:3,0:0:0:0:
336,362,24352,1,0,0:0:0:0:
336,362,24467,2,0,P|289:318|290:277,1,80,2|0,2:3|2:3,0:0:0:0:
249,234,24929,6,0,P|299:228|343:211,1,80,2|0,2:0|2:3,0:0:0:0:
382,132,25390,2,0,P|332:126|288:109,1,80,2|0,2:0|2:3,0:0:0:0:
265,45,25852,6,0,P|204:26|169:48,1,80,2|0,2:0|2:3,0:0:0:0:
155,19,26198,1,0,0:0:0:0:
155,19,26313,2,0,P|108:62|109:103,1,80,2|0,2:3|2:3,0:0:0:0:
42,125,26775,1,0,2:3:0:0:
42,125,26890,1,0,0:0:0:0:
42,125,27006,1,0,2:3:0:0:
74,197,27236,6,0,P|46:226|6:234,1,80,2|0,2:3|0:0,0:0:0:0:
61,314,27698,6,0,P|106:298|139:306,1,80,2|0,2:0|2:3,0:0:0:0:
177,293,28044,1,0,0:0:0:0:
177,293,28159,2,0,P|213:323|222:356,1,80,2|0,2:3|2:3,0:0:0:0:
297,382,28621,1,0,2:3:0:0:
365,339,28852,1,8,2:3:0:0:
429,292,29082,2,0,L|422:204,1,80,2|0,2:3|2:3,0:0:0:0:
256,192,29544,12,0,32544,0:0:0:0:
512,72,33236,6,0,P|476:51|425:63,1,80,6|0,2:0|2:3,0:0:0:0:
412,85,33582,1,0,0:0:0:0:
412,85,33698,2,0,P|376:106|325:94,1,80,2|0,2:3|2:3,0:0:0:0:
284,43,34159,1,0,2:3:0:0:
212,79,34390,1,0,2:3:0:0:
141,40,34621,6,0,P|132:85|146:125,1,80,2|0,2:3|0:0,0:0:0:0:
56,162,35082,6,0,P|87:192|99:234,1,80,2|0,2:0|2:3,0:0:0:0:
79,263,35429,1,0,0:0:0:0:
79,263,35544,2,0,P|48:293|36:335,1,80,2|0,2:3|2:3,0:0:0:0:
99,377,36006,1,0,2:3:0:0:
169,339,36236,2,0,P|221:350|265:346,1,80,8|2,2:3|2:3,0:0:0:0:
309,297,36698,5,0,2:3:0:0:
309,297,36813,1,0,0:0:0:0:
309,297,36929,2,0,L|296:196,1,80,2|0,2:0|2:3,0:0:0:0:
271,195,37275,1,0,0:0:0:0:
271,195,37390,2,0,L|281:115,1,80,2|8,2:3|2:3,0:0:0:0:
336,58,37852,5,2,2:0:0:0:
336,58,37967,1,0,0:0:0:0:
336,58,38082,2,0,P|390:60|415:94,1,80,0|2,0:0|2:3,0:0:0:0:
460,136,38544,5,0,2:3:0:0:
460,136,38659,1,0,0:0:0:0:
460,136,38775,2,0,P|421:175|413:201,1,80,2|0,2:0|0:0,0:0:0:0:
434,237,39121,1,0,0:0:0:0:
434,237,39236,2,0,P|473:276|481:302,1,80,2|0,2:3|2:3,0:0:0:0:
425,357,39698,6,0,P|376:360|341:381,1,80,2|0,2:0|2:3,0:0:0:0:
294,315,40159,2,0,P|245:312|210:291,1,80,2|0,2:0|2:3,0:0:0:0:
138,285,40621,6,0,P|123:246|137:199,1,80,2|0,2:0|2:3,0:0:0:0:
165,187,40967,1,0,0:0:0:0:
165,187,41082,2,0,P|180:148|166:101,1,80,2|0,2:3|2:3,0:0:0:0:
152,33,41544,2,0,P|196:27|238:11,1,80,0|0,2:3|2:3,0:0:0:0:
299,54,42006,6,0,P|347:66|370:96,1,80,2|0,2:3|0:0,0:0:0:0:
445,141,42467,6,0,P|405:170|394:209,1,80,2|0,2:0|2:3,0:0:0:0:
364,223,42813,1,0,0:0:0:0:
364,223,42929,2,0,P|369:272|397:301,1,80,2|0,2:3|2:3,0:0:0:0:
354,367,43390,1,0,2:3:0:0:
273,366,43621,2,0,P|230:351|185:348,1,80,8|2,2:3|2:3,0:0:0:0:
123,363,44082,5,0,2:3:0:0:
123,363,44197,1,0,0:0:0:0:
123,363,44313,2,0,P|84:324|76:298,1,80,2|0,2:0|2:3,0:0:0:0:
97,262,44659,1,0,0:0:0:0:
97,262,44775,2,0,P|136:223|144:197,1,80,2|8,2:3|2:3,0:0:0:0:
201,145,45236,1,2,2:0:0:0:
201,145,45352,1,0,0:0:0:0:
201,145,45467,2,0,L|189:52,1,80,0|2,0:0|2:3,0:0:0:0:
252,13,45929,1,0,2:3:0:0:
327,39,46159,6,0,P|379:41|406:77,1,80,8|0,2:3|0:0,0:0:0:0:
416,136,46621,2,0,P|440:182|422:223,1,80,8|0,2:3|0:0,0:0:0:0:
376,261,47082,2,0,P|348:305|303:310,1,80,8|0,2:3|0:0,0:0:0:0:
247,288,47544,2,0,P|195:286|167:250,1,80,8|0,2:3|0:0,0:0:0:0:
155,190,48006,6,0,P|201:153|182:58,1,160,6|2,2:0|2:3,0:0:0:0:
124,10,48698,1,0,2:3:0:0:
56,52,48929,2,0,L|49:149,1,80,0|0,2:3|2:3,0:0:0:0:
13,202,49390,1,2,2:3:0:0:
60,278,49621,1,0,0:0:0:0:
60,278,49736,1,0,0:0:0:0:
60,278,49852,2,0,L|99:272,2,40,2|0|0,2:0|0:0|2:3,0:0:0:0:
156,328,50313,1,2,2:3:0:0:
224,369,50544,2,0,L|322:356,1,80,0|0,2:3|2:3,0:0:0:0:
383,355,51006,5,8,2:0:0:0:
441,300,51236,1,8,2:0:0:0:
426,229,51467,1,8,2:0:0:0:
426,229,51582,1,0,0:0:0:0:
426,229,51698,2,0,P|382:205|336:215,1,80,2|0,2:0|2:3,0:0:0:0:
320,193,52044,1,0,0:0:0:0:
320,193,52160,2,0,P|276:217|230:207,1,80,2|8,2:3|2:3,0:0:0:0:
171,239,52621,5,2,2:0:0:0:
105,192,52852,1,0,2:3:0:0:
105,192,52967,1,0,0:0:0:0:
105,192,53082,2,0,L|111:107,1,80,2|0,2:3|2:3,0:0:0:0:
159,48,53544,6,0,P|210:19|294:81,1,160,2|2,2:0|2:3,0:0:0:0:
352,131,54236,1,0,2:3:0:0:
352,131,54352,1,0,0:0:0:0:
352,131,54467,2,0,P|328:175|333:209,1,80,2|0,2:0|2:3,0:0:0:0:
398,246,54929,2,0,P|422:290|417:324,1,80,2|0,2:0|2:3,0:0:0:0:
350,359,55390,6,0,L|252:351,1,80,2|0,2:0|2:3,0:0:0:0:
234,366,55736,1,0,0:0:0:0:
234,366,55852,2,0,L|136:358,1,80,2|0,2:3|2:3,0:0:0:0:
82,323,56313,2,0,P|72:272|84:235,1,80,0|0,2:3|2:3,0:0:0:0:
119,176,56775,6,0,P|82:149|42:146,1,80,2|0,2:3|0:0,0:0:0:0:
12,73,57236,6,0,P|38:37|84:34,1,80,2|0,2:0|2:3,0:0:0:0:
110,16,57582,1,0,0:0:0:0:
110,16,57698,2,0,P|154:20|179:58,1,80,2|0,2:3|0:0,0:0:0:0:
243,88,58159,5,0,2:3:0:0:
263,165,58390,1,8,2:3:0:0:
205,221,58621,1,2,2:3:0:0:
202,301,58852,1,0,0:0:0:0:
202,301,58967,1,0,0:0:0:0:
202,301,59082,2,0,P|253:322|268:350,1,80,2|0,2:0|2:3,0:0:0:0:
308,353,59429,1,0,0:0:0:0:
308,353,59544,2,0,P|359:332|374:304,1,80,2|8,2:3|2:3,0:0:0:0:
433,261,60006,5,2,2:0:0:0:
433,261,60121,1,0,0:0:0:0:
433,261,60236,2,0,L|421:178,1,80,0|2,0:0|2:3,0:0:0:0:
455,109,60698,1,0,2:3:0:0:
398,52,60929,6,0,P|357:46|315:78,1,80,8|0,2:3|0:0,0:0:0:0:
259,16,61390,2,0,P|218:22|176:-10,1,80,8|0,2:3|0:0,0:0:0:0:
108,27,61852,2,0,P|115:84|146:108,1,80,8|0,2:3|0:0,0:0:0:0:
0,188,62313,2,0,P|22:155|20:116,1,80,8|0,2:3|0:0,0:0:0:0:
91,223,62775,6,0,P|149:240|137:306,1,120,14|0,2:3|0:0,0:0:0:0:
135,328,63236,2,0,B|169:310|207:332|190:337|226:358|268:340,1,120,10|0,2:3|0:0,0:0:0:0:
284,364,63698,2,0,P|296:311|367:290,1,120,10|0,2:3|0:0,0:0:0:0:
382,313,64159,5,10,2:3:0:0:
491,196,64621,2,0,P|451:146|461:91,1,120,10|0,2:3|0:0,0:0:0:0:
488,66,65082,2,0,P|424:44|361:31,1,120,10|0,2:3|0:0,0:0:0:0:
337,14,65544,2,0,P|281:53|221:49,1,120,10|0,2:3|0:0,0:0:0:0:
206,21,66006,1,10,2:3:0:0:
206,21,66236,1,0,0:0:0:0:
107,65,66467,6,0,B|131:162|131:162|117:186,1,120,10|0,2:3|0:0,0:0:0:0:
123,219,66929,2,0,P|100:269|141:317,1,120,10|0,2:3|0:0,0:0:0:0:
164,344,67390,2,0,P|230:333|266:373,1,120,10|0,2:3|0:0,0:0:0:0:
304,367,67852,1,10,2:3:0:0:
443,289,68313,6,0,L|413:139,1,120,10|0,2:3|0:0,0:0:0:0:
439,137,68775,2,0,P|366:121|341:57,1,120,10|0,2:3|0:0,0:0:0:0:
352,47,69236,2,0,P|292:45|258:97,1,120,10|0,2:3|0:0,0:0:0:0:
225,111,69698,2,0,L|237:219,1,80,10|0,2:3|0:0,0:0:0:0:
285,251,70159,6,0,P|267:302|240:318,1,80,6|0,2:0|2:3,0:0:0:0:
228,346,70505,1,0,0:0:0:0:
228,346,70621,2,0,P|174:356|147:341,1,80,2|0,2:3|2:3,0:0:0:0:
76,322,71082,2,0,P|69:284|49:246,1,80,0|0,2:3|2:3,0:0:0:0:
5,180,71544,1,2,2:3:0:0:
47,115,71775,5,0,2:3:0:0:
47,115,71890,1,0,0:0:0:0:
47,115,72006,2,0,P|95:89|122:93,1,80,2|0,2:0|2:3,0:0:0:0:
159,80,72352,1,0,0:0:0:0:
159,80,72468,2,0,P|205:108|215:133,1,80,2|0,2:3|2:3,0:0:0:0:
279,177,72929,2,0,P|256:233|267:266,1,80,0|8,2:3|2:3,0:0:0:0:
304,315,73390,1,2,2:3:0:0:
380,362,73621,5,0,2:3:0:0:
380,362,73736,1,0,0:0:0:0:
380,362,73852,2,0,P|446:337|437:250,1,160,2|2,2:0|2:3,0:0:0:0:
403,188,74544,1,0,0:0:0:0:
327,213,74775,2,0,B|275:255|216:219|245:173|160:173,1,160,2|2,2:0|2:3,0:0:0:0:
128,122,75467,1,0,2:3:0:0:
172,55,75698,6,0,P|209:34|261:37,1,80,2|0,2:0|2:3,0:0:0:0:
321,6,76159,2,0,P|358:27|410:24,1,80,2|0,2:3|2:3,0:0:0:0:
402,108,76621,2,0,P|397:157|368:194,1,80,2|0,2:0|2:3,0:0:0:0:
512,258,77082,2,0,P|492:223|491:183,1,80,2|0,2:0|2:3,0:0:0:0:
422,290,77544,6,0,L|328:282,1,80,2|0,2:0|2:3,0:0:0:0:
311,308,77890,1,0,0:0:0:0:
311,308,78006,2,0,L|217:300,1,80,2|0,2:3|2:3,0:0:0:0:
158,332,78467,2,0,P|105:345|72:372,1,80,0|0,2:3|2:3,0:0:0:0:
59,282,78929,6,0,P|28:238|-8:234,1,80,2|0,2:3|0:0,0:0:0:0:
45,163,79390,6,0,P|99:159|124:126,1,80,2|0,2:0|2:3,0:0:0:0:
156,129,79736,1,0,0:0:0:0:
156,129,79852,2,0,P|179:80|163:42,1,80,2|0,2:3|2:3,0:0:0:0:
244,19,80313,2,0,L|332:27,1,80,0|8,2:3|2:3,0:0:0:0:
397,57,80775,1,2,2:3:0:0:
350,123,81006,5,0,2:3:0:0:
350,123,81121,1,0,0:0:0:0:
350,123,81236,2,0,P|318:166|327:207,1,80,2|0,2:0|2:3,0:0:0:0:
294,222,81582,1,0,0:0:0:0:
294,222,81698,2,0,P|316:271|355:283,1,80,2|8,2:3|2:3,0:0:0:0:
310,360,82159,5,2,2:0:0:0:
310,360,82275,1,0,0:0:0:0:
310,360,82390,2,0,L|222:365,1,80,0|2,0:0|2:3,0:0:0:0:
184,298,82852,1,0,2:3:0:0:
120,249,83082,6,0,P|75:221|70:176,1,80,8|0,2:3|0:0,0:0:0:0:
86,119,83544,2,0,P|88:67|124:40,1,80,8|0,2:3|0:0,0:0:0:0:
184,29,84005,2,0,P|230:4|271:23,1,80,8|0,2:3|0:0,0:0:0:0:
309,70,84467,2,0,P|353:97|359:142,1,80,8|0,2:3|0:0,0:0:0:0:
340,201,84929,6,0,P|281:210|250:301,1,160,6|2,2:0|2:3,0:0:0:0:
297,366,85621,1,0,2:3:0:0:
297,366,85852,2,0,L|391:359,1,80,0|0,2:3|2:3,0:0:0:0:
431,301,86313,1,2,2:3:0:0:
490,247,86544,5,0,2:3:0:0:
490,247,86659,1,0,0:0:0:0:
490,247,86775,2,0,P|493:193|473:159,1,80,2|0,2:0|2:3,0:0:0:0:
484,133,87121,1,0,0:0:0:0:
484,133,87237,2,0,P|438:103|399:103,1,80,2|0,2:3|2:3,0:0:0:0:
344,141,87698,2,0,L|254:149,1,80,0|8,2:3|2:3,0:0:0:0:
209,89,88159,6,0,P|185:46|197:4,1,80,2|0,2:3|0:0,0:0:0:0:
97,45,88621,6,0,P|98:103|69:130,1,80,2|0,2:0|2:3,0:0:0:0:
92,162,88967,1,0,0:0:0:0:
92,162,89082,2,0,P|42:191|4:180,1,80,2|8,2:3|2:3,0:0:0:0:
0,271,89544,1,2,2:0:0:0:
0,271,89659,1,0,0:0:0:0:
0,271,89775,2,0,L|10:357,1,80,0|2,0:0|2:3,0:0:0:0:
87,369,90236,1,0,2:3:0:0:
127,299,90467,6,0,P|168:305|210:273,1,80,8|0,2:3|0:0,0:0:0:0:
257,343,90928,2,0,P|298:337|340:369,1,80,8|0,2:3|0:0,0:0:0:0:
394,306,91390,2,0,P|387:249|356:225,1,80,8|0,2:3|0:0,0:0:0:0:
363,154,91852,2,0,P|310:131|273:146,1,80,8|0,2:3|0:0,0:0:0:0:
233,192,92313,1,6,2:0:0:0:
