osu file format v14

[General]
AudioFilename: audio.mp3
AudioLeadIn: 0
PreviewTime: 2898
Countdown: 0
SampleSet: Soft
StackLeniency: 0.4
Mode: 0
LetterboxInBreaks: 0
WidescreenStoryboard: 1

[Editor]
Bookmarks: 2901,48886,94874,140862
DistanceSpacing: 1
BeatDivisor: 8
GridSize: 32
TimelineZoom: 2.2

[Metadata]
Title:Afterthought
TitleUnicode:Afterthought
Artist:Joji & BENEE
ArtistUnicode:Joji & BENEE
Creator:calle
Version:casper & inti's Normal
Source:
Tags:nyantiaz intiaz narrative casperisapotato english pop hiphop hip-hop 88rising nectar pink guy filthy frank collab
BeatmapID:3875443
BeatmapSetID:1879976

[Difficulty]
HPDrainRate:3.5
CircleSize:3.5
OverallDifficulty:4
ApproachRate:5
SliderMultiplier:1.05
SliderTickRate:1

[Events]
//Background and Video events
0,0,"nectar.jpg",0,0
//Break Periods
2,72079,76428
2,118067,122416
2,141061,145410
//Storyboard Layer 0 (Background)
//Storyboard Layer 1 (Fail)
//Storyboard Layer 2 (Pass)
//Storyboard Layer 3 (Foreground)
//Storyboard Layer 4 (Overlay)
//Storyboard Sound Samples

[TimingPoints]
2898,359.281437125748,4,2,1,65,1,0
23017,-100,4,2,1,50,0,0
25892,-100,4,2,1,65,0,0
47089,-100,4,2,1,70,0,0
49604,-95.2380952380952,4,2,1,80,0,1
69005,-100,4,2,1,80,0,1
71880,-100,4,2,1,50,0,0
77628,-100,4,2,1,65,0,0
94874,-100,4,2,1,70,0,0
114993,-100,4,2,1,60,0,0
123616,-95.2380952380952,4,2,1,80,0,1
137987,-95.2380952380952,4,2,1,60,0,1
138347,-100,4,2,1,60,0,1
140862,-100,4,2,1,60,0,0
146610,-100,4,2,1,75,0,0
160981,-100,4,2,1,65,0,0

[Colours]
Combo1 : 133,33,55
Combo2 : 220,41,60
SliderTrackOverride : 30,15,16

[HitObjects]
485,102,2898,6,0,L|461:226,1,105,2|2,3:2|0:2,0:0:0:0:
368,246,3616,2,0,L|347:138,1,105,10|2,0:2|3:2,0:0:0:0:
306,120,4155,1,2,0:3:0:0:
306,120,4335,2,0,P|247:119|197:73,1,105,2|2,0:2|3:2,0:0:0:0:
144,12,5053,1,10,0:2:0:0:
40,28,5412,1,2,3:2:0:0:
106,109,5772,6,0,B|116:174|116:174|111:200|111:200|124:276,1,157.5,2|4,3:2|0:3,0:0:0:0:
89,305,6490,1,10,0:2:0:0:
180,367,6850,1,2,3:2:0:0:
180,367,7029,2,0,L|290:347,1,105,2|2,0:3|0:3,0:0:0:0:
322,313,7568,2,0,L|395:330,1,52.5,0|4,3:0|0:3,0:0:0:0:
420,302,7927,2,0,P|438:261|411:196,1,105,10|2,0:2|3:2,0:0:0:0:
397,164,8466,1,0,3:0:0:0:
397,164,8646,6,0,L|415:47,1,105,2|2,3:2|0:2,0:0:0:0:
309,41,9365,2,0,L|291:158,1,105,10|2,0:2|3:2,0:0:0:0:
252,176,9903,1,2,0:3:0:0:
252,176,10083,2,0,L|186:189,2,52.5,2|2|0,0:2|0:3|3:0,0:0:0:0:
332,243,10802,1,10,0:2:0:0:
288,338,11161,1,2,3:2:0:0:
185,318,11520,6,0,B|115:306|115:306|98:292|98:292|29:280,1,157.5,2|4,3:2|0:3,0:0:0:0:
12,232,12239,1,8,0:2:0:0:
88,160,12598,2,0,L|74:93,1,52.5,0|2,3:0|0:3,0:0:0:0:
102,62,12957,2,0,B|153:51|153:51|198:78,1,105,2|0,0:2|3:0,0:0:0:0:
233,117,13496,1,4,0:3:0:0:
233,117,13676,2,0,B|284:128|284:128|345:91,1,105,10|2,0:2|3:3,0:0:0:0:
373,70,14215,1,2,3:2:0:0:
373,70,14395,1,2,3:3:0:0:
508,227,15113,6,0,P|464:261|398:251,1,105,10|2,0:2|3:2,0:0:0:0:
378,232,15652,1,2,0:3:0:0:
378,232,15832,2,0,P|334:198|268:208,1,105,2|0,0:2|3:0,0:0:0:0:
196,251,16550,1,10,0:2:0:0:
121,177,16909,2,0,L|58:158,1,52.5,2|2,3:2|0:2,0:0:0:0:
31,197,17269,6,0,L|64:368,1,157.5,2|2,3:2|0:2,0:0:0:0:
107,375,17987,1,10,0:2:0:0:
197,320,18347,2,0,L|263:335,1,52.5,2|2,3:2|0:3,0:0:0:0:
295,307,18706,2,0,L|272:183,1,105,2|0,0:2|3:0,0:0:0:0:
233,172,19245,1,2,0:2:0:0:
233,172,19424,2,0,L|210:48,1,105,10|0,0:2|3:0,0:0:0:0:
238,24,19963,1,0,3:0:0:0:
238,24,20143,1,2,3:2:0:0:
42,85,20862,6,0,P|10:135|26:187,1,105,10|2,0:2|3:2,0:0:0:0:
60,216,21400,1,2,0:3:0:0:
60,216,21580,2,0,P|92:266|76:318,2,105,2|0|10,0:2|3:0|0:2,0:0:0:0:
140,147,22658,1,2,3:2:0:0:
236,188,23017,1,2,0:2:0:0:
344,359,25892,6,0,P|372:313|355:237,1,105,2|2,3:2|0:2,0:0:0:0:
303,182,26610,2,0,P|275:138|277:86,1,105,10|2,0:2|3:2,0:0:0:0:
304,43,27149,1,2,0:3:0:0:
304,43,27329,2,0,L|437:15,1,105,2|2,0:2|3:2,0:0:0:0:
486,89,28047,1,10,0:2:0:0:
402,152,28406,1,2,3:2:0:0:
467,234,28766,6,0,B|484:337|484:337|435:380,1,157.5,2|4,3:2|0:3,0:0:0:0:
393,358,29484,1,10,0:2:0:0:
321,288,29844,1,2,3:2:0:0:
321,288,30023,2,0,L|211:308,1,105,2|2,0:3|0:3,0:0:0:0:
172,279,30562,2,0,L|159:203,1,52.5,0|4,3:0|0:3,0:0:0:0:
196,186,30921,2,0,P|226:128|199:48,1,105,10|2,0:2|3:2,0:0:0:0:
197,44,31460,1,0,3:0:0:0:
197,44,31640,6,0,L|344:13,1,105,2|2,3:2|0:2,0:0:0:0:
342,118,32359,2,0,L|489:149,1,105,10|2,0:2|3:2,0:0:0:0:
498,127,32897,1,2,0:3:0:0:
498,127,33077,2,0,L|510:62,2,52.5,2|2|0,0:2|0:3|3:0,0:0:0:0:
476,229,33796,1,10,0:2:0:0:
454,331,34155,1,2,3:2:0:0:
371,265,34514,6,0,B|325:239|325:239|197:267,1,157.5,2|4,3:2|0:3,0:0:0:0:
194,306,35233,1,8,0:2:0:0:
104,251,35592,2,0,L|93:199,1,52.5,0|2,3:0|0:3,0:0:0:0:
138,172,35951,2,0,P|170:123|160:70,1,105,2|0,0:2|3:0,0:0:0:0:
117,54,36490,1,4,0:3:0:0:
117,54,36670,2,0,P|68:22|15:32,1,105,10|2,0:2|3:3,0:0:0:0:
0,74,37209,1,2,3:3:0:0:
0,74,37389,1,2,3:3:0:0:
174,190,38107,6,0,L|194:310,1,105,10|2,0:2|3:2,0:0:0:0:
154,330,38646,1,2,0:3:0:0:
154,330,38826,2,0,P|114:362|62:363,1,105,2|0,0:2|3:0,0:0:0:0:
4,275,39544,1,10,0:2:0:0:
66,190,39903,2,0,L|55:123,1,52.5,2|0,3:2|0:0,0:0:0:0:
27,94,40263,6,0,P|65:46|166:54,1,157.5,2|4,3:2|0:3,0:0:0:0:
189,86,40981,2,0,P|232:115|283:118,1,105,8|2,0:2|3:2,0:0:0:0:
336,102,41520,1,2,0:3:0:0:
336,102,41700,2,0,B|368:135|368:135|328:266,1,157.5,2|4,0:2|0:3,0:0:0:0:
285,259,42418,2,0,L|315:369,1,105,10|0,0:2|3:0,0:0:0:0:
367,376,42957,1,0,3:0:0:0:
367,376,43137,1,2,3:2:0:0:
461,188,43856,6,0,L|340:157,1,105,10|2,0:2|3:2,0:0:0:0:
308,167,44394,1,2,0:3:0:0:
308,167,44574,2,0,P|276:217|292:269,2,105,2|0|10,0:2|3:0|0:2,0:0:0:0:
349,70,45652,1,2,3:2:0:0:
264,8,46011,6,0,L|69:48,1,157.5,2|4,3:2|0:3,0:0:0:0:
58,53,46730,1,8,0:2:0:0:
15,149,47089,2,0,L|28:215,1,52.5,2|2,3:2|0:3,0:0:0:0:
67,232,47448,1,2,0:2:0:0:
147,163,47808,1,2,3:2:0:0:
239,211,48167,1,10,0:2:0:0:
314,137,48526,1,2,0:3:0:0:
415,163,48886,6,2,P|436:94|319:44,1,210,4|12,0:3|0:2,0:2:0:0:
229,77,49963,2,0,L|156:90,1,55.1249983177186,2|2,3:2|0:3,0:0:0:0:
136,126,50323,2,0,L|15:107,1,110.249996635437,2|2,0:2|3:2,0:0:0:0:
6,217,51041,1,10,0:2:0:0:
112,246,51400,2,0,L|103:302,1,55.1249983177186,2|0,3:2|0:0,0:0:0:0:
150,329,51760,6,0,L|141:385,2,55.1249983177186,0|2|2,3:0|0:2|0:2,0:0:0:0:
225,248,52478,2,0,L|243:128,1,110.249996635437,8|2,0:2|3:2,0:0:0:0:
292,114,53017,1,2,0:3:0:0:
292,114,53197,2,0,L|416:134,1,110.249996635437,2|2,0:2|3:2,0:0:0:0:
496,186,53915,1,10,0:2:0:0:
441,281,54275,2,0,L|425:363,1,55.1249983177186,2|0,3:2|3:0,0:0:0:0:
380,359,54634,6,0,B|339:354|339:354|319:342|319:342|269:335,1,110.249996635437,0|2,3:0|0:2,0:0:0:0:
230,310,55173,1,4,0:3:0:0:
230,310,55353,1,8,0:2:0:0:
139,372,55712,1,2,3:2:0:0:
37,328,56071,2,0,P|22:276|39:210,1,110.249996635437,2|2,0:2|3:2,0:0:0:0:
136,184,56790,1,10,0:2:0:0:
238,143,57149,2,0,P|250:101|238:63,1,55.1249983177186,2|0,3:2|0:0,0:0:0:0:
224,40,57508,5,0,3:0:0:0:
119,4,57868,2,0,L|-28:17,1,110.249996635437,2|8,0:2|0:2,0:0:0:0:
19,123,58586,2,0,L|102:115,1,55.1249983177186,2|2,3:2|0:3,0:0:0:0:
129,116,58945,1,2,0:2:0:0:
234,148,59305,1,2,3:2:0:0:
339,116,59664,1,10,0:2:0:0:
444,148,60023,6,0,L|453:264,1,110.249996635437,2|0,3:2|3:0,0:0:0:0:
499,296,60562,1,2,0:2:0:0:
499,296,60742,2,0,L|493:353,1,55.1249983177186,2|2,0:2|0:2,0:0:0:0:
445,379,61101,1,8,0:2:0:0:
348,325,61460,2,0,L|291:319,1,55.1249983177186,2|2,3:2|0:3,0:0:0:0:
249,284,61820,2,0,L|140:295,2,110.249996635437,2|2|10,0:2|3:2|0:2,0:0:0:0:
325,204,62897,6,0,P|332:152|311:92,1,110.249996635437,2|0,3:2|3:0,0:0:0:0:
278,63,63436,1,2,0:2:0:0:
278,63,63616,2,0,P|247:64|202:55,1,55.1249983177186,2|0,0:2|0:0,0:0:0:0:
175,32,63975,1,8,0:2:0:0:
70,69,64335,2,0,P|67:95|69:137,1,55.1249983177186,2|2,3:2|0:3,0:0:0:0:
116,149,64694,1,2,0:2:0:0:
48,236,65053,1,2,3:2:0:0:
143,290,65412,1,10,0:2:0:0:
212,204,65772,6,0,L|332:200,1,110.249996635437,2|0,3:2|3:0,0:0:0:0:
375,179,66311,1,0,0:0:0:0:
375,179,66490,2,0,L|375:101,1,55.1249983177186,2|0,0:2|0:0,0:0:0:0:
400,74,66850,1,8,0:2:0:0:
479,150,67209,2,0,L|479:212,1,55.1249983177186,2|2,3:2|0:3,0:0:0:0:
440,244,67568,2,0,L|444:364,1,110.249996635437,2|2,0:2|3:2,0:0:0:0:
342,309,68287,1,10,0:2:0:0:
239,348,68646,1,2,3:2:0:0:
168,270,69005,6,0,B|88:259|1:284|1:284|30:232|20:122|20:122|60:166|105:172,2,420,0|2|2,0:0|0:2|0:2,0:0:0:0:
242,345,77628,6,0,B|171:357|152:306|81:321,1,157.5,2|4,3:2|0:3,0:0:0:0:
41,297,78347,1,10,0:2:0:0:
106,215,78706,2,0,P|95:161|87:143,1,52.5,0|2,3:0|0:3,0:0:0:0:
68,118,79065,2,0,P|54:37|68:-29,2,105,2|2|10,0:2|3:2|0:2,0:0:0:0:
171,133,80143,1,2,3:2:0:0:
266,174,80502,6,0,B|333:170|333:170|362:153|362:153|456:145,1,157.5,2|4,3:2|0:3,0:0:0:0:
471,144,81221,1,10,0:2:0:0:
503,243,81580,2,0,L|493:310,1,52.5,0|2,3:0|0:3,0:0:0:0:
449,320,81939,2,0,L|459:387,2,52.5,2|2|0,0:2|0:3|3:0,0:0:0:0:
352,277,82658,2,0,B|304:272|304:272|282:260|282:260|200:253,1,105,8|2,0:2|3:0,0:0:0:0:
198,252,83197,1,0,3:0:0:0:
198,252,83377,6,0,P|185:183|195:145,1,105,2|2,3:2|0:2,0:0:0:0:
90,127,84095,2,0,P|129:69|163:49,1,105,10|2,0:2|3:2,0:0:0:0:
213,45,84634,1,2,0:3:0:0:
213,45,84814,2,0,P|270:84|290:118,1,105,2|2,0:2|3:2,0:0:0:0:
273,215,85532,1,10,0:2:0:0:
305,315,85892,1,2,3:2:0:0:
402,354,86251,6,0,P|471:313|469:227,1,157.5,2|0,3:2|0:0,0:0:0:0:
457,192,86969,2,0,P|447:129|464:70,1,105,10|0,0:2|3:0,0:0:0:0:
367,31,87688,2,0,P|304:41|245:24,1,105,2|2,0:2|3:2,0:0:0:0:
213,45,88227,1,0,0:0:0:0:
213,45,88406,1,10,0:2:0:0:
113,11,88766,2,0,L|104:77,1,52.5,2|0,3:2|3:0,0:0:0:0:
63,93,89125,6,0,B|91:166|54:180|78:256,1,157.5,2|0,3:2|0:0,0:0:0:0:
103,293,89844,1,10,0:2:0:0:
197,247,90203,2,0,P|243:241|279:249,1,52.5,0|2,3:0|0:3,0:0:0:0:
298,258,90562,1,2,0:2:0:0:
398,286,90921,1,2,3:2:0:0:
426,186,91281,1,10,0:2:0:0:
326,158,91640,2,0,L|246:142,1,52.5,2|0,3:2|0:0,0:0:0:0:
224,132,91999,5,2,0:2:0:0:
502,48,94874,6,0,L|451:60,1,52.5,2|2,3:2|0:2,0:0:0:0:
413,97,95233,2,0,P|359:110|320:57,1,105,2|10,0:2|0:2,0:0:0:0:
294,36,95772,1,2,0:2:0:0:
294,36,95951,2,0,L|242:24,1,52.5,2|2,3:2|0:3,0:0:0:0:
206,63,96311,2,0,L|224:181,1,105,2|2,0:2|3:2,0:0:0:0:
295,241,97029,1,8,0:2:0:0:
238,329,97389,2,0,L|175:347,1,52.5,0|2,3:0|0:2,0:0:0:0:
146,376,97748,6,0,L|35:350,1,105,2|2,3:2|0:2,0:0:0:0:
7,313,98287,1,6,0:3:0:0:
7,313,98466,2,0,L|33:202,1,105,10|2,0:2|3:2,0:0:0:0:
8,162,99005,1,2,0:3:0:0:
8,162,99185,1,2,0:2:0:0:
70,77,99544,1,2,3:2:0:0:
162,126,99903,2,0,P|223:157|282:153,1,105,10|2,0:2|3:2,0:0:0:0:
297,122,100442,1,0,3:0:0:0:
297,122,100622,6,0,B|341:83|341:83|458:111,1,157.5,2|4,3:2|0:3,0:0:0:0:
476,141,101341,1,8,0:2:0:0:
379,181,101700,2,0,P|355:268|457:332,1,210,2|0,3:2|3:0,0:0:0:0:
492,316,102598,1,4,0:3:0:0:
492,316,102778,2,0,L|515:189,1,105,10|2,0:2|3:2,0:0:0:0:
464,118,103496,6,0,B|377:107|419:66|319:51,1,157.5,2|4,3:2|0:3,0:0:0:0:
278,27,104215,1,8,0:2:0:0:
213,109,104574,2,0,L|228:173,1,52.5,0|2,3:0|0:3,0:0:0:0:
268,190,104933,2,0,L|242:298,1,105,2|0,0:2|3:0,0:0:0:0:
152,345,105652,1,8,0:2:0:0:
68,281,106011,2,0,L|49:219,1,52.5,2|2,3:3|3:3,0:0:0:0:
16,192,106371,6,0,L|30:137,1,52.5,2|2,3:2|0:2,0:0:0:0:
60,98,106730,2,0,P|128:102|153:138,1,105,2|10,0:2|0:2,0:0:0:0:
191,166,107269,1,2,0:2:0:0:
191,166,107448,2,0,L|242:154,1,52.5,2|2,3:2|0:3,0:0:0:0:
289,177,107808,2,0,L|308:69,1,105,2|2,0:2|3:2,0:0:0:0:
392,12,108526,2,0,L|410:115,1,105,8|0,0:2|3:0,0:0:0:0:
451,148,109065,1,2,0:2:0:0:
451,148,109245,6,0,P|409:200|405:266,1,105,2|2,3:2|0:2,0:0:0:0:
355,330,109963,1,10,0:2:0:0:
276,260,110323,2,0,L|263:197,2,52.5,2|2|2,3:2|0:3|0:2,0:0:0:0:
222,350,111041,1,2,3:2:0:0:
139,285,111400,2,0,P|78:254|19:258,1,105,10|2,0:2|3:2,0:0:0:0:
15,207,111939,1,0,3:0:0:0:
15,207,112119,6,0,B|42:149|42:149|18:8,1,157.5,2|4,3:2|0:3,0:0:0:0:
59,15,112838,1,8,0:2:0:0:
154,59,113197,2,0,B|205:68|238:116|238:116|259:63|314:43,1,210,2|0,3:2|3:0,0:0:0:0:
356,69,114095,1,4,0:3:0:0:
356,69,114275,2,0,L|375:180,1,105,10|2,0:2|3:2,0:0:0:0:
389,276,114993,6,0,B|316:330|186:267|225:236|124:139|-2:210,2,420,2|2|4,0:2|0:2|0:3,0:0:0:0:
0,55,123616,6,0,P|55:64|93:112,1,110.249996635437,4|2,3:2|0:2,0:0:0:0:
93,162,124155,1,4,0:3:0:0:
93,162,124335,1,8,0:2:0:0:
193,206,124694,2,0,L|266:190,1,55.1249983177186,2|2,3:2|0:3,0:0:0:0:
279,148,125053,2,0,P|340:108|400:113,1,110.249996635437,2|2,0:2|3:2,0:0:0:0:
484,125,125772,1,10,0:2:0:0:
453,230,126131,2,0,L|432:343,1,110.249996635437,2|0,3:2|3:0,0:0:0:0:
387,367,126670,5,2,0:2:0:0:
387,367,126850,2,0,L|260:342,1,110.249996635437,2|8,0:2|0:2,0:0:0:0:
196,272,127568,2,0,L|107:292,1,55.1249983177186,2|2,3:2|0:3,0:0:0:0:
100,320,127927,2,0,L|46:307,1,55.1249983177186,2|2,0:2|0:3,0:0:0:0:
19,259,128287,1,2,3:2:0:0:
53,154,128646,1,10,0:2:0:0:
157,120,129005,2,0,L|281:139,1,110.249996635437,2|0,3:2|3:0,0:0:0:0:
325,164,129544,5,2,0:2:0:0:
325,164,129724,2,0,L|341:229,1,55.1249983177186,2|2,0:2|0:2,0:0:0:0:
374,259,130083,1,8,0:2:0:0:
474,214,130442,2,0,L|489:154,1,55.1249983177186,2|2,3:2|0:3,0:0:0:0:
495,105,130802,2,0,P|462:58|462:-12,2,110.249996635437,2|2|10,0:2|3:2|0:2,0:0:0:0:
390,139,131880,2,0,L|278:165,1,110.249996635437,2|0,3:2|3:0,0:0:0:0:
251,210,132418,5,2,0:2:0:0:
251,210,132598,2,0,L|179:194,1,55.1249983177186,2|0,0:2|0:0,0:0:0:0:
171,149,132957,1,8,0:2:0:0:
81,84,133317,2,0,L|22:99,1,55.1249983177186,2|2,3:2|0:3,0:0:0:0:
0,145,133676,2,0,L|15:204,1,55.1249983177186,2|2,0:2|0:3,0:0:0:0:
4,252,134035,1,2,3:2:0:0:
96,326,134395,2,0,P|159:348|201:334,1,110.249996635437,10|2,0:2|3:2,0:0:0:0:
247,307,134933,1,0,3:0:0:0:
247,307,135113,5,0,3:0:0:0:
176,222,135472,2,0,B|165:171|165:171|199:117,1,110.249996635437,2|8,0:2|0:2,0:0:0:0:
282,190,136191,2,0,L|338:201,1,55.1249983177186,2|2,3:2|0:3,0:0:0:0:
381,231,136550,2,0,P|443:193|446:133,1,110.249996635437,2|2,0:2|3:2,0:0:0:0:
422,53,137269,1,10,0:2:0:0:
320,9,137628,2,0,B|253:-13|203:35|226:45|175:89|117:66,1,220.499993270874,2|2,3:2|0:2,0:0:0:0:
31,124,138706,5,8,0:2:0:0:
16,227,139065,1,2,0:2:0:0:
75,313,139424,2,0,L|190:286,1,105,2|2,0:2|0:2,0:0:0:0:
261,226,140143,2,0,L|476:279,1,210,10|2,0:2|0:2,0:0:0:0:
218,72,146610,6,0,L|72:84,1,105,6|0,3:2|0:0,0:0:0:0:
72,114,147149,1,4,0:3:0:0:
72,114,147329,2,0,L|80:218,1,105,10|0,0:2|3:0,0:0:0:0:
48,259,147868,1,2,0:3:0:0:
96,358,148227,1,2,0:3:0:0:
96,358,148406,2,0,L|165:353,1,52.5,0|4,3:0|0:3,0:0:0:0:
194,328,148766,2,0,L|300:320,1,105,8|0,0:2|3:0,0:0:0:0:
392,366,149484,6,0,B|400:314|400:314|384:258,1,105,2|0,3:2|0:0,0:0:0:0:
357,219,150023,1,4,0:3:0:0:
357,219,150203,1,8,0:2:0:0:
257,185,150562,1,0,3:0:0:0:
257,185,150742,2,0,B|205:177|205:177|149:193,1,105,2|2,0:3|0:3,0:0:0:0:
102,182,151281,2,0,L|81:111,1,52.5,0|4,3:0|0:3,0:0:0:0:
73,80,151640,1,10,0:2:0:0:
159,20,151999,2,0,L|173:70,1,52.5,2|0,3:0|0:0,0:0:0:0:
223,87,152359,6,0,L|336:75,1,105,2|0,3:2|0:0,0:0:0:0:
415,19,153077,1,8,0:2:0:0:
494,87,153436,1,0,3:0:0:0:
494,87,153616,2,0,B|489:137|489:137|491:143|491:143|485:191,1,105,2|2,0:3|0:3,0:0:0:0:
446,226,154155,2,0,L|453:292,1,52.5,0|0,3:0|0:0,0:0:0:0:
461,329,154514,1,10,0:2:0:0:
356,342,154874,2,0,L|290:329,1,52.5,0|0,3:0|0:0,0:0:0:0:
253,320,155233,6,0,P|245:262|279:207,1,105,2|0,3:2|0:0,0:0:0:0:
327,137,155951,1,8,0:2:0:0:
268,49,156311,1,0,3:0:0:0:
268,49,156490,2,0,B|211:51|220:22|148:31,1,105,2|2,0:3|0:3,0:0:0:0:
118,51,157029,2,0,P|99:69|44:79,1,52.5,0|2,3:0|0:2,0:0:0:0:
23,67,157389,1,10,0:2:0:0:
6,170,157748,2,0,P|16:194|34:213,1,52.5,0|2,3:0|3:2,0:0:0:0:
81,235,158107,6,0,P|152:226|200:228,2,105,2|2|8,3:2|0:2|0:2,0:0:0:0:
62,338,159185,1,0,3:0:0:0:
62,338,159365,2,0,P|114:337|166:329,1,105,2|2,0:3|0:3,0:0:0:0:
214,309,159903,2,0,L|297:312,1,52.5,0|0,3:0|0:0,0:0:0:0:
306,276,160263,1,8,0:2:0:0:
248,187,160622,1,2,3:2:0:0:
288,90,160981,6,0,B|390:-11|523:97|523:97|465:186|389:170,2,420,2|0|6,0:2|0:0|0:2,0:0:0:0:
