osu file format v14

[General]
AudioFilename: audio.mp3
AudioLeadIn: 0
PreviewTime: 2898
Countdown: 0
SampleSet: Soft
StackLeniency: 0.4
Mode: 0
LetterboxInBreaks: 0
WidescreenStoryboard: 1

[Editor]
Bookmarks: 2901,48886,94874,140862
DistanceSpacing: 1.2
BeatDivisor: 4
GridSize: 32
TimelineZoom: 2.2

[Metadata]
Title:Afterthought
TitleUnicode:Afterthought
Artist:Joji & BENEE
ArtistUnicode:Joji & BENEE
Creator:calle
Version:casper & inti's Hard
Source:
Tags:nyantiaz intiaz narrative casperisapotato english pop hiphop hip-hop 88rising nectar pink guy filthy frank collab
BeatmapID:3907885
BeatmapSetID:1879976

[Difficulty]
HPDrainRate:4.5
CircleSize:4
OverallDifficulty:6
ApproachRate:7.5
SliderMultiplier:1.5
SliderTickRate:1

[Events]
//Background and Video events
0,0,"nectar.jpg",0,0
//Break Periods
2,71880,76803
2,118068,122791
2,140862,145785
//Storyboard Layer 0 (Background)
//Storyboard Layer 1 (Fail)
//Storyboard Layer 2 (Pass)
//Storyboard Layer 3 (Foreground)
//Storyboard Layer 4 (Overlay)
//Storyboard Sound Samples

[TimingPoints]
2898,359.281437125748,4,2,1,65,1,0
2898,-111.111111111111,4,2,1,65,0,0
23017,-111.111111111111,4,2,1,50,0,0
25892,-111.111111111111,4,2,1,65,0,0
47089,-111.111111111111,4,2,1,70,0,0
49604,-95.2380952380952,4,2,1,80,0,1
69005,-95.2380952380952,4,2,1,80,0,0
71880,-111.111111111111,4,2,1,50,0,0
77628,-111.111111111111,4,2,1,65,0,0
94874,-111.111111111111,4,2,1,70,0,0
114993,-111.111111111111,4,2,1,60,0,0
123616,-95.2380952380952,4,2,1,80,0,1
137987,-111.111111111111,4,2,1,60,0,0
146610,-111.111111111111,4,2,1,75,0,0
160981,-111.111111111111,4,2,1,65,0,0

[Colours]
Combo1 : 133,33,55
Combo2 : 220,41,60
SliderTrackOverride : 30,15,16

[HitObjects]
292,279,2898,6,0,L|314:141,1,134.999995880127,2|2,3:2|0:2,0:0:0:0:
267,79,3436,1,4,0:3:0:0:
219,13,3616,2,0,P|157:2|87:55,1,134.999995880127,10|2,0:2|3:2,0:0:0:0:
35,90,4155,1,2,0:3:0:0:
35,90,4335,6,0,P|49:131|54:174,1,67.4999979400635,2|2,0:2|0:3,0:0:0:0:
105,216,4694,2,0,P|146:202|189:197,1,67.4999979400635,2|4,3:2|0:3,0:0:0:0:
223,258,5053,2,0,P|285:284|339:293,1,101.249996910095,10|0,0:2|0:0,0:0:0:0:
356,304,5412,2,0,P|368:348|370:380,1,67.4999979400635,2|0,3:2|0:0,0:0:0:0:
443,335,5772,6,0,P|493:294|484:210,1,134.999995880127,2|0,3:2|0:0,0:0:0:0:
422,190,6311,1,4,0:3:0:0:
478,132,6490,2,0,P|488:90|501:-6,1,134.999995880127,10|2,0:2|3:2,0:0:0:0:
420,8,7029,6,0,P|375:22|328:42,1,67.4999979400635,2|0,0:3|0:0,0:0:0:0:
295,83,7389,1,2,0:3:0:0:
295,83,7568,2,0,P|250:69|203:49,1,67.4999979400635,0|4,3:0|0:3,0:0:0:0:
163,17,7927,1,10,0:2:0:0:
14,83,8287,1,2,3:2:0:0:
55,151,8466,1,0,3:0:0:0:
14,221,8646,6,0,P|23:278|32:364,1,134.999995880127,2|2,3:2|0:2,0:0:0:0:
110,371,9185,1,4,0:3:0:0:
110,371,9365,2,0,P|149:323|218:328,1,134.999995880127,10|2,0:2|3:2,0:0:0:0:
286,286,9903,1,2,0:3:0:0:
286,286,10083,6,0,P|276:248|267:201,1,67.4999979400635,2|2,0:2|0:3,0:0:0:0:
349,204,10442,2,0,P|357:236|364:269,1,67.4999979400635,0|4,3:0|0:3,0:0:0:0:
432,315,10802,2,0,P|492:269|486:197,1,134.999995880127,10|2,0:2|3:2,0:0:0:0:
454,143,11341,1,2,0:2:0:0:
454,143,11430,1,2,0:2:0:0:
454,143,11520,6,0,B|378:130|378:130|349:106|349:106|256:91,1,202.499993820191,2|4,3:2|0:3,0:0:0:0:
194,137,12239,1,8,0:2:0:0:
310,249,12598,2,0,P|316:285|319:318,1,67.4999979400635,0|2,3:0|0:3,0:0:0:0:
245,349,12957,6,0,B|204:355|204:355|199:351|199:351|115:362,2,101.249996910095,2|2|4,0:2|0:2|0:3,0:0:0:0:
329,281,13676,2,0,B|370:287|370:287|375:283|375:283|460:295,2,101.249996910095,10|2|2,0:2|0:2|3:2,0:0:0:0:
254,202,14395,6,0,B|224:160|224:160|259:-1,1,202.499993820191,2|0,3:3|0:0,0:0:0:0:
175,1,15113,2,0,P|131:21|88:27,2,67.4999979400635,10|0|2,0:2|0:0|3:2,0:0:0:0:
256,12,15652,1,2,0:3:0:0:
312,70,15832,6,0,P|341:85|374:94,1,67.4999979400635,2|2,0:2|0:3,0:0:0:0:
455,86,16191,2,0,P|500:133|498:199,1,134.999995880127,0|10,3:0|0:2,0:0:0:0:
370,296,16909,1,2,3:2:0:0:
370,296,17089,1,2,0:2:0:0:
335,222,17269,6,0,P|249:201|187:197,1,134.999995880127,2|2,3:2|0:2,0:0:0:0:
137,245,17808,1,2,0:2:0:0:
57,230,17987,2,0,P|38:178|23:146,1,67.4999979400635,10|0,0:2|0:0,0:0:0:0:
88,110,18347,2,0,P|140:91|172:76,1,67.4999979400635,2|2,3:2|0:3,0:0:0:0:
238,90,18706,6,0,B|253:18|253:18|281:1,2,101.249996910095,2|2|2,0:2|0:2|0:2,0:0:0:0:
124,120,19424,6,0,B|139:191|139:191|167:208,2,101.249996910095,10|2|0,0:2|0:2|3:0,0:0:0:0:
39,56,20143,6,0,B|18:165|41:133|16:259,1,202.499993820191,2|0,3:2|0:0,0:0:0:0:
73,315,20862,2,0,P|114:285|145:279,1,67.4999979400635,10|0,0:2|0:0,0:0:0:0:
174,212,21221,2,0,P|205:224|230:246,1,67.4999979400635,2|2,3:2|0:3,0:0:0:0:
311,245,21580,2,0,P|293:327|286:387,2,134.999995880127,2|0|10,0:2|3:0|0:2,0:0:0:0:
439,146,22658,2,0,P|428:95|416:63,2,67.4999979400635,2|2|2,3:2|0:2|0:2,0:0:0:0:
42,163,25892,6,0,B|96:121|96:121|172:137,1,134.999995880127,2|2,3:2|0:2,0:0:0:0:
208,200,26430,1,4,0:3:0:0:
260,262,26610,2,0,B|314:304|314:304|379:290,1,134.999995880127,10|2,0:2|3:2,0:0:0:0:
449,248,27149,1,2,0:3:0:0:
449,248,27329,6,0,P|463:207|468:164,1,67.4999979400635,2|2,0:2|0:3,0:0:0:0:
402,134,27688,2,0,P|388:93|382:33,1,101.249996910095,2|0,3:2|0:0,0:0:0:0:
409,5,28047,1,10,0:2:0:0:
259,68,28406,2,0,P|217:78|178:80,1,67.4999979400635,2|0,3:2|0:0,0:0:0:0:
124,35,28766,6,0,P|69:14|0:77,1,134.999995880127,2|0,3:2|0:0,0:0:0:0:
74,98,29305,1,4,0:3:0:0:
32,167,29484,2,0,P|18:234|9:299,1,134.999995880127,10|2,0:2|3:2,0:0:0:0:
69,354,30023,6,0,P|100:342|132:332,1,67.4999979400635,2|0,0:3|0:0,0:0:0:0:
191,275,30383,1,2,0:3:0:0:
191,275,30562,2,0,P|236:289|283:309,1,67.4999979400635,0|4,3:0|0:3,0:0:0:0:
307,358,30921,1,10,0:2:0:0:
377,211,31281,1,2,3:2:0:0:
313,161,31460,1,0,3:0:0:0:
350,89,31640,6,0,B|442:71|442:71|476:100,1,134.999995880127,2|2,3:2|0:2,0:0:0:0:
504,172,32179,1,4,0:3:0:0:
504,172,32359,2,0,P|486:210|483:301,1,134.999995880127,10|2,0:2|3:2,0:0:0:0:
425,358,32897,1,2,0:3:0:0:
425,358,33077,6,0,P|373:343|337:330,1,67.4999979400635,2|2,0:2|0:3,0:0:0:0:
305,278,33436,1,0,3:0:0:0:
305,278,33616,1,4,0:3:0:0:
233,316,33796,2,0,P|176:328|115:347,1,101.249996910095,10|0,0:2|0:0,0:0:0:0:
108,309,34155,2,0,P|65:289|20:282,1,67.4999979400635,2|0,3:2|0:0,0:0:0:0:
2,215,34514,6,0,P|35:177|184:199,1,202.499993820191,2|4,3:2|0:3,0:0:0:0:
240,235,35233,1,8,0:2:0:0:
387,169,35592,2,0,P|390:135|395:102,1,67.4999979400635,0|2,3:0|0:3,0:0:0:0:
344,39,35951,6,0,P|295:16|245:24,2,101.249996910095,2|2|4,0:2|0:2|0:3,0:0:0:0:
285,130,36670,2,0,P|251:136|220:149,1,67.4999979400635,10|0,0:2|0:0,0:0:0:0:
177,219,37029,1,2,3:3:0:0:
177,219,37119,1,2,0:3:0:0:
177,219,37209,1,2,3:3:0:0:
106,178,37389,6,0,B|126:45|126:45|98:80|61:77,1,202.499993820191,2|4,3:3|0:3,0:0:0:0:
5,127,38107,2,0,P|19:184|35:264,1,134.999995880127,10|2,0:2|3:2,0:0:0:0:
7,338,38646,1,2,0:3:0:0:
7,338,38826,6,0,P|48:344|92:354,1,67.4999979400635,2|2,0:2|0:3,0:0:0:0:
135,296,39185,2,0,B|190:284|190:284|197:287|197:287|271:269,1,134.999995880127,0|10,3:0|0:2,0:0:0:0:
333,315,39724,1,0,0:0:0:0:
380,249,39903,2,0,P|392:204|410:179,1,67.4999979400635,2|0,3:2|0:0,0:0:0:0:
469,139,40263,6,0,B|506:180|506:180|472:328,1,202.499993820191,2|4,3:2|0:3,0:0:0:0:
403,364,40981,2,0,P|372:328|340:321,1,67.4999979400635,8|0,0:2|0:0,0:0:0:0:
291,269,41341,2,0,P|321:254|339:226,1,67.4999979400635,2|2,3:2|0:3,0:0:0:0:
399,172,41700,6,0,B|441:188|441:188|517:162,2,101.249996910095,2|2|4,0:2|0:2|0:3,0:0:0:0:
311,109,42418,6,0,B|268:94|268:94|212:114,2,101.249996910095,10|2|0,0:2|0:2|3:0,0:0:0:0:
364,14,43137,6,0,P|439:43|436:165,1,202.499993820191,2|4,3:2|0:3,0:0:0:0:
382,207,43856,2,0,P|333:192|295:186,1,67.4999979400635,10|0,0:2|0:0,0:0:0:0:
252,140,44215,2,0,P|237:189|231:227,1,67.4999979400635,2|2,3:2|0:3,0:0:0:0:
203,280,44574,6,0,P|248:310|337:290,1,134.999995880127,2|0,0:2|3:0,0:0:0:0:
393,341,45113,1,4,0:3:0:0:
393,341,45293,2,0,P|442:326|480:320,1,67.4999979400635,10|0,0:2|0:0,0:0:0:0:
503,255,45652,2,0,P|488:206|482:168,1,67.4999979400635,2|0,3:2|0:0,0:0:0:0:
435,125,46011,6,0,B|367:105|335:148|349:164|298:204|235:174,1,202.499993820191,2|4,3:2|0:3,0:0:0:0:
177,147,46730,1,8,0:2:0:0:
82,15,47089,2,0,P|32:29|-8:45,1,67.4999979400635,2|2,3:2|0:3,0:0:0:0:
0,113,47448,6,0,P|50:127|90:143,1,67.4999979400635,2|2,0:2|0:3,0:0:0:0:
114,196,47808,2,0,P|164:182|204:166,1,67.4999979400635,2|4,3:2|0:3,0:0:0:0:
194,97,48167,2,0,P|231:76|299:81,1,101.249996910095,10|0,0:2|0:0,0:0:0:0:
320,101,48526,2,0,B|304:192|304:192|341:227,1,134.999995880127,2|4,0:3|0:3,0:0:0:0:
512,192,49245,5,0,0:0:0:0:
334,221,49604,6,0,P|299:299|328:360,1,157.499995193482,12|2,0:2|3:2,0:0:0:0:
391,293,50143,1,2,0:3:0:0:
425,208,50323,2,0,P|408:164|361:134,1,78.7499975967408,2|2,0:2|0:3,0:0:0:0:
421,56,50682,2,0,P|382:47|345:57,1,78.7499975967408,2|0,3:2|0:0,0:0:0:0:
291,134,51041,2,0,P|253:145|214:137,1,78.7499975967408,10|0,0:2|0:0,0:0:0:0:
143,75,51400,2,0,L|18:67,1,118.124996395111,2|0,3:2|0:0,0:0:0:0:
5,111,51760,5,0,3:0:0:0:
78,169,51939,1,2,0:2:0:0:
10,234,52119,2,0,L|5:319,1,78.7499975967408,2|0,0:2|0:0,0:0:0:0:
95,283,52478,2,0,L|99:361,1,78.7499975967408,8|0,0:2|0:0,0:0:0:0:
185,320,52838,2,0,L|329:326,1,118.124996395111,2|0,3:2|0:0,0:0:0:0:
334,289,53197,6,0,B|346:216|346:216|299:137,1,157.499995193482,2|2,0:2|3:2,0:0:0:0:
209,155,53736,1,0,0:0:0:0:
114,165,53915,2,0,L|106:72,1,78.7499975967408,10|0,0:2|0:0,0:0:0:0:
164,11,54275,1,2,3:2:0:0:
243,61,54454,1,0,3:0:0:0:
243,61,54634,6,0,B|297:66|297:66|325:56|325:56|400:62,1,157.499995193482,0|2,3:0|0:2,0:0:0:0:
480,108,55173,1,4,0:3:0:0:
398,155,55353,2,0,L|403:249,1,78.7499975967408,8|0,0:2|0:0,0:0:0:0:
469,301,55712,2,0,P|405:328|338:302,1,118.124996395111,2|0,3:2|0:0,0:0:0:0:
323,287,56071,6,0,L|229:291,1,78.7499975967408,2|2,0:2|0:3,0:0:0:0:
160,335,56430,2,0,L|155:241,1,78.7499975967408,2|4,3:2|0:3,0:0:0:0:
112,172,56790,2,0,L|205:167,1,78.7499975967408,10|0,0:2|0:0,0:0:0:0:
278,202,57149,2,0,L|273:84,1,118.124996395111,2|0,3:2|0:0,0:0:0:0:
269,37,57508,6,0,B|182:60|199:1|87:35,1,157.499995193482,0|2,3:0|0:2,0:0:0:0:
52,99,58047,1,4,0:3:0:0:
112,172,58227,2,0,P|126:237|119:265,1,78.7499975967408,8|0,0:2|0:0,0:0:0:0:
29,254,58586,2,0,P|13:314|40:367,1,118.124996395111,2|0,3:2|0:0,0:0:0:0:
82,355,58945,6,0,B|114:331|114:331|172:337,1,78.7499975967408,2|2,0:2|0:3,0:0:0:0:
246,351,59305,2,0,B|277:309|277:309|271:234,1,118.124996395111,2|0,3:2|0:0,0:0:0:0:
239,209,59664,2,0,L|242:120,1,78.7499975967408,10|0,0:2|0:0,0:0:0:0:
249,35,60023,1,2,3:2:0:0:
327,88,60203,1,0,3:0:0:0:
327,88,60383,6,0,B|411:77|411:77|464:108|468:153,1,157.499995193482,0|2,3:0|0:2,0:0:0:0:
402,201,60921,1,2,0:2:0:0:
479,255,61101,2,0,P|486:312|474:353,1,78.7499975967408,8|0,0:2|0:0,0:0:0:0:
397,375,61460,2,0,P|390:318|402:277,1,78.7499975967408,2|2,3:2|0:3,0:0:0:0:
310,255,61820,6,0,L|214:260,1,78.7499975967408,2|2,0:2|0:3,0:0:0:0:
174,334,62179,2,0,L|51:327,1,118.124996395111,2|0,3:2|0:0,0:0:0:0:
36,284,62538,2,0,L|30:188,1,78.7499975967408,10|0,0:2|0:0,0:0:0:0:
89,130,62897,2,0,L|211:136,1,118.124996395111,2|0,3:2|0:0,0:0:0:0:
227,180,63256,5,0,3:0:0:0:
315,146,63435,1,2,0:2:0:0:
403,180,63616,2,0,P|409:134|392:92,1,78.7499975967408,2|0,0:2|0:0,0:0:0:0:
351,20,63975,2,0,P|297:72|315:146,1,157.499995193482,8|2,0:2|3:2,0:0:0:0:
328,240,64514,1,2,0:3:0:0:
257,303,64694,6,0,L|155:311,1,78.7499975967408,2|2,0:2|0:3,0:0:0:0:
153,217,65053,2,0,L|255:209,1,78.7499975967408,2|0,3:2|0:0,0:0:0:0:
205,117,65412,2,0,L|127:124,1,78.7499975967408,10|0,0:2|0:0,0:0:0:0:
47,72,65772,1,2,3:2:0:0:
7,157,65951,1,0,3:0:0:0:
7,157,66131,6,0,B|1:258|1:258|35:315,1,157.499995193482,0|2,3:0|0:2,0:0:0:0:
110,356,66670,1,0,0:0:0:0:
194,312,66850,2,0,L|296:314,1,78.7499975967408,8|0,0:2|0:0,0:0:0:0:
264,223,67209,1,2,3:2:0:0:
264,223,67389,1,2,0:3:0:0:
192,161,67568,6,0,P|224:138|285:134,1,78.7499975967408,2|2,0:2|0:3,0:0:0:0:
296,42,67927,2,0,P|329:62|357:117,1,78.7499975967408,2|0,3:2|0:0,0:0:0:0:
446,90,68287,2,0,P|440:128|400:175,1,78.7499975967408,10|0,0:2|0:0,0:0:0:0:
462,245,68646,2,0,P|415:278|342:222,1,157.499995193482,2|0,3:2|0:0,0:0:0:0:
339,83,77628,6,0,L|183:70,1,134.999995880127,2|0,3:2|0:0,0:0:0:0:
138,119,78167,1,4,0:3:0:0:
70,74,78347,2,0,P|56:119|101:191,1,134.999995880127,10|0,0:2|3:0,0:0:0:0:
180,188,78886,1,2,0:3:0:0:
180,188,79065,6,0,L|186:277,1,67.4999979400635,2|2,0:2|0:3,0:0:0:0:
262,231,79424,2,0,L|268:320,1,67.4999979400635,2|4,3:2|0:3,0:0:0:0:
344,274,79784,2,0,P|395:268|466:326,1,134.999995880127,10|2,0:2|3:2,0:0:0:0:
493,226,80323,1,2,0:2:0:0:
493,226,80412,1,2,0:2:0:0:
493,226,80502,6,0,L|475:76,1,134.999995880127,2|0,3:2|0:0,0:0:0:0:
419,34,81041,1,4,0:3:0:0:
361,91,81221,2,0,L|344:225,1,134.999995880127,10|0,0:2|3:0,0:0:0:0:
270,192,81760,6,0,L|145:138,1,134.999995880127,2|2,0:3|0:3,0:0:0:0:
67,117,82299,2,0,P|88:79|127:60,2,67.4999979400635,0|4|8,3:0|0:3|0:2,0:0:0:0:
159,249,83017,2,0,P|138:287|99:306,1,67.4999979400635,2|0,3:0|3:0,0:0:0:0:
181,352,83377,6,0,B|231:327|231:327|319:335,1,134.999995880127,2|2,3:2|0:2,0:0:0:0:
389,348,83915,1,0,0:0:0:0:
389,348,84095,2,0,L|401:261,1,67.4999979400635,10|0,0:2|0:0,0:0:0:0:
469,242,84454,2,0,L|457:155,1,67.4999979400635,2|2,3:2|0:3,0:0:0:0:
391,130,84814,6,0,B|343:133|343:133|302:151|302:151|236:143,1,134.999995880127,2|2,0:2|3:2,0:0:0:0:
182,170,85353,1,0,0:0:0:0:
103,151,85532,2,0,L|100:76,1,67.4999979400635,10|0,0:2|0:0,0:0:0:0:
167,35,85892,2,0,L|241:32,1,67.4999979400635,2|0,3:2|0:0,0:0:0:0:
312,54,86251,6,0,B|385:66|379:24|443:41,1,134.999995880127,2|0,3:2|0:0,0:0:0:0:
500,100,86790,1,0,0:0:0:0:
444,158,86969,2,0,B|422:222|422:222|441:295,1,134.999995880127,10|0,0:2|3:0,0:0:0:0:
286,331,87688,6,0,B|205:338|229:285|130:304,1,134.999995880127,2|2,0:2|3:2,0:0:0:0:
76,307,88227,1,0,0:0:0:0:
76,307,88406,2,0,L|73:233,1,67.4999979400635,10|0,0:2|0:0,0:0:0:0:
138,191,88766,2,0,L|141:117,1,67.4999979400635,2|0,3:2|3:0,0:0:0:0:
83,65,89125,6,0,P|131:41|211:79,1,134.999995880127,2|0,3:2|0:0,0:0:0:0:
256,128,89664,1,0,0:0:0:0:
308,68,89844,2,0,P|368:40|429:65,1,134.999995880127,10|0,0:2|3:0,0:0:0:0:
482,132,90383,1,2,0:3:0:0:
482,132,90562,6,0,P|473:185|472:209,1,67.4999979400635,2|2,0:2|0:3,0:0:0:0:
391,202,90921,2,0,P|357:205|324:211,1,67.4999979400635,2|0,3:2|0:0,0:0:0:0:
276,277,91281,2,0,P|181:263|132:266,1,134.999995880127,10|2,0:2|3:2,0:0:0:0:
77,313,91820,2,0,L|-4:304,1,67.4999979400635,0|2,0:0|0:2,0:0:0:0:
9,305,94874,5,2,3:2:0:0:
9,305,95053,1,2,0:2:0:0:
56,239,95233,2,0,P|68:186|71:143,1,67.4999979400635,2|4,0:2|0:3,0:0:0:0:
24,105,95592,1,10,0:2:0:0:
24,105,95772,1,2,0:2:0:0:
73,40,95951,1,2,3:2:0:0:
142,81,96131,1,2,0:3:0:0:
202,26,96311,6,0,P|248:9|286:8,1,67.4999979400635,2|2,0:2|0:3,0:0:0:0:
304,78,96670,2,0,P|350:95|388:96,1,67.4999979400635,2|4,3:2|0:3,0:0:0:0:
439,58,97029,2,0,L|464:212,1,134.999995880127,8|0,0:2|3:0,0:0:0:0:
306,243,97748,5,2,3:2:0:0:
306,243,97927,1,2,0:2:0:0:
358,305,98107,2,0,P|403:315|445:331,1,67.4999979400635,2|6,0:2|0:3,0:0:0:0:
489,275,98466,1,10,0:2:0:0:
431,217,98646,1,2,0:2:0:0:
478,151,98826,2,0,P|465:98|446:66,1,67.4999979400635,2|2,3:2|0:3,0:0:0:0:
414,19,99185,6,0,P|384:55|341:66,1,67.4999979400635,2|2,0:2|0:3,0:0:0:0:
349,142,99544,2,0,P|302:134|271:102,1,67.4999979400635,2|4,3:2|0:3,0:0:0:0:
222,72,99903,2,0,L|99:98,1,101.249996910095,10|0,0:2|0:0,0:0:0:0:
87,72,100263,2,0,L|101:5,1,67.4999979400635,2|0,3:2|3:0,0:0:0:0:
15,108,100622,6,0,P|2:167|64:228,1,134.999995880127,2|0,3:2|0:0,0:0:0:0:
107,274,101161,1,4,0:3:0:0:
151,206,101341,2,0,P|211:187|295:173,1,134.999995880127,8|2,0:2|3:2,0:0:0:0:
355,210,101880,6,0,P|339:265|335:303,2,67.4999979400635,2|2|2,0:3|0:2|0:3,0:0:0:0:
400,143,102418,1,0,3:0:0:0:
400,143,102598,1,4,0:3:0:0:
473,178,102778,2,0,P|489:233|493:271,1,67.4999979400635,10|0,0:2|0:0,0:0:0:0:
423,287,103137,2,0,P|416:320|405:351,1,67.4999979400635,2|0,3:2|0:0,0:0:0:0:
327,374,103496,6,0,B|285:337|285:337|189:360,1,134.999995880127,2|0,3:2|0:0,0:0:0:0:
145,303,104035,1,4,0:3:0:0:
200,243,104215,2,0,P|242:192|228:114,1,134.999995880127,8|0,0:2|3:0,0:0:0:0:
253,47,104754,6,0,L|332:26,2,67.4999979400635,2|2|2,0:3|0:2|0:3,0:0:0:0:
174,66,105293,2,0,L|92:88,1,67.4999979400635,0|4,3:0|0:3,0:0:0:0:
49,28,105652,1,8,0:2:0:0:
1,182,106011,1,2,3:3:0:0:
1,182,106101,1,2,0:3:0:0:
1,182,106191,1,2,3:3:0:0:
62,234,106371,6,0,L|132:217,1,67.4999979400635,2|2,3:2|0:2,0:0:0:0:
204,242,106730,2,0,L|187:318,1,67.4999979400635,2|4,0:2|0:3,0:0:0:0:
245,365,107089,1,10,0:2:0:0:
245,365,107269,1,2,0:2:0:0:
298,304,107448,1,2,3:2:0:0:
373,334,107628,1,2,0:3:0:0:
429,276,107808,6,0,P|422:243|401:217,1,67.4999979400635,2|2,0:2|0:3,0:0:0:0:
378,139,108167,2,0,P|451:136|507:85,2,134.999995880127,2|8|0,3:2|0:2|3:0,0:0:0:0:
317,85,109065,1,2,0:2:0:0:
251,132,109245,5,2,3:2:0:0:
251,132,109424,1,2,0:2:0:0:
187,80,109604,2,0,P|172:32|166:-4,1,67.4999979400635,2|4,0:2|0:3,0:0:0:0:
90,38,109963,2,0,P|105:86|111:122,1,67.4999979400635,10|2,0:2|0:2,0:0:0:0:
168,157,110323,1,2,3:2:0:0:
108,211,110502,1,2,0:3:0:0:
175,255,110682,6,0,P|213:271|244:300,1,67.4999979400635,2|2,0:2|0:3,0:0:0:0:
166,333,111041,2,0,P|139:353|107:365,1,67.4999979400635,2|4,3:2|0:3,0:0:0:0:
51,306,111400,2,0,L|22:194,1,101.249996910095,10|0,0:2|0:0,0:0:0:0:
51,176,111760,2,0,P|29:152|0:137,1,67.4999979400635,2|0,3:2|3:0,0:0:0:0:
129,199,112119,6,0,B|216:184|158:150|269:139,1,134.999995880127,2|0,3:2|0:0,0:0:0:0:
320,177,112658,1,4,0:3:0:0:
320,177,112838,2,0,L|338:245,1,67.4999979400635,8|0,0:2|0:0,0:0:0:0:
406,283,113197,1,2,3:2:0:0:
451,215,113377,6,0,P|482:175|519:160,1,67.4999979400635,2|0,0:3|0:0,0:0:0:0:
485,90,113736,1,2,0:3:0:0:
485,90,113915,2,0,P|445:59|430:22,1,67.4999979400635,0|4,3:0|0:3,0:0:0:0:
356,58,114275,2,0,P|293:72|255:155,1,134.999995880127,10|2,0:2|3:2,0:0:0:0:
255,289,114993,5,2,0:2:0:0:
255,208,116430,5,2,0:2:0:0:
256,128,117868,5,4,0:3:0:0:
484,300,123616,6,0,P|412:344|327:299,1,157.499995193482,4|2,3:2|0:2,0:0:0:0:
293,245,124155,1,4,0:3:0:0:
203,276,124335,2,0,L|190:353,1,78.7499975967408,8|0,0:2|0:0,0:0:0:0:
97,376,124694,2,0,L|74:229,1,118.124996395111,2|0,3:2|0:0,0:0:0:0:
45,225,125053,6,0,P|88:184|132:186,1,78.7499975967408,2|2,0:2|0:3,0:0:0:0:
129,89,125412,2,0,P|186:105|206:144,1,78.7499975967408,2|4,3:2|0:3,0:0:0:0:
276,170,125772,1,10,0:2:0:0:
420,48,126131,2,0,P|472:66|496:161,1,157.499995193482,2|0,3:2|3:0,0:0:0:0:
450,241,126670,5,0,0:0:0:0:
450,241,126850,2,0,P|429:289|433:344,1,78.7499975967408,2|4,0:2|0:3,0:0:0:0:
344,359,127209,2,0,P|339:320|321:285,1,78.7499975967408,8|0,0:2|0:0,0:0:0:0:
360,199,127568,2,0,B|330:175|330:175|230:195,1,118.124996395111,2|0,3:2|0:0,0:0:0:0:
209,211,127927,6,0,P|170:192|118:197,1,78.7499975967408,2|2,0:2|0:3,0:0:0:0:
55,141,128287,2,0,P|89:117|112:69,1,78.7499975967408,2|4,3:2|0:3,0:0:0:0:
194,43,128646,2,0,P|197:85|227:128,1,78.7499975967408,10|0,0:2|0:0,0:0:0:0:
307,135,129005,1,2,3:2:0:0:
370,64,129185,1,0,3:0:0:0:
370,64,129365,6,0,P|433:61|499:122,1,157.499995193482,0|2,3:0|0:2,0:0:0:0:
439,195,129903,1,2,0:2:0:0:
495,270,130083,2,0,P|481:326|474:376,1,78.7499975967408,8|0,0:2|0:0,0:0:0:0:
387,376,130442,2,0,P|344:330|301:327,1,78.7499975967408,2|2,3:2|0:3,0:0:0:0:
269,253,130802,6,0,P|226:299|183:302,1,78.7499975967408,2|2,0:2|0:3,0:0:0:0:
131,351,131161,2,0,L|108:212,1,118.124996395111,2|0,3:2|0:0,0:0:0:0:
142,198,131520,2,0,L|159:119,1,78.7499975967408,10|0,0:2|0:0,0:0:0:0:
230,58,131880,2,0,P|182:6|78:29,1,157.499995193482,2|0,3:2|3:0,0:0:0:0:
11,40,132417,5,2,0:2:0:0:
48,127,132598,2,0,L|31:203,1,78.7499975967408,2|0,0:2|0:0,0:0:0:0:
11,296,132957,1,8,0:2:0:0:
183,373,133317,2,0,L|271:351,1,78.7499975967408,2|2,3:2|0:3,0:0:0:0:
335,298,133676,6,0,P|301:259|255:257,1,78.7499975967408,2|2,0:2|0:3,0:0:0:0:
233,169,134035,2,0,P|182:178|157:217,1,78.7499975967408,2|0,3:2|0:0,0:0:0:0:
70,192,134395,2,0,P|53:240|74:281,1,78.7499975967408,10|0,0:2|0:0,0:0:0:0:
126,332,134754,1,2,3:2:0:0:
204,279,134933,1,0,3:0:0:0:
265,351,135113,6,0,B|336:338|336:338|341:331|341:331|428:317,1,157.499995193482,0|2,3:0|0:2,0:0:0:0:
471,241,135652,1,0,0:0:0:0:
471,241,135832,2,0,L|490:152,1,78.7499975967408,8|0,0:2|0:0,0:0:0:0:
429,95,136191,1,2,3:2:0:0:
429,95,136371,1,2,0:3:0:0:
336,114,136550,6,0,P|304:137|243:141,1,78.7499975967408,2|2,0:2|0:3,0:0:0:0:
227,230,136909,2,0,P|194:210|166:155,1,78.7499975967408,2|0,3:2|0:0,0:0:0:0:
76,177,137269,2,0,P|82:139|122:92,1,78.7499975967408,10|0,0:2|0:0,0:0:0:0:
90,12,137628,2,0,B|147:1|179:37|160:53|208:95|253:71,1,157.499995193482,2|0,3:2|0:0,0:0:0:0:
63,201,146610,6,0,L|203:195,1,134.999995880127,6|0,3:2|0:0,0:0:0:0:
268,236,147149,1,4,0:3:0:0:
336,191,147329,2,0,L|330:56,1,134.999995880127,10|0,0:2|3:0,0:0:0:0:
402,18,147868,6,0,B|427:79|427:79|414:147,1,134.999995880127,2|2,0:3|0:3,0:0:0:0:
412,234,148406,2,0,L|417:307,2,67.4999979400635,0|4|8,3:0|0:3|0:2,0:0:0:0:
259,288,149125,1,0,3:0:0:0:
182,318,149304,1,2,0:2:0:0:
182,318,149395,1,2,0:2:0:0:
182,318,149484,6,0,P|112:291|35:298,1,134.999995880127,2|0,3:2|0:0,0:0:0:0:
5,227,150023,1,4,0:3:0:0:
59,166,150203,2,0,P|129:193|206:186,1,134.999995880127,8|0,0:2|3:0,0:0:0:0:
257,149,150742,6,0,B|258:58|258:58|220:5,1,134.999995880127,2|2,0:3|0:3,0:0:0:0:
179,83,151281,1,0,3:0:0:0:
338,109,151640,2,0,B|395:119|406:75|469:88,1,134.999995880127,10|2,0:2|3:0,0:0:0:0:
507,158,152179,1,0,0:0:0:0:
469,230,152359,6,0,B|406:217|395:261|338:251,1,134.999995880127,2|0,3:2|0:0,0:0:0:0:
280,307,152897,1,0,0:0:0:0:
208,345,153077,2,0,P|203:282|252:227,1,134.999995880127,8|0,0:2|3:0,0:0:0:0:
308,176,153616,6,0,P|313:113|312:31,1,134.999995880127,2|2,0:3|0:3,0:0:0:0:
235,14,154155,2,0,L|151:21,1,67.4999979400635,0|0,3:0|0:0,0:0:0:0:
115,81,154514,1,10,0:2:0:0:
11,205,154874,2,0,L|95:212,1,67.4999979400635,0|0,3:0|0:0,0:0:0:0:
119,280,155233,6,0,B|170:255|170:255|260:268,1,134.999995880127,2|0,3:2|0:0,0:0:0:0:
312,314,155772,1,0,0:0:0:0:
387,284,155951,2,0,B|369:224|414:207|388:135,1,134.999995880127,8|0,0:2|3:0,0:0:0:0:
310,145,156490,6,0,P|341:86|405:70,1,134.999995880127,2|2,0:3|0:3,0:0:0:0:
469,121,157029,2,0,P|476:169|488:207,1,67.4999979400635,0|2,3:0|0:2,0:0:0:0:
466,267,157389,1,10,0:2:0:0:
312,314,157748,1,0,3:0:0:0:
238,279,157927,1,2,3:2:0:0:
167,319,158107,6,0,B|103:323|67:306|67:306|56:258|67:248,1,134.999995880127,2|2,3:2|0:2,0:0:0:0:
56,192,158646,1,0,0:0:0:0:
61,110,158826,2,0,B|56:126|67:78|67:78|103:61|167:65,1,134.999995880127,8|0,0:2|3:2,0:0:0:0:
220,117,159365,5,2,0:3:0:0:
362,37,159724,1,2,0:3:0:0:
362,37,159903,2,0,L|443:40,1,67.4999979400635,0|0,3:0|0:0,0:0:0:0:
494,89,160263,2,0,P|480:158|468:247,1,134.999995880127,8|2,0:2|3:2,0:0:0:0:
407,272,160802,1,2,0:2:0:0:
332,241,160981,5,2,0:2:0:0:
332,241,163137,2,0,B|230:220|230:220|311:159|305:62,1,269.999991760254,8|6,0:1|0:2,0:0:0:0:
