osu file format v14

[General]
AudioFilename: audio.mp3
AudioLeadIn: 0
PreviewTime: 2898
Countdown: 0
SampleSet: Soft
StackLeniency: 0.4
Mode: 0
LetterboxInBreaks: 0
WidescreenStoryboard: 1

[Editor]
Bookmarks: 2901,48886,71880,94874,117868,140862,163856
DistanceSpacing: 1
BeatDivisor: 4
GridSize: 32
TimelineZoom: 2.2

[Metadata]
Title:Afterthought
TitleUnicode:Afterthought
Artist:Joji & BENEE
ArtistUnicode:Joji & BENEE
Creator:calle
Version:Easy
Source:
Tags:nyantiaz intiaz narrative casperisapotato english pop hiphop hip-hop 88rising nectar pink guy filthy frank collab
BeatmapID:3871806
BeatmapSetID:1879976

[Difficulty]
HPDrainRate:2
CircleSize:3
OverallDifficulty:2
ApproachRate:3
SliderMultiplier:0.88
SliderTickRate:1

[Events]
//Background and Video events
0,0,"nectar.jpg",0,0
//Break Periods
2,72079,76188
2,118067,122176
2,141061,145170
//Storyboard Layer 0 (Background)
//Storyboard Layer 1 (Fail)
//Storyboard Layer 2 (Pass)
//Storyboard Layer 3 (Foreground)
//Storyboard Layer 4 (Overlay)
//Storyboard Sound Samples

[TimingPoints]
2898,359.281437125748,4,2,1,65,1,0
2898,-100,4,2,1,65,0,0
23017,-100,4,2,1,50,0,0
25892,-100,4,2,1,65,0,0
47089,-100,4,2,1,70,0,0
49604,-100,4,2,1,80,0,1
71880,-100,4,2,1,50,0,0
77628,-100,4,2,1,65,0,0
94874,-100,4,2,1,70,0,0
114993,-100,4,2,1,60,0,0
123616,-100,4,2,1,80,0,1
137987,-100,4,2,1,60,0,1
140862,-100,4,2,1,60,0,0
146610,-100,4,2,1,75,0,0
160981,-100,4,2,1,65,0,0

[Colours]
Combo1 : 133,33,55
Combo2 : 220,41,60
SliderTrackOverride : 30,15,16

[HitObjects]
201,284,2898,6,0,P|249:275|295:296,1,88,2|2,3:2|0:2,0:0:0:0:
356,339,3616,2,0,P|397:352|439:343,1,88,10|2,0:2|3:2,0:0:0:0:
505,284,4335,1,2,0:2:0:0:
491,197,4694,2,0,L|476:92,2,88,2|10|2,3:2|0:2|3:2,0:0:0:0:
420,249,5772,2,0,B|362:255|337:224|346:216|316:182|255:195,1,176,2|10,3:2|0:2,0:0:0:0:
179,228,6850,1,2,3:2:0:0:
7,27,7927,2,0,L|111:7,1,88,10|2,0:2|3:2,0:0:0:0:
161,65,8646,6,0,P|135:117|140:163,1,88,2|2,3:2|0:2,0:0:0:0:
197,208,9365,2,0,P|219:245|222:288,1,88,10|2,0:2|3:2,0:0:0:0:
160,351,10083,2,0,B|32:323|32:323|8:268,1,176,2|10,0:2|0:2,0:0:0:0:
41,198,11161,1,2,3:2:0:0:
72,115,11520,2,0,P|132:67|242:87,1,176,2|8,3:2|0:2,0:0:0:0:
340,210,12957,2,0,P|400:258|510:238,2,176,2|10|2,0:2|0:2|3:3,0:0:0:0:
295,39,15113,6,0,L|192:17,1,88,10|2,0:2|3:2,0:0:0:0:
158,92,15832,2,0,B|92:112|92:112|69:137|69:137|-10:161,1,176,2|10,0:2|0:2,0:0:0:0:
13,244,16909,1,2,3:2:0:0:
27,330,17269,2,0,P|66:360|122:362,1,88,2|2,3:2|0:2,0:0:0:0:
175,315,17987,2,0,P|220:296|250:248,1,88,10|2,0:2|3:2,0:0:0:0:
216,182,18706,2,0,L|189:2,2,176,2|10|2,0:2|0:2|3:2,0:0:0:0:
356,75,20862,6,0,L|456:98,1,88,10|2,0:2|3:2,0:0:0:0:
500,159,21580,2,0,P|465:217|488:326,1,176,2|10,0:2|0:2,0:0:0:0:
410,370,22658,2,0,L|324:350,1,88,2|2,3:2|0:2,0:0:0:0:
378,71,25892,6,0,P|330:80|284:59,1,88,2|2,3:2|0:2,0:0:0:0:
217,23,26610,2,0,P|176:10|134:19,1,88,10|2,0:2|3:2,0:0:0:0:
84,93,27329,1,2,0:2:0:0:
143,157,27688,2,0,L|248:142,2,88,2|10|2,3:2|0:2|3:2,0:0:0:0:
56,172,28766,2,0,P|12:228|34:330,1,176,2|10,3:2|0:2,0:0:0:0:
103,374,29844,1,2,3:2:0:0:
290,188,30921,2,0,L|273:101,1,88,10|2,0:2|3:2,0:0:0:0:
325,30,31640,6,0,P|378:15|425:27,1,88,2|2,3:2|0:2,0:0:0:0:
475,79,32359,2,0,P|490:132|478:179,1,88,10|2,0:2|3:2,0:0:0:0:
402,131,33077,2,0,B|357:169|357:169|386:296,1,176,2|10,0:2|0:2,0:0:0:0:
402,369,34155,1,2,3:2:0:0:
319,337,34514,2,0,P|267:304|150:301,1,176,2|8,3:2|0:2,0:0:0:0:
190,126,35951,2,0,P|266:166|353:163,2,176,2|10|2,0:2|0:2|3:3,0:0:0:0:
46,23,38107,6,0,L|24:126,1,88,10|2,0:2|3:2,0:0:0:0:
7,194,38826,2,0,B|80:243|80:243|171:232,1,176,2|10,0:2|0:2,0:0:0:0:
224,165,39903,1,2,3:2:0:0:
297,213,40263,2,0,L|314:318,1,88,2|0,3:2|0:0,0:0:0:0:
398,308,40981,2,0,L|383:221,1,88,8|2,0:2|3:2,0:0:0:0:
448,160,41700,2,0,P|493:122|487:10,2,176,2|10|2,0:2|0:2|3:2,0:0:0:0:
307,54,43856,6,0,L|207:31,1,88,10|2,0:2|3:2,0:0:0:0:
156,93,44574,2,0,B|119:147|119:147|144:269,1,176,2|10,0:2|0:2,0:0:0:0:
90,327,45652,1,2,3:2:0:0:
170,361,46011,2,0,P|248:363|326:297,1,176,2|8,3:2|0:2,0:0:0:0:
379,237,47089,1,2,3:2:0:0:
303,199,47448,2,0,L|218:176,2,88,2|2|10,0:2|3:2|0:2,0:0:0:0:
364,136,48526,2,0,P|388:105|391:39,1,88,2|4,0:3|0:3,0:0:0:0:
228,0,49604,6,0,B|204:39|204:39|220:92,1,88,12|2,0:2|3:2,0:0:0:0:
261,154,50323,1,2,0:2:0:0:
202,219,50682,2,0,P|149:203|98:197,1,88,2|10,3:2|0:2,0:0:0:0:
31,177,51400,2,0,P|10:238|62:333,1,176,2|2,3:2|0:2,0:0:0:0:
200,225,52838,5,2,3:2:0:0:
285,246,53197,2,0,P|330:258|372:271,1,88,2|2,0:2|3:2,0:0:0:0:
441,321,53915,1,10,0:2:0:0:
486,245,54275,2,0,B|472:161|472:161|477:158|477:158|460:53,1,176,2|2,3:2|0:2,0:0:0:0:
302,3,55712,5,2,3:2:0:0:
236,61,56071,2,0,P|252:111|259:147,1,88,2|2,0:2|3:2,0:0:0:0:
329,198,56790,1,10,0:2:0:0:
412,171,57149,2,0,P|462:194|481:304,1,176,2|2,3:2|0:2,0:0:0:0:
318,371,58586,5,2,3:2:0:0:
257,307,58945,2,0,P|201:320|164:334,2,88,2|2|10,0:2|3:2|0:2,0:0:0:0:
322,248,60023,2,0,B|377:236|407:270|398:278|423:309|481:303,1,176,2|2,3:2|0:2,0:0:0:0:
507,129,61460,5,2,3:2:0:0:
421,108,61820,2,0,P|355:92|318:87,1,88,2|2,0:2|3:2,0:0:0:0:
266,34,62538,1,10,0:2:0:0:
207,99,62897,2,0,P|160:115|113:125,1,88,2|0,3:2|3:0,0:0:0:0:
148,207,63616,2,0,P|189:192|232:182,1,88,2|8,0:2|0:2,0:0:0:0:
291,247,64335,5,2,3:2:0:0:
267,331,64694,1,2,0:2:0:0:
189,372,65053,2,0,P|147:357|104:347,1,88,2|10,3:2|0:2,0:0:0:0:
42,285,65772,1,2,3:2:0:0:
93,213,66131,6,0,P|103:152|36:48,1,176,0|8,3:0|0:2,0:0:0:0:
118,2,67209,1,2,3:2:0:0:
188,54,67568,2,0,P|248:103|354:90,1,176,2|10,0:2|0:2,0:0:0:0:
422,60,68646,2,0,B|474:105|474:105|442:225,1,176,2|2,3:2|0:2,0:0:0:0:
390,375,70083,5,2,0:2:0:0:
320,323,70442,2,0,P|260:274|154:287,2,176,2|8|2,0:2|0:1|0:2,0:0:0:0:
257,211,77628,6,0,L|281:26,1,176,2|10,3:2|0:2,0:0:0:0:
197,4,78706,1,0,3:0:0:0:
130,61,79065,2,0,P|110:101|115:163,1,88,2|2,0:2|3:2,0:0:0:0:
174,204,79784,2,0,P|193:243|194:286,1,88,10|2,0:2|3:2,0:0:0:0:
139,355,80502,2,0,P|80:342|8:252,2,176,2|10|2,3:2|0:2|0:2,0:0:0:0:
254,221,82658,1,8,0:2:0:0:
409,303,83377,6,0,L|509:283,1,88,2|2,3:2|0:2,0:0:0:0:
500,197,84095,2,0,L|480:97,1,88,10|2,0:2|3:2,0:0:0:0:
394,106,84814,2,0,L|294:126,1,88,2|2,0:2|3:2,0:0:0:0:
303,212,85532,2,0,L|323:312,1,88,10|2,0:2|3:2,0:0:0:0:
258,361,86251,2,0,B|203:373|178:338|191:335|145:292|81:315,1,176,2|10,3:2|0:2,0:0:0:0:
12,156,87688,6,0,L|31:56,2,88,2|2|10,0:2|3:2|0:2,0:0:0:0:
86,203,88766,1,2,3:2:0:0:
160,156,89125,2,0,B|214:168|239:133|226:130|273:87|337:110,1,176,2|10,3:2|0:2,0:0:0:0:
491,149,90562,2,0,L|470:239,1,88,2|2,0:2|3:2,0:0:0:0:
386,258,91281,2,0,L|407:348,1,88,10|2,0:2|3:2,0:0:0:0:
491,362,91999,1,2,0:2:0:0:
382,62,94874,6,0,P|347:41|290:52,1,88,2|2,3:2|0:2,0:0:0:0:
248,115,95592,2,0,P|204:119|167:98,1,88,10|2,0:2|3:2,0:0:0:0:
104,36,96311,1,2,0:2:0:0:
19,59,96670,1,2,3:2:0:0:
4,145,97029,2,0,L|24:238,1,88,8|0,0:2|3:0,0:0:0:0:
89,288,97748,6,0,B|131:304|131:304|177:278,1,88,2|2,3:2|0:2,0:0:0:0:
202,201,98466,2,0,B|239:179|239:179|281:195,1,88,10|2,0:2|3:2,0:0:0:0:
353,246,99185,1,2,0:2:0:0:
366,159,99544,1,2,3:2:0:0:
380,72,99903,2,0,P|421:43|469:43,1,88,10|2,0:2|3:2,0:0:0:0:
449,128,100622,6,0,L|483:316,2,176,2|8|2,3:2|0:2|0:2,0:0:0:0:
299,35,102778,1,10,0:2:0:0:
147,123,103496,2,0,P|13:116|124:41,1,352,2|2,3:2|0:2,0:0:0:0:
310,340,106371,6,0,L|404:359,1,88,2|2,3:2|0:2,0:0:0:0:
437,279,107089,2,0,L|350:261,1,88,10|2,0:2|3:2,0:0:0:0:
264,242,107808,1,2,0:2:0:0:
248,155,108167,1,2,3:2:0:0:
233,68,108526,2,0,L|137:86,1,88,8|0,0:2|3:0,0:0:0:0:
70,39,109245,6,0,P|56:96|73:140,1,88,2|2,3:2|0:2,0:0:0:0:
129,180,109963,2,0,P|143:237|126:281,1,88,10|2,0:2|3:2,0:0:0:0:
78,331,110682,1,2,0:2:0:0:
163,352,111041,1,2,3:2:0:0:
221,286,111400,2,0,P|262:266|316:269,1,88,10|2,0:2|3:2,0:0:0:0:
380,309,112119,6,0,L|411:128,2,176,2|8|2,3:2|0:2|0:2,0:0:0:0:
302,267,113915,1,0,3:0:0:0:
233,322,114275,2,0,P|204:348|141:351,1,88,10|2,0:2|3:2,0:0:0:0:
82,308,114993,6,0,B|4:151|4:151|132:10,2,352,2|2|4,0:2|0:2|0:3,0:0:0:0:
396,332,123616,6,0,P|446:343|493:368,2,88,4|2|8,3:2|0:2|0:2,0:0:0:0:
352,255,124694,1,2,3:2:0:0:
425,206,125053,2,0,P|442:142|426:109,1,88,2|2,0:2|3:2,0:0:0:0:
380,54,125772,1,10,0:2:0:0:
294,75,126131,2,0,B|224:92|224:92|197:86|197:86|122:104,1,176,2|2,3:2|0:2,0:0:0:0:
13,242,127568,5,2,3:2:0:0:
87,288,127927,2,0,P|101:329|110:372,2,88,2|2|10,0:2|3:2|0:2,0:0:0:0:
133,213,129005,2,0,P|174:174|297:182,1,176,2|2,3:2|0:2,0:0:0:0:
392,317,130442,5,2,3:2:0:0:
467,270,130802,2,0,P|483:204|488:167,1,88,2|2,0:2|3:2,0:0:0:0:
459,100,131520,1,10,0:2:0:0:
393,158,131879,2,0,P|354:187|299:184,1,88,2|0,3:2|3:0,0:0:0:0:
249,131,132598,2,0,P|210:102|155:105,1,88,2|8,0:2|0:2,0:0:0:0:
98,149,133317,5,2,3:2:0:0:
114,235,133676,1,2,0:2:0:0:
129,321,134035,2,0,P|171:331|213:345,1,88,2|10,3:2|0:2,0:0:0:0:
298,369,134754,1,2,3:2:0:0:
361,307,135113,2,0,B|399:257|399:257|363:130,1,176,0|8,3:0|0:2,0:0:0:0:
299,92,136191,5,2,3:2:0:0:
226,141,136550,2,0,L|210:238,2,88,2|2|10,0:2|3:2|0:2,0:0:0:0:
175,68,137628,2,0,P|88:62|17:111,1,176,2|2,3:2|0:2,0:0:0:0:
63,281,139065,5,2,0:2:0:0:
126,219,139424,2,0,P|213:229|299:245,2,176,2|10|2,0:2|0:2|0:2,0:0:0:0:
27,216,146610,6,0,P|16:173|32:123,1,88,6|0,3:2|0:0,0:0:0:0:
94,75,147329,1,10,0:2:0:0:
160,132,147688,2,0,L|334:165,2,176,0|0|0,3:0|3:0|3:0,0:0:0:0:
102,198,149484,6,0,B|117:293|134:261|149:370,1,176,2|8,3:2|0:2,0:0:0:0:
273,243,150921,2,0,B|287:137|304:169|319:74,1,176,2|10,0:2|0:2,0:0:0:0:
491,34,152359,2,0,P|504:74|485:124,1,88,2|0,3:2|0:0,0:0:0:0:
413,158,153077,1,8,0:2:0:0:
429,244,153436,2,0,L|447:334,2,88,0|0|0,3:0|0:0|3:0,0:0:0:0:
347,210,154514,2,0,P|300:180|266:177,1,88,10|0,0:2|3:0,0:0:0:0:
201,233,155233,6,0,L|18:273,2,176,2|8|0,3:2|0:2|0:0,0:0:0:0:
268,176,157029,1,0,3:0:0:0:
231,95,157389,2,0,P|213:43|229:-1,1,88,10|0,0:2|3:0,0:0:0:0:
303,41,158107,2,0,B|358:24|385:53|381:61|419:94|476:75,1,176,2|8,3:2|0:2,0:0:0:0:
493,161,159185,2,0,L|457:342,2,176,0|0|2,3:0|3:0|3:2,0:0:0:0:
467,77,160981,5,2,0:2:0:0:
45,307,163856,1,6,0:2:0:0:
