osu file format v14

[General]
AudioFilename: audio.mp3
AudioLeadIn: 0
PreviewTime: 2898
Countdown: 0
SampleSet: Soft
StackLeniency: 0.4
Mode: 0
LetterboxInBreaks: 0
WidescreenStoryboard: 0

[Editor]
Bookmarks: 2901,48886,71880,94874,117868,140862,163856
DistanceSpacing: 1
BeatDivisor: 4
GridSize: 32
TimelineZoom: 2.2

[Metadata]
Title:Afterthought
TitleUnicode:Afterthought
Artist:Joji & BENEE
ArtistUnicode:Joji & BENEE
Creator:calle
Version:Another
Source:
Tags:nyantiaz intiaz narrative casperisapotato english pop hiphop hip-hop 88rising nectar pink guy filthy frank collab
BeatmapID:3870237
BeatmapSetID:1879976

[Difficulty]
HPDrainRate:6
CircleSize:4.5
OverallDifficulty:8.2
ApproachRate:8.8
SliderMultiplier:1.8
SliderTickRate:1

[Events]
//Background and Video events
0,0,"nectar.jpg",0,0
//Break Periods
2,118068,121520
//Storyboard Layer 0 (Background)
//Storyboard Layer 1 (Fail)
//Storyboard Layer 2 (Pass)
//Storyboard Layer 3 (Foreground)
//Storyboard Layer 4 (Overlay)
//Storyboard Sound Samples

[TimingPoints]
2898,359.281437125748,4,2,1,65,1,0
2898,-111.111111111111,4,2,1,65,0,0
5323,-111.111111111111,4,2,1,5,0,0
5412,-111.111111111111,4,2,1,65,0,0
11071,-111.111111111111,4,2,1,5,0,0
11160,-111.111111111111,4,2,1,65,0,0
12957,-100,4,2,1,65,0,0
13137,-100,4,2,1,5,0,0
13227,-100,4,2,1,65,0,0
13406,-100,4,2,1,5,0,0
13496,-100,4,2,1,65,0,0
13586,-100,4,2,1,5,0,0
13676,-100,4,2,1,65,0,0
13945,-99.9999999999999,4,2,1,5,0,0
14034,-99.9999999999999,4,2,1,65,0,0
14395,-87.719298245614,4,2,1,65,0,0
15113,-111.111111111111,4,2,1,65,0,0
16820,-111.111111111111,4,2,1,5,0,0
16909,-111.111111111111,4,2,1,65,0,0
18706,-100,4,2,1,65,0,0
18886,-100,4,2,1,5,0,0
18975,-100,4,2,1,65,0,0
19155,-100,4,2,1,5,0,0
19245,-100,4,2,1,65,0,0
19335,-100,4,2,1,5,0,0
19425,-100,4,2,1,65,0,0
19694,-99.9999999999999,4,2,1,5,0,0
19783,-99.9999999999999,4,2,1,65,0,0
20862,-111.111111111111,4,2,1,65,0,0
23017,-249.999999999999,4,2,1,50,0,0
25173,-142.857142857143,4,2,1,50,0,0
25892,-111.111111111111,4,2,1,65,0,0
28317,-111.111111111111,4,2,1,5,0,0
28406,-111.111111111111,4,2,1,65,0,0
34065,-111.111111111111,4,2,1,5,0,0
34154,-111.111111111111,4,2,1,65,0,0
35951,-100,4,2,1,65,0,0
36131,-100,4,2,1,5,0,0
36220,-100,4,2,1,65,0,0
36400,-100,4,2,1,5,0,0
36490,-100,4,2,1,65,0,0
36580,-100,4,2,1,5,0,0
36670,-100,4,2,1,65,0,0
36939,-99.9999999999999,4,2,1,5,0,0
37028,-99.9999999999999,4,2,1,65,0,0
37389,-87.719298245614,4,2,1,65,0,0
38107,-111.111111111111,4,2,1,65,0,0
39814,-111.111111111111,4,2,1,5,0,0
39903,-111.111111111111,4,2,1,65,0,0
41700,-100,4,2,1,65,0,0
41880,-100,4,2,1,5,0,0
41969,-100,4,2,1,65,0,0
42149,-100,4,2,1,5,0,0
42239,-100,4,2,1,65,0,0
42329,-100,4,2,1,5,0,0
42419,-100,4,2,1,65,0,0
42688,-99.9999999999999,4,2,1,5,0,0
42777,-99.9999999999999,4,2,1,65,0,0
43856,-111.111111111111,4,2,1,65,0,0
47089,-111.111111111111,4,2,1,70,0,0
48886,-249.999999999999,4,2,1,70,0,0
49514,-249.999999999999,4,2,1,5,0,0
49604,-95.2380952380952,4,2,1,80,0,1
50951,-95.2380952380952,4,2,1,5,0,1
51040,-95.2380952380952,4,2,1,80,0,1
52748,-95.2380952380952,4,2,1,5,0,1
52837,-95.2380952380952,4,2,1,80,0,1
54903,-95.2380952380952,4,2,1,5,0,1
54992,-95.2380952380952,4,2,1,80,0,1
57059,-95.2380952380952,4,2,1,5,0,1
57148,-95.2380952380952,4,2,1,80,0,1
59933,-95.2380952380952,4,2,1,5,0,1
60022,-95.2380952380952,4,2,1,80,0,1
60113,-95.2380952380952,4,2,1,5,0,1
60202,-95.2380952380952,4,2,1,80,0,1
60293,-95.2380952380952,4,2,1,5,0,1
60382,-95.2380952380952,4,2,1,80,0,1
62808,-95.2380952380952,4,2,1,5,0,1
62897,-95.2380952380952,4,2,1,80,0,1
65862,-95.2380952380952,4,2,1,5,0,1
65951,-95.2380952380952,4,2,1,80,0,1
66041,-95.2380952380952,4,2,1,5,0,1
66130,-95.2380952380952,4,2,1,80,0,1
66400,-95.2380952380952,4,2,1,5,0,1
66489,-95.2380952380952,4,2,1,80,0,1
69005,-117.647058823529,4,2,1,80,0,0
71071,-117.647058823529,4,2,1,5,0,0
71160,-117.647058823529,4,2,1,80,0,0
71835,-117.647058823529,4,2,1,5,0,0
71880,-166.666666666667,4,2,1,50,0,0
77628,-111.111111111111,4,2,1,65,0,0
82927,-111.111111111111,4,2,1,5,0,0
83016,-111.111111111111,4,2,1,65,0,0
85442,-111.111111111111,4,2,1,5,0,0
85531,-111.111111111111,4,2,1,65,0,0
88676,-111.111111111111,4,2,1,5,0,0
88765,-111.111111111111,4,2,1,65,0,0
91999,-166.666666666667,4,2,1,65,0,0
94874,-105.263157894737,4,2,1,70,0,0
114993,-105.263157894737,4,2,1,60,0,0
123526,-105.263157894737,4,2,1,5,0,0
123616,-90.9090909090909,4,2,1,80,0,1
126041,-90.9090909090908,4,2,1,5,0,1
126130,-90.9090909090908,4,2,1,80,0,1
128915,-90.9090909090908,4,2,1,5,0,1
129004,-90.9090909090908,4,2,1,80,0,1
129095,-90.9090909090908,4,2,1,5,0,1
129184,-90.9090909090908,4,2,1,80,0,1
129275,-90.9090909090908,4,2,1,5,0,1
129364,-90.9090909090908,4,2,1,80,0,1
131790,-90.9090909090908,4,2,1,5,0,1
131879,-90.9090909090908,4,2,1,80,0,1
134844,-90.9090909090908,4,2,1,5,0,1
134933,-90.9090909090908,4,2,1,80,0,1
135023,-90.9090909090908,4,2,1,5,0,1
135112,-90.9090909090908,4,2,1,80,0,1
135383,-90.9090909090908,4,2,1,5,0,1
135472,-90.9090909090908,4,2,1,80,0,1
137987,-125,4,2,1,60,0,0
140817,-90.9090909090908,4,2,1,5,0,0
140862,-285.714285714286,4,2,1,60,0,0
143556,-285.714285714286,4,2,1,5,0,0
143736,-285.714285714286,4,2,1,60,0,0
144814,-285.714285714286,4,2,1,5,0,0
145173,-133.333333333333,4,2,1,60,0,0
146610,-105.263157894737,4,2,1,75,0,0
151909,-105.263157894737,4,2,1,5,0,0
151998,-105.263157894737,4,2,1,75,0,0
154784,-105.263157894737,4,2,1,5,0,0
154873,-105.263157894737,4,2,1,75,0,0
160981,-105.263157894737,4,2,1,65,0,0

[Colours]
Combo1 : 133,33,55
Combo2 : 220,41,60
SliderTrackOverride : 30,15,16

[HitObjects]
26,140,2898,6,0,P|71:125|125:97,1,80.9999975280763,2|0,3:2|0:0,0:0:0:0:
148,214,3257,2,0,P|193:229|247:257,1,80.9999975280763,2|4,0:2|0:3,0:0:0:0:
232,0,3616,2,0,P|187:36|168:133,1,80.9999975280763,10|0,0:2|0:0,0:0:0:0:
325,151,3975,1,2,3:2:0:0:
403,79,4155,6,0,P|443:82|479:100,1,80.9999975280763,2|2,0:3|0:2,0:0:0:0:
306,167,4514,1,2,0:3:0:0:
402,334,4694,1,2,3:2:0:0:
402,334,4874,1,4,0:3:0:0:
224,244,5053,2,0,P|284:245|335:278,1,121.499996292114,10|0,0:2|0:0,0:0:0:0:
367,253,5412,2,0,P|377:214|398:179,1,80.9999975280763,2|0,3:2|0:0,0:0:0:0:
198,314,5772,6,0,P|185:237|135:148,1,161.999995056153,2|0,3:2|0:0,0:0:0:0:
295,212,6311,1,4,0:3:0:0:
146,374,6490,6,0,P|85:345|54:341,1,80.9999975280763,10|0,0:2|0:0,0:0:0:0:
154,249,6850,1,2,3:2:0:0:
5,130,7029,2,0,B|49:133|81:101|74:96|106:69|155:71,1,161.999995056153,2|2,0:3|0:3,0:0:0:0:
274,0,7568,1,0,3:0:0:0:
274,0,7748,1,4,0:3:0:0:
304,196,7927,6,0,P|248:154|245:116,1,80.9999975280763,10|0,0:2|0:0,0:0:0:0:
449,59,8287,2,0,P|440:90|436:128,1,40.4999987640381,2|0,3:2|0:0,0:0:0:0:
406,231,8466,2,0,P|415:200|419:162,1,40.4999987640381,0|0,3:0|0:0,0:0:0:0:
300,11,8646,6,0,P|314:61|319:124,1,80.9999975280763,2|0,3:2|0:0,0:0:0:0:
222,155,9005,2,0,P|210:193|204:233,1,80.9999975280763,2|4,0:2|0:3,0:0:0:0:
146,74,9365,2,0,P|115:47|76:41,1,80.9999975280763,10|0,0:2|0:0,0:0:0:0:
120,179,9724,1,2,3:2:0:0:
303,113,9903,5,2,0:3:0:0:
183,247,10083,2,0,P|173:286|185:324,1,80.9999975280763,2|2,0:2|0:3,0:0:0:0:
338,180,10442,1,0,3:0:0:0:
274,329,10622,1,4,0:3:0:0:
199,139,10802,2,0,P|142:109|82:99,1,121.499996292114,10|0,0:2|0:0,0:0:0:0:
59,129,11161,1,2,3:2:0:0:
281,39,11341,1,2,0:2:0:0:
281,39,11430,1,2,0:2:0:0:
281,39,11520,6,0,B|287:136|301:111|311:213,1,161.999995056153,2|0,3:2|0:0,0:0:0:0:
354,288,12059,1,4,0:3:0:0:
471,165,12239,2,0,B|494:152|515:157|515:157|490:229|400:221,1,161.999995056153,8|0,0:2|3:0,0:0:0:0:
380,136,12778,1,2,0:3:0:0:
148,243,12957,6,0,P|120:260|86:310,1,90,2|2,0:2|0:3,0:0:0:0:
176,161,13227,2,0,P|174:129|146:70,1,90,2|0,0:2|0:0,0:0:0:0:
234,226,13496,2,0,P|263:240|289:243,1,45,4|0,0:3|0:0,0:0:0:0:
90,178,13676,2,0,B|51:141|3:151|3:151|34:171|75:158,1,135,10|0,0:2|0:0,0:0:0:0:
46,235,14035,6,0,P|57:264|61:302,2,60,2|2|2,3:3|0:3|0:3,0:0:0:0:
197,150,14395,6,0,B|286:79|379:127|379:127|324:177|250:139,1,307.799996242676,2|0,3:3|0:0,0:0:0:0:
120,348,15113,6,0,P|81:321|35:316,1,80.9999975280763,10|0,0:2|0:0,0:0:0:0:
178,167,15472,1,2,3:2:0:0:
120,255,15652,1,2,0:3:0:0:
338,355,15832,2,0,P|378:341|424:334,1,80.9999975280763,2|2,0:2|0:3,0:0:0:0:
239,211,16191,2,0,P|279:225|325:232,1,80.9999975280763,0|0,3:0|0:0,0:0:0:0:
442,84,16550,2,0,P|384:135|388:212,1,121.499996292114,10|0,0:2|0:0,0:0:0:0:
407,202,16909,5,2,3:2:0:0:
352,17,17089,1,2,0:2:0:0:
481,160,17269,2,0,B|489:197|489:197|493:199|493:199|503:243,1,80.9999975280763,2|0,3:2|0:0,0:0:0:0:
303,104,17628,1,2,0:2:0:0:
501,147,17808,1,2,0:2:0:0:
329,2,17987,2,0,P|272:2|203:84,1,161.999995056153,10|2,0:2|3:2,0:0:0:0:
272,219,18526,1,2,0:3:0:0:
69,101,18706,6,0,P|108:125|128:170,1,90,2|2,0:2|0:3,0:0:0:0:
186,330,18975,2,0,P|146:305|124:253,1,90,2|0,0:2|0:0,0:0:0:0:
6,202,19245,2,0,P|46:179|86:184,1,45,2|0,0:2|0:0,0:0:0:0:
266,242,19424,2,0,P|225:256|216:176,1,135,10|0,0:2|0:0,0:0:0:0:
225,120,19784,6,0,P|225:154|203:194,1,45,0|0,3:0|0:0,0:0:0:0:
107,277,19963,2,0,P|102:255|104:232,1,45,0|0,3:0|0:0,0:0:0:0:
49,24,20143,6,0,B|125:-16|187:40|171:60|224:121|310:76,1,270,2|0,3:2|0:0,0:0:0:0:
490,0,20862,6,0,P|455:44|451:80,1,80.9999975280763,10|0,0:2|0:0,0:0:0:0:
390,229,21221,2,0,P|427:211|465:201,1,80.9999975280763,2|2,3:2|0:3,0:0:0:0:
314,155,21580,1,2,0:2:0:0:
404,244,21760,1,2,0:3:0:0:
224,310,21939,2,0,P|159:275|55:255,2,161.999995056153,0|10|2,3:0|0:2|3:2,0:0:0:0:
292,384,22838,1,2,0:2:0:0:
354,222,23017,5,2,0:2:0:0:
339,297,23633,5,2,0:2:0:0:
412,273,24694,5,2,0:2:0:0:
354,222,25173,6,0,B|324:196|331:160|331:160|356:194|337:216,1,125.999996154785,8|0,0:1|0:0,0:0:0:0:
340,211,25892,6,0,P|290:246|249:243,1,80.9999975280763,2|0,3:2|0:0,0:0:0:0:
154,378,26251,2,0,P|167:332|170:290,1,80.9999975280763,2|4,0:2|0:3,0:0:0:0:
0,159,26610,2,0,B|30:185|30:185|84:173,1,80.9999975280763,10|0,0:2|0:0,0:0:0:0:
153,282,26969,1,2,3:2:0:0:
227,107,27149,6,0,B|186:98|186:98|156:124,1,80.9999975280763,2|2,0:3|0:2,0:0:0:0:
250,196,27508,1,2,0:3:0:0:
374,81,27688,2,0,P|387:136|400:182,1,80.9999975280763,2|4,3:2|0:3,0:0:0:0:
177,285,28047,2,0,P|251:282|300:338,1,121.499996292114,10|0,0:2|0:0,0:0:0:0:
308,343,28406,2,0,P|355:365|403:349,1,80.9999975280763,2|0,3:2|0:0,0:0:0:0:
478,203,28766,6,0,B|400:180|400:180|339:234,1,161.999995056153,2|0,3:2|0:0,0:0:0:0:
219,354,29305,1,4,0:3:0:0:
163,171,29484,6,0,P|152:120|127:76,1,80.9999975280763,10|0,0:2|0:0,0:0:0:0:
251,197,29844,1,2,3:2:0:0:
70,309,30023,2,0,B|31:272|31:272|62:138,1,161.999995056153,2|2,0:3|0:3,0:0:0:0:
165,88,30562,1,0,3:0:0:0:
165,88,30742,1,4,0:3:0:0:
0,0,30921,6,0,P|39:27|58:70,1,80.9999975280763,10|0,0:2|0:0,0:0:0:0:
121,213,31281,2,0,P|139:205|157:196,1,40.4999987640381,2|0,3:2|0:0,0:0:0:0:
40,145,31460,2,0,P|22:135|3:128,1,40.4999987640381,0|0,3:0|0:0,0:0:0:0:
148,283,31640,6,0,P|192:298|237:335,1,80.9999975280763,2|0,3:2|0:0,0:0:0:0:
299,193,31999,2,0,P|308:238|298:296,1,80.9999975280763,2|4,0:2|0:3,0:0:0:0:
486,382,32359,2,0,P|430:361|384:357,1,80.9999975280763,10|0,0:2|0:0,0:0:0:0:
289,290,32718,1,2,3:2:0:0:
387,209,32897,1,2,0:3:0:0:
245,131,33077,5,2,0:2:0:0:
281,205,33257,1,2,0:3:0:0:
426,56,33436,2,0,P|463:29|531:24,1,80.9999975280763,0|4,3:0|0:3,0:0:0:0:
348,141,33796,2,0,P|396:132|465:200,1,121.499996292114,10|0,0:2|0:0,0:0:0:0:
433,204,34155,2,0,P|446:253|449:296,1,80.9999975280763,2|0,3:2|0:0,0:0:0:0:
245,371,34514,6,0,B|182:353|182:353|164:331|164:331|75:306,1,161.999995056153,2|0,3:2|0:0,0:0:0:0:
179,247,35053,1,4,0:3:0:0:
33,371,35233,2,0,P|19:317|-2:266,1,80.9999975280763,8|0,0:2|0:0,0:0:0:0:
148,140,35592,1,0,3:0:0:0:
43,93,35772,1,2,0:3:0:0:
200,256,35951,6,0,P|233:239|288:225,1,90,2|2,0:2|0:3,0:0:0:0:
352,92,36221,2,0,P|315:85|266:63,1,90,2|0,0:2|0:0,0:0:0:0:
216,236,36490,2,0,P|249:220|284:222,1,45,4|0,0:3|0:0,0:0:0:0:
396,214,36670,2,0,P|346:291|352:365,1,135,10|0,0:2|0:0,0:0:0:0:
290,375,37029,5,2,3:3:0:0:
290,375,37119,1,2,0:3:0:0:
290,375,37209,1,2,3:3:0:0:
72,192,37389,6,0,B|149:201|182:287|182:287|164:198|227:148,1,307.799996242676,2|4,3:3|0:3,0:0:0:0:
399,308,38107,6,0,P|343:341|304:338,1,80.9999975280763,10|0,0:2|0:0,0:0:0:0:
380,208,38466,1,2,3:2:0:0:
465,264,38646,1,2,0:3:0:0:
370,186,38826,1,2,0:2:0:0:
435,380,39005,1,2,0:3:0:0:
489,252,39185,2,0,P|504:192|516:161,1,80.9999975280763,0|4,3:0|0:3,0:0:0:0:
368,47,39544,2,0,P|392:111|407:196,1,121.499996292114,10|0,0:2|0:0,0:0:0:0:
370,186,39903,6,0,P|326:160|260:156,1,80.9999975280763,2|0,3:2|0:0,0:0:0:0:
145,270,40263,2,0,P|192:217|165:120,1,161.999995056153,2|0,3:2|0:0,0:0:0:0:
79,94,40802,1,4,0:3:0:0:
240,24,40981,2,0,P|200:16|164:0,1,80.9999975280763,8|0,0:2|0:0,0:0:0:0:
306,128,41341,1,2,3:2:0:0:
417,73,41520,1,2,0:3:0:0:
254,208,41700,6,0,P|281:248|293:300,1,90,2|2,0:2|0:3,0:0:0:0:
381,384,41969,2,0,P|392:351|426:302,1,90,2|0,0:2|0:0,0:0:0:0:
276,219,42239,2,0,P|295:255|300:289,1,45,4|0,0:3|0:0,0:0:0:0:
186,342,42418,2,0,P|141:298|55:290,1,135,10|0,0:2|0:0,0:0:0:0:
26,336,42778,6,0,P|36:357|44:378,1,45,0|0,3:0|0:0,0:0:0:0:
155,272,42957,2,0,P|161:251|171:231,1,45,0|0,3:0|0:0,0:0:0:0:
68,37,43137,6,0,B|47:60|-1:63|-1:63|191:107,1,270,2|4,3:2|0:3,0:0:0:0:
43,221,43856,6,0,P|28:170|0:130,1,80.9999975280763,10|0,0:2|0:0,0:0:0:0:
215,173,44215,1,2,3:2:0:0:
147,243,44395,1,2,0:3:0:0:
261,37,44574,2,0,B|274:109|274:109|278:112|278:112|294:203,2,161.999995056153,2|0|10,0:2|3:0|0:2,0:0:0:0:
172,2,45472,5,0,0:0:0:0:
307,112,45652,2,0,P|340:79|373:69,1,80.9999975280763,2|0,3:2|0:0,0:0:0:0:
216,224,46011,2,0,P|273:274|378:257,1,161.999995056153,2|0,3:2|0:0,0:0:0:0:
408,165,46550,1,4,0:3:0:0:
290,305,46730,2,0,P|299:344|306:384,1,80.9999975280763,8|0,0:2|0:0,0:0:0:0:
93,137,47089,5,2,3:2:0:0:
193,189,47269,1,2,0:3:0:0:
23,285,47448,2,0,P|30:245|40:205,1,80.9999975280763,2|2,0:2|0:3,0:0:0:0:
78,14,47808,2,0,P|130:54|147:95,1,80.9999975280763,2|4,3:2|0:3,0:0:0:0:
288,145,48167,2,0,P|227:170|183:164,1,80.9999975280763,10|0,0:2|0:0,0:0:0:0:
89,369,48526,5,2,0:3:0:0:
90,352,48646,5,2,0:3:0:0:
92,336,48766,5,2,0:3:0:0:
147,279,48886,6,2,P|136:212|119:146,1,126,4|0,0:3|0:0,0:2:0:0:
41,71,49604,2,0,P|82:124|127:129,1,94.499997116089,12|0,0:2|0:0,0:0:0:0:
258,6,49963,5,2,3:2:0:0:
205,149,50143,1,2,0:3:0:0:
379,58,50323,2,0,P|315:82|258:123,1,94.499997116089,2|2,0:2|0:3,0:0:0:0:
147,279,50682,2,0,B|229:289|188:320|311:338,1,141.749995674133,2|0,3:2|0:0,0:0:0:0:
305,369,51041,2,0,P|346:312|336:268,1,94.499997116089,10|0,0:2|0:0,0:0:0:0:
282,115,51400,2,0,P|310:179|353:192,1,94.499997116089,2|0,3:2|0:0,0:0:0:0:
484,301,51760,5,0,3:0:0:0:
274,245,51939,1,2,0:2:0:0:
448,130,52119,2,0,P|440:176|426:221,1,94.499997116089,2|0,0:2|0:0,0:0:0:0:
209,368,52478,2,0,P|186:310|174:215,1,141.749995674133,8|0,0:2|0:0,0:0:0:0:
142,196,52838,5,2,3:2:0:0:
250,106,53017,1,2,0:3:0:0:
73,17,53197,2,0,B|55:42|55:42|71:123,1,94.499997116089,2|2,0:2|0:3,0:0:0:0:
238,197,53556,2,0,B|263:179|263:179|276:98,1,94.499997116089,2|0,3:2|0:0,0:0:0:0:
111,306,53915,2,0,P|167:323|216:359,1,94.499997116089,10|0,0:2|0:0,0:0:0:0:
30,200,54275,1,2,3:2:0:0:
195,128,54454,1,0,3:0:0:0:
12,380,54634,6,0,P|35:322|47:227,1,141.749995674133,0|0,3:0|0:0,0:0:0:0:
30,200,54993,2,0,P|7:159|1:112,1,94.499997116089,2|4,0:2|0:3,0:0:0:0:
144,237,55353,1,8,0:2:0:0:
144,237,55532,1,0,0:0:0:0:
258,56,55712,5,2,3:2:0:0:
166,130,55892,1,2,0:3:0:0:
349,203,56071,2,0,P|358:156|374:112,1,94.499997116089,2|2,0:2|0:3,0:0:0:0:
238,285,56430,2,0,P|230:238|215:194,1,94.499997116089,2|4,3:2|0:3,0:0:0:0:
346,377,56790,2,0,P|401:327|480:322,1,141.749995674133,10|0,0:2|0:0,0:0:0:0:
504,291,57149,2,0,P|443:262|417:216,1,94.499997116089,2|0,3:2|0:0,0:0:0:0:
353,52,57508,5,0,3:0:0:0:
479,189,57688,1,0,0:0:0:0:
356,271,57868,1,2,0:2:0:0:
356,271,58047,1,4,0:3:0:0:
498,107,58227,2,0,P|438:119|400:155,1,94.499997116089,8|0,0:2|0:0,0:0:0:0:
249,340,58586,5,2,3:2:0:0:
285,207,58766,1,2,0:3:0:0:
163,383,58945,2,0,P|151:323|131:276,1,94.499997116089,2|2,0:2|0:3,0:0:0:0:
259,122,59305,1,2,3:2:0:0:
61,177,59484,1,4,0:3:0:0:
279,134,59664,2,0,B|357:126|328:86|423:84,1,141.749995674133,10|0,0:2|0:0,0:0:0:0:
401,162,60023,6,0,P|426:182|458:196,1,47.2499985580445,2|0,3:2|0:0,0:0:0:0:
287,55,60203,2,0,P|262:35|230:21,1,47.2499985580445,0|0,3:0|0:0,0:0:0:0:
423,281,60383,6,0,P|474:257|529:250,1,94.499997116089,0|2,3:0|0:2,0:0:0:0:
339,323,60742,1,2,0:2:0:0:
475,379,60921,1,2,0:2:0:0:
344,228,61101,2,0,P|301:206|255:197,1,94.499997116089,8|0,0:2|0:0,0:0:0:0:
433,307,61460,5,2,3:2:0:0:
387,154,61640,1,2,0:3:0:0:
320,341,61820,2,0,P|273:367|203:347,1,94.499997116089,2|2,0:2|0:3,0:0:0:0:
206,114,62179,2,0,P|252:141|269:212,1,94.499997116089,2|0,3:2|0:0,0:0:0:0:
67,265,62538,2,0,B|82:182|88:210|99:109,1,141.749995674133,10|0,0:2|0:0,0:0:0:0:
82,81,62897,2,0,P|34:122|-29:125,1,94.499997116089,2|0,3:2|0:0,0:0:0:0:
171,190,63257,5,0,3:0:0:0:
9,45,63436,1,2,0:2:0:0:
184,213,63616,2,0,P|229:226|271:246,1,94.499997116089,2|0,0:2|0:0,0:0:0:0:
241,41,63975,2,0,P|227:86|207:128,1,94.499997116089,8|0,0:2|0:0,0:0:0:0:
416,172,64335,5,2,3:2:0:0:
394,83,64514,1,2,0:3:0:0:
347,275,64694,1,2,0:2:0:0:
512,149,64874,1,2,0:3:0:0:
285,224,65053,2,0,B|240:236|240:236|238:240|238:240|173:259,1,94.499997116089,2|0,3:2|0:0,0:0:0:0:
424,348,65412,2,0,B|468:360|468:360|470:364|470:364|536:383,1,94.499997116089,10|0,0:2|0:0,0:0:0:0:
355,196,65772,6,0,P|363:161|369:138,1,47.2499985580445,2|0,3:2|0:0,0:0:0:0:
271,325,65951,2,0,P|279:360|285:383,1,47.2499985580445,0|0,3:0|0:0,0:0:0:0:
381,78,66131,6,0,B|344:65|297:90|314:109|279:131|244:125,1,141.749995674133,0|0,3:0|0:0,0:0:0:0:
214,101,66490,2,0,B|200:55|200:55|242:1,1,94.499997116089,2|0,0:2|0:0,0:0:0:0:
365,150,66850,2,0,B|393:186|393:186|379:232,1,94.499997116089,8|0,0:2|0:0,0:0:0:0:
138,329,67209,5,2,3:2:0:0:
271,208,67389,1,2,0:3:0:0:
209,363,67568,1,2,0:2:0:0:
96,129,67748,1,2,0:3:0:0:
305,299,67927,2,0,P|345:319|407:334,1,94.499997116089,2|0,3:2|0:0,0:0:0:0:
149,229,68287,2,0,P|103:241|61:262,1,94.499997116089,10|0,0:2|0:0,0:0:0:0:
285,138,68646,2,0,P|318:83|300:23,1,94.499997116089,2|0,3:2|0:0,0:0:0:0:
224,0,69005,5,0,0:0:0:0:
336,42,69185,1,2,0:2:0:0:
179,103,69365,2,0,B|120:86|120:86|95:63|95:63|38:47,1,153.000002918243,2|8,0:2|0:1,0:0:0:0:
256,244,70083,5,2,0:2:0:0:
281,152,70263,1,2,0:2:0:0:
176,259,70442,2,0,P|197:299|231:324,1,76.5000014591217,2|0,0:2|0:0,0:0:0:0:
366,230,70802,2,0,P|355:151|334:85,1,114.750002188683,2|0,0:2|0:0,0:0:0:0:
318,90,71161,2,0,P|339:50|373:25,1,76.5000014591217,8|0,0:1|0:0,0:0:0:0:
258,164,71520,2,0,P|183:172|131:130,1,133.875002553463,2|0,0:2|0:0,0:0:0:0:
135,130,71880,5,2,0:2:0:0:
65,109,72239,1,2,0:2:0:0:
44,179,72598,1,2,0:2:0:0:
114,200,72957,1,2,0:2:0:0:
137,128,73317,1,2,0:2:0:0:
63,106,73676,1,2,0:2:0:0:
41,180,74035,1,2,0:2:0:0:
115,202,74394,1,2,0:2:0:0:
233,77,74754,6,0,B|277:62|322:77|322:77|352:62|352:62|397:77|442:62,1,215.999993408203,2|0,0:2|0:0,0:0:0:0:
442,62,76191,5,2,0:2:0:0:
492,112,76550,1,2,0:2:0:0:
474,181,76909,1,2,0:2:0:0:
405,200,77269,1,2,0:2:0:0:
201,77,77628,6,0,P|192:27|165:-22,2,80.9999975280763,2|0|0,3:2|0:0|0:0,0:0:0:0:
146,193,78167,1,4,0:3:0:0:
316,147,78347,2,0,P|349:154|393:183,1,80.9999975280763,10|0,0:2|0:0,0:0:0:0:
193,313,78706,1,0,3:0:0:0:
218,233,78886,1,2,0:3:0:0:
101,375,79065,5,2,0:2:0:0:
36,196,79245,1,2,0:3:0:0:
171,298,79424,1,2,3:2:0:0:
94,269,79604,1,4,0:3:0:0:
204,136,79784,2,0,P|247:112|293:112,1,80.9999975280763,10|0,0:2|0:0,0:0:0:0:
388,243,80143,2,0,P|345:217|322:177,1,80.9999975280763,2|0,3:2|0:0,0:0:0:0:
459,2,80502,6,0,B|498:38|498:38|469:169,1,161.999995056153,2|0,3:2|0:0,0:0:0:0:
377,106,81041,1,4,0:3:0:0:
282,251,81221,2,0,P|295:297|310:339,1,80.9999975280763,10|0,0:2|0:0,0:0:0:0:
479,235,81580,1,0,3:0:0:0:
412,297,81760,1,2,0:3:0:0:
304,141,81939,5,2,0:2:0:0:
371,187,82119,1,2,0:3:0:0:
436,307,82299,2,0,P|423:353|408:395,1,80.9999975280763,0|4,3:0|0:3,0:0:0:0:
261,231,82658,2,0,P|208:198|128:200,1,121.499996292114,8|0,0:2|0:0,0:0:0:0:
123,224,83017,6,0,P|98:246|55:253,2,53.9999983520508,2|2|2,3:0|0:3|0:3,0:0:0:0:
77,124,83377,6,0,P|61:64|37:28,1,80.9999975280763,2|0,3:2|0:0,0:0:0:0:
166,96,83736,2,0,P|150:36|126:0,1,80.9999975280763,2|0,0:2|0:0,0:0:0:0:
61,268,84095,2,0,P|45:328|21:364,1,80.9999975280763,10|0,0:2|0:0,0:0:0:0:
150,296,84454,2,0,P|134:356|110:392,1,80.9999975280763,2|2,3:2|0:3,0:0:0:0:
265,170,84814,5,2,0:2:0:0:
130,208,84993,1,2,0:3:0:0:
318,259,85173,2,0,P|306:199|280:144,1,121.499996292114,2|0,3:2|0:0,0:0:0:0:
310,117,85532,2,0,P|369:133|413:130,1,80.9999975280763,10|0,0:2|0:0,0:0:0:0:
512,0,85892,2,0,P|468:43|448:82,1,80.9999975280763,2|0,3:2|0:0,0:0:0:0:
512,234,86251,6,0,B|475:231|432:261|450:277|415:317|358:306,2,161.999995056153,2|0|10,3:2|0:0|0:2,0:0:0:0:
269,122,87329,1,0,3:0:0:0:
304,222,87508,1,2,0:3:0:0:
399,10,87688,5,2,0:2:0:0:
248,109,87868,1,2,0:3:0:0:
361,159,88047,2,0,P|391:132|402:94,1,80.9999975280763,2|0,3:2|0:0,0:0:0:0:
285,243,88406,2,0,B|296:300|296:300|300:303|300:303|314:372,1,121.499996292114,10|0,0:2|0:0,0:0:0:0:
278,383,88766,2,0,P|255:370|212:359,1,40.4999987640381,2|0,3:2|0:0,0:0:0:0:
372,288,88945,2,0,P|390:280|408:270,1,40.4999987640381,0|0,3:0|0:0,0:0:0:0:
199,155,89125,6,0,P|151:121|48:130,1,161.999995056153,2|0,3:2|0:0,0:0:0:0:
98,221,89664,1,0,0:0:0:0:
0,342,89844,2,0,P|38:323|110:305,1,80.9999975280763,10|0,0:2|0:0,0:0:0:0:
207,178,90203,1,0,3:0:0:0:
163,277,90383,1,2,0:3:0:0:
303,384,90562,5,2,0:2:0:0:
250,316,90742,1,2,0:3:0:0:
353,186,90921,2,0,P|403:168|455:162,1,80.9999975280763,2|0,3:2|0:0,0:0:0:0:
414,32,91281,2,0,P|454:66|485:108,1,80.9999975280763,10|0,0:2|0:0,0:0:0:0:
456,316,91640,2,0,P|465:263|486:215,1,80.9999975280763,2|0,3:2|0:0,0:0:0:0:
255,63,91999,5,2,0:2:0:0:
180,78,92628,5,2,0:2:0:0:
105,93,93706,5,2,0:2:0:0:
180,78,94155,6,0,B|186:67|185:47|185:47|202:140,1,107.999996704102,8|0,0:1|0:0,0:0:0:0:
199,122,94874,5,2,3:2:0:0:
116,236,95053,1,2,0:2:0:0:
305,285,95233,2,0,P|288:228|253:188,1,85.4999977169037,2|4,0:2|0:3,0:0:0:0:
113,66,95592,1,10,0:2:0:0:
180,197,95772,1,2,0:2:0:0:
283,36,95951,1,2,3:2:0:0:
196,219,96131,1,2,0:3:0:0:
32,113,96311,2,0,B|3:146|3:146|21:214,1,85.4999977169037,2|2,0:2|0:3,0:0:0:0:
208,61,96670,1,2,3:2:0:0:
106,169,96850,1,4,0:3:0:0:
317,280,97029,2,0,B|364:263|401:291|395:297|431:329|490:302,1,170.999995433807,8|0,0:2|3:0,0:0:0:0:
412,207,97568,1,2,0:2:0:0:
224,381,97748,5,2,3:2:0:0:
283,203,97927,1,2,0:2:0:0:
349,350,98107,1,2,0:2:0:0:
212,275,98287,1,6,0:3:0:0:
390,183,98466,1,10,0:2:0:0:
244,349,98646,1,2,0:2:0:0:
152,109,98826,1,2,3:2:0:0:
301,272,99005,1,2,0:3:0:0:
74,323,99185,2,0,P|15:287|-15:279,1,85.4999977169037,2|2,0:2|0:3,0:0:0:0:
184,211,99544,1,2,3:2:0:0:
152,354,99724,1,4,0:3:0:0:
295,177,99903,6,0,P|314:225|322:278,1,85.4999977169037,10|0,0:2|0:0,0:0:0:0:
144,21,100263,2,0,P|133:52|128:88,1,42.7499988584519,2|0,3:2|0:0,0:0:0:0:
88,207,100442,2,0,P|99:176|104:140,1,42.7499988584519,0|0,3:0|0:0,0:0:0:0:
319,82,100622,6,0,B|383:30|383:30|511:53,1,170.999995433807,2|0,3:2|0:0,0:0:0:0:
509,167,101161,1,4,0:3:0:0:
411,122,101341,2,0,P|379:161|375:216,1,85.4999977169037,8|0,0:2|0:0,0:0:0:0:
439,272,101700,1,2,3:2:0:0:
292,227,101880,1,2,0:3:0:0:
375,375,102059,6,0,P|425:358|496:346,1,85.4999977169037,2|2,0:2|0:3,0:0:0:0:
306,245,102418,1,0,3:0:0:0:
245,316,102598,1,4,0:3:0:0:
135,207,102778,2,0,P|149:158|156:114,1,85.4999977169037,10|0,0:2|0:0,0:0:0:0:
286,45,103137,2,0,P|293:87|305:127,1,85.4999977169037,2|0,3:2|0:0,0:0:0:0:
100,0,103496,6,0,B|153:-17|189:10|176:21|224:53|288:16,1,170.999995433807,2|0,3:2|0:0,0:0:0:0:
164,101,104035,1,4,0:3:0:0:
277,202,104215,2,0,P|327:202|357:187,1,85.4999977169037,8|0,0:2|0:0,0:0:0:0:
148,81,104574,1,0,3:0:0:0:
231,138,104754,1,2,0:3:0:0:
64,221,104933,5,2,0:2:0:0:
210,154,105113,1,2,0:3:0:0:
28,63,105293,2,0,P|17:104|-1:145,1,85.4999977169037,0|4,3:0|0:3,0:0:0:0:
168,270,105652,2,0,P|150:230|139:189,1,85.4999977169037,8|0,0:2|0:0,0:0:0:0:
300,33,106011,1,2,3:3:0:0:
300,33,106101,1,2,0:3:0:0:
300,33,106191,1,2,3:3:0:0:
470,227,106371,5,2,3:2:0:0:
341,147,106550,1,2,0:2:0:0:
443,98,106730,2,0,P|458:58|465:10,1,85.4999977169037,2|4,0:2|0:3,0:0:0:0:
310,242,107089,1,10,0:2:0:0:
261,97,107269,1,2,0:2:0:0:
393,280,107448,1,2,3:2:0:0:
459,122,107628,1,2,0:3:0:0:
254,332,107808,2,0,P|235:277|205:233,1,85.4999977169037,2|2,0:2|0:3,0:0:0:0:
365,153,108167,1,2,3:2:0:0:
281,198,108347,1,4,0:3:0:0:
133,63,108526,2,0,P|74:54|-2:134,1,170.999995433807,8|0,0:2|3:0,0:0:0:0:
132,168,109065,1,2,0:2:0:0:
8,347,109245,5,2,3:2:0:0:
56,186,109424,1,2,0:2:0:0:
191,276,109604,2,0,P|141:260|101:238,1,85.4999977169037,2|4,0:2|0:3,0:0:0:0:
275,85,109963,1,10,0:2:0:0:
148,150,110143,1,2,0:2:0:0:
324,252,110323,1,2,3:2:0:0:
166,132,110502,1,2,0:3:0:0:
362,14,110682,2,0,B|390:45|390:45|382:91,1,85.4999977169037,2|2,0:2|0:3,0:0:0:0:
254,217,111041,1,2,3:2:0:0:
294,67,111221,1,4,0:3:0:0:
388,282,111400,6,0,P|437:265|479:235,1,85.4999977169037,10|0,0:2|0:0,0:0:0:0:
307,163,111760,2,0,P|274:143|239:135,1,42.7499988584519,2|0,3:2|0:0,0:0:0:0:
398,263,111939,2,0,P|418:256|436:245,1,42.7499988584519,0|0,3:0|0:0,0:0:0:0:
188,152,112119,6,0,B|211:239|218:210|240:322,1,170.999995433807,2|0,3:2|0:0,0:0:0:0:
75,373,112658,1,4,0:3:0:0:
151,282,112838,2,0,P|106:258|65:251,1,85.4999977169037,8|0,0:2|0:0,0:0:0:0:
0,87,113197,1,2,3:2:0:0:
109,180,113377,6,0,B|209:154|155:121|274:102,1,170.999995433807,2|2,0:3|0:3,0:0:0:0:
60,16,113915,2,0,P|120:40|148:48,1,85.4999977169037,0|4,3:0|0:3,0:0:0:0:
268,273,114275,2,0,P|258:209|251:180,1,85.4999977169037,10|0,0:2|0:0,0:0:0:0:
406,117,114634,2,0,P|336:145|315:179,1,85.4999977169037,2|0,3:2|0:0,0:0:0:0:
196,306,114993,5,2,0:2:0:0:
315,342,116430,5,2,0:2:0:0:
256,192,117868,5,4,0:3:0:0:
256,192,122179,12,0,123526,0:0:0:0:
456,74,123616,6,0,B|493:58|499:32|499:32|426:-6|349:74,1,198.000006042481,4|2,3:2|0:2,0:0:0:0:
318,172,124155,1,4,0:3:0:0:
210,0,124335,1,8,0:2:0:0:
210,0,124514,1,0,0:0:0:0:
285,64,124694,5,2,3:2:0:0:
67,165,124874,1,2,0:3:0:0:
197,268,125053,2,0,P|174:204|135:170,1,99.0000030212403,2|2,0:2|0:3,0:0:0:0:
4,40,125412,2,0,P|42:70|89:83,1,99.0000030212403,2|4,3:2|0:3,0:0:0:0:
305,5,125772,2,0,P|256:50|225:135,1,148.50000453186,10|0,0:2|0:0,0:0:0:0:
261,159,126131,2,0,P|304:140|360:130,1,99.0000030212403,2|0,3:2|0:0,0:0:0:0:
505,202,126490,5,0,3:0:0:0:
414,65,126670,1,0,0:0:0:0:
346,267,126850,1,2,0:2:0:0:
346,267,127029,1,4,0:3:0:0:
512,90,127209,2,0,P|492:135|483:183,1,99.0000030212403,8|0,0:2|0:0,0:0:0:0:
274,236,127568,5,2,3:2:0:0:
399,166,127748,1,2,0:3:0:0:
315,366,127927,2,0,P|266:343|195:329,1,99.0000030212403,2|2,0:2|0:3,0:0:0:0:
56,239,128287,2,0,P|103:226|148:205,1,99.0000030212403,2|4,3:2|0:3,0:0:0:0:
225,29,128646,2,0,B|241:113|251:96|267:170,1,148.50000453186,10|0,0:2|0:0,0:0:0:0:
330,197,129005,6,0,P|358:182|379:164,1,49.5000015106202,2|0,3:2|0:0,0:0:0:0:
234,256,129185,2,0,P|232:287|238:314,1,49.5000015106202,0|0,3:0|0:0,0:0:0:0:
168,122,129365,6,0,B|150:100|150:100|61:76,1,99.0000030212403,0|2,3:0|0:2,0:0:0:0:
12,181,129724,1,2,0:2:0:0:
181,32,129903,1,2,0:2:0:0:
80,230,130083,2,0,P|101:295|107:343,1,99.0000030212403,8|0,0:2|0:0,0:0:0:0:
227,192,130442,5,2,3:2:0:0:
85,343,130622,1,2,0:3:0:0:
310,295,130802,1,2,0:2:0:0:
168,243,130981,1,2,0:3:0:0:
380,369,131161,2,0,P|391:321|411:276,1,99.0000030212403,2|0,3:2|0:0,0:0:0:0:
235,45,131520,2,0,P|289:94|299:183,1,148.50000453186,10|0,0:2|0:0,0:0:0:0:
338,201,131880,2,0,P|389:184|455:148,1,99.0000030212403,2|0,3:2|0:0,0:0:0:0:
181,98,132239,5,0,3:0:0:0:
268,227,132418,1,2,0:2:0:0:
380,58,132598,2,0,P|431:75|497:111,1,99.0000030212403,2|0,0:2|0:0,0:0:0:0:
256,251,132957,2,0,P|211:272|164:287,1,99.0000030212403,8|0,0:2|0:0,0:0:0:0:
313,131,133317,5,2,3:2:0:0:
389,337,133496,1,2,0:3:0:0:
451,225,133676,1,2,0:2:0:0:
309,383,133856,1,2,0:3:0:0:
172,186,134035,2,0,P|127:158|65:167,1,99.0000030212403,2|0,3:2|0:0,0:0:0:0:
277,270,134395,2,0,P|323:245|346:186,1,99.0000030212403,10|0,0:2|0:0,0:0:0:0:
163,4,134754,6,0,P|173:45|176:88,1,49.5000015106202,2|0,3:2|0:0,0:0:0:0:
262,175,134933,2,0,P|266:150|273:126,1,49.5000015106202,0|0,3:0|0:0,0:0:0:0:
447,21,135113,6,0,B|485:60|485:60|460:164,1,148.50000453186,0|0,3:0|0:0,0:0:0:0:
431,189,135472,2,0,P|478:216|519:252,1,99.0000030212403,2|0,0:2|0:0,0:0:0:0:
316,136,135832,2,0,P|363:109|404:73,1,99.0000030212403,8|0,0:2|0:0,0:0:0:0:
254,255,136191,5,2,3:2:0:0:
161,135,136371,1,2,0:3:0:0:
332,215,136550,1,2,0:2:0:0:
124,326,136730,1,2,0:3:0:0:
214,62,136909,2,0,B|226:105|226:105|231:109|231:109|247:177,1,99.0000030212403,2|0,3:2|0:0,0:0:0:0:
59,248,137269,2,0,B|71:205|71:205|76:201|76:201|92:133,1,99.0000030212403,10|0,0:2|0:0,0:0:0:0:
236,353,137628,2,0,P|184:318|122:318,1,99.0000030212403,2|0,3:2|0:0,0:0:0:0:
385,177,137987,5,0,0:0:0:0:
296,202,138167,1,2,0:2:0:0:
393,163,138347,2,0,B|449:159|472:208|472:208|446:206|423:185,1,144,2|8,0:2|0:2,0:0:0:0:
262,54,139065,5,2,0:2:0:0:
240,147,139245,1,2,0:2:0:0:
352,16,139424,2,0,P|378:56|416:72,1,72,2|0,0:2|0:0,0:0:0:0:
440,158,139784,2,0,P|480:132|496:94,1,72,2|0,0:2|0:0,0:0:0:0:
341,145,140143,2,0,P|343:192|368:225,1,72,10|0,0:2|0:0,0:0:0:0:
459,299,140502,2,0,P|428:263|438:309,1,126,2|0,0:2|0:0,0:0:0:0:
441,285,140862,6,0,B|360:290|324:373|324:373|309:236|199:218|199:218|204:270|270:292,1,472.499985580445,2|0,0:2|0:0,0:0:0:0:
229,362,143736,6,0,B|179:350|149:312|154:311|126:269|73:261,1,188.999994232178,2|0,0:2|0:0,0:0:0:0:
204,97,145532,6,0,P|241:114|266:139,1,67.5000025749208,2|0,0:2|0:0,0:0:0:0:
157,163,145892,2,0,B|172:81|156:96|174:18,1,135.000005149842,2|0,0:2|0:0,0:0:0:0:
87,100,146430,1,2,0:2:0:0:
199,264,146610,6,0,P|234:227|361:230,1,170.999995433807,6|0,3:2|0:0,0:0:0:0:
406,315,147149,1,4,0:3:0:0:
512,194,147329,2,0,P|470:244|463:281,1,85.4999977169037,10|0,0:2|0:0,0:0:0:0:
344,359,147688,1,0,3:0:0:0:
224,255,147868,6,0,P|263:268|311:289,1,85.4999977169037,2|0,0:3|0:0,0:0:0:0:
288,177,148227,1,2,0:3:0:0:
181,338,148406,2,0,P|141:354|101:368,1,85.4999977169037,0|4,3:0|0:3,0:0:0:0:
8,264,148766,1,8,0:2:0:0:
79,287,148945,1,0,0:0:0:0:
175,182,149125,1,0,3:0:0:0:
31,345,149305,1,2,0:2:0:0:
31,345,149395,1,2,0:2:0:0:
31,345,149484,6,0,B|51:241|51:241|88:229|113:196,1,170.999995433807,2|0,3:2|0:0,0:0:0:0:
0,58,150023,1,4,0:3:0:0:
152,110,150203,2,0,B|191:99|191:99|193:95|193:95|237:83,1,85.4999977169037,8|0,0:2|0:0,0:0:0:0:
166,16,150562,1,0,3:0:0:0:
259,154,150742,5,2,0:3:0:0:
330,82,150921,1,2,0:2:0:0:
253,180,151101,1,2,0:3:0:0:
133,93,151281,2,0,P|89:68|50:68,1,85.4999977169037,0|4,3:0|0:3,0:0:0:0:
3,262,151640,6,0,P|64:244|144:230,1,128.249996575356,10|0,0:2|0:0,0:0:0:0:
165,289,151999,2,0,P|154:328|149:366,2,56.9999984779358,2|2|2,3:0|0:3|0:3,0:0:0:0:
235,154,152359,6,0,P|258:224|374:265,1,170.999995433807,2|0,3:2|0:0,0:0:0:0:
415,178,152897,1,0,0:0:0:0:
484,337,153077,2,0,P|425:346|382:367,1,85.4999977169037,8|0,0:2|0:0,0:0:0:0:
512,228,153436,1,0,3:0:0:0:
375,79,153616,6,0,P|375:117|407:166,1,85.4999977169037,2|0,0:3|0:0,0:0:0:0:
487,93,153975,1,2,0:3:0:0:
350,0,154155,2,0,P|317:19|290:71,1,85.4999977169037,0|0,3:0|0:0,0:0:0:0:
159,202,154514,6,0,B|101:220|101:220|96:217|96:217|11:241,1,128.249996575356,10|0,0:2|0:0,0:0:0:0:
6,265,154874,2,0,P|38:284|65:336,1,85.4999977169037,0|0,3:0|0:0,0:0:0:0:
250,226,155233,6,0,P|203:307|197:399,1,170.999995433807,2|0,3:2|0:0,0:0:0:0:
306,287,155772,1,0,0:0:0:0:
172,177,155951,2,0,P|126:152|68:141,1,85.4999977169037,8|0,0:2|0:0,0:0:0:0:
238,55,156311,1,0,3:0:0:0:
331,210,156490,6,0,P|351:150|374:112,1,85.4999977169037,2|0,0:3|0:0,0:0:0:0:
263,43,156850,1,2,0:3:0:0:
461,140,157029,2,0,P|441:80|418:42,1,85.4999977169037,0|2,3:0|0:2,0:0:0:0:
319,287,157389,6,0,B|359:299|402:260|388:247|431:211|490:233,1,170.999995433807,10|0,0:2|3:0,0:0:0:0:
345,375,157927,1,2,3:2:0:0:
241,155,158107,6,0,B|197:190|197:190|225:318,1,170.999995433807,2|2,3:2|0:2,0:0:0:0:
302,207,158646,1,0,0:0:0:0:
169,92,158826,2,0,P|230:72|261:51,1,85.4999977169037,8|0,0:2|0:0,0:0:0:0:
143,164,159185,1,0,3:0:0:0:
75,80,159365,5,2,0:3:0:0:
2,233,159544,1,0,0:0:0:0:
46,171,159724,1,2,0:3:0:0:
129,299,159903,2,0,P|171:321|213:323,1,85.4999977169037,0|0,3:0|0:0,0:0:0:0:
275,196,160263,2,0,P|232:200|195:220,1,85.4999977169037,8|0,0:2|0:0,0:0:0:0:
12,303,160622,1,2,3:2:0:0:
120,174,160802,1,2,0:2:0:0:
255,267,160981,5,2,0:2:0:0:
256,192,161597,5,2,0:2:0:0:
257,117,162658,5,2,0:2:0:0:
256,192,163856,5,6,0:2:0:0:
