osu file format v14

[General]
AudioFilename: audio.mp3
AudioLeadIn: 0
PreviewTime: 13149
Countdown: 0
SampleSet: Soft
StackLeniency: 0.7
Mode: 0
LetterboxInBreaks: 0
WidescreenStoryboard: 0

[Editor]
DistanceSpacing: 1
BeatDivisor: 4
GridSize: 16
TimelineZoom: 1.7

[Metadata]
Title:Angry Nu Metal Trailer No3
TitleUnicode:Angry Nu Metal Trailer No3
Artist:Johnny Berglund
ArtistUnicode:Johnny Berglund
Creator:NeKroMan4ik
Version:wenect's Insane
Source:
Tags:instrumental wenect Unranked Mapper _tranquility Fall
BeatmapID:2145650
BeatmapSetID:1025944

[Difficulty]
HPDrainRate:5
CircleSize:3.8
OverallDifficulty:8.5
ApproachRate:9
SliderMultiplier:1.4
SliderTickRate:2

[Events]
//Background and Video events
0,0,"2HI8SQo.jpg",0,0
//Break Periods
//Storyboard Layer 0 (Background)
//Storyboard Layer 1 (Fail)
//Storyboard Layer 2 (Pass)
//Storyboard Layer 3 (Foreground)
//Storyboard Layer 4 (Overlay)
//Storyboard Sound Samples

[TimingPoints]
24,300,4,2,1,40,1,0
3624,-250,4,2,1,40,0,0
3699,-250,4,2,1,5,0,0
4824,-250,4,2,1,40,0,0
8499,-250,4,2,1,5,0,0
9624,-125,4,2,1,40,0,0
12024,-125,4,2,1,30,0,0
13224,-100,4,2,1,40,0,0
24024,-83.3333333333333,4,2,1,50,0,1
27624,500,4,2,1,40,1,0
27624,-100,4,2,1,40,0,0
27707,-100,4,2,1,5,0,0
29623,-74.0740740740741,4,2,1,40,0,0
30123,-74.0740740740741,4,2,1,10,0,0

[Colours]
Combo1 : 176,133,79
Combo2 : 144,144,144
Combo3 : 111,65,55
Combo4 : 165,114,105

[HitObjects]
435,77,24,5,4,1:2:0:0:
432,86,1224,1,4,1:2:0:0:
429,95,2424,1,4,1:2:0:0:
426,104,3624,2,0,B|325:141|335:59|223:94,1,210,4|0,1:2|0:0,0:0:0:0:
220,102,4824,5,4,1:2:0:0:
223,111,6024,1,4,1:2:0:0:
226,120,7224,1,4,1:2:0:0:
229,129,8424,2,0,B|330:166|320:84|432:119,1,210,4|0,1:2|0:0,0:0:0:0:
434,127,9624,5,4,1:2:0:0:
381,218,9774,1,0,1:0:0:0:
384,227,9849,1,0,1:0:0:0:
387,235,9924,2,0,P|413:244|447:245,1,56,0|0,1:0|1:0,0:0:0:0:
512,344,10224,2,0,L|484:343,2,28,4|0|0,1:2|1:0|1:0,0:0:0:0:
406,320,10524,2,0,L|378:320,2,28,0|0|0,1:0|1:0|1:0,0:0:0:0:
496,184,10824,5,4,1:2:0:0:
499,175,12024,6,0,L|471:176,3,28,4|0|0|0,3:0|3:0|3:0|3:0,0:0:0:0:
393,199,12324,2,0,L|365:199,3,28,4|0|0|0,3:0|3:0|3:0|3:0,0:0:0:0:
294,240,12624,1,4,3:0:0:0:
266,240,12699,1,0,3:0:0:0:
238,240,12774,1,0,3:0:0:0:
210,240,12849,1,0,3:0:0:0:
189,261,12924,1,4,3:0:0:0:
170,261,12999,1,0,3:0:0:0:
151,261,13074,1,0,3:0:0:0:
133,261,13149,1,0,3:0:0:0:
108,274,13224,6,0,L|99:178,2,70,6|0|0,1:2|1:0|0:0,0:0:0:0:
161,353,13674,1,0,1:0:0:0:
92,126,13824,2,0,L|98:195,1,70,12|0,0:0|1:0,0:0:0:0:
177,198,14049,1,0,1:0:0:0:
180,189,14124,2,0,L|173:119,1,70,0|0,1:0|1:0,0:0:0:0:
264,39,14424,5,4,1:2:0:0:
358,48,14574,1,0,1:0:0:0:
349,142,14724,1,0,1:0:0:0:
254,133,14874,1,0,1:0:0:0:
438,104,15024,1,12,0:2:0:0:
347,238,15174,1,0,1:0:0:0:
344,229,15249,1,0,1:0:0:0:
341,220,15324,2,0,P|341:185|352:151,1,70,0|0,1:0|1:0,0:0:0:0:
496,178,15624,6,0,P|495:212|484:246,2,70,6|0|0,1:2|1:0|0:0,0:0:0:0:
430,111,16074,1,0,1:0:0:0:
493,323,16224,2,0,P|482:289|481:254,1,70,12|0,0:2|1:0,0:0:0:0:
416,206,16449,1,0,1:0:0:0:
413,215,16524,1,0,1:0:0:0:
323,247,16674,1,0,1:0:0:0:
225,175,16824,5,4,1:2:0:0:
233,256,16974,1,0,1:0:0:0:
242,259,17049,1,0,1:0:0:0:
251,262,17124,2,0,L|320:256,1,70,0|0,1:0|1:0,0:0:0:0:
154,240,17424,2,0,L|85:234,1,70,12|0,0:2|1:0,0:0:0:0:
47,160,17724,1,0,1:0:0:0:
56,157,17799,1,0,1:0:0:0:
65,154,17874,1,0,1:0:0:0:
51,308,18024,6,0,P|25:284|7:254,2,70,6|0|0,1:2|1:0|1:0,0:0:0:0:
145,323,18474,1,0,1:0:0:0:
323,247,18624,2,0,L|254:253,1,70,12|0,0:2|1:0,0:0:0:0:
220,186,18849,1,0,1:0:0:0:
223,177,18924,2,0,P|246:151|276:133,1,70,0|0,1:0|1:0,0:0:0:0:
388,178,19224,5,4,1:2:0:0:
478,146,19374,1,0,1:0:0:0:
446,56,19524,1,0,1:0:0:0:
356,88,19674,1,0,1:0:0:0:
461,242,19824,1,12,0:2:0:0:
309,199,19974,1,0,1:0:0:0:
312,190,20049,1,0,1:0:0:0:
315,181,20124,2,0,L|384:187,1,70,0|0,1:0|1:0,0:0:0:0:
373,346,20424,6,0,L|304:340,2,70,6|0|0,1:2|1:0|1:0,0:0:0:0:
465,325,20874,1,0,1:0:0:0:
225,343,21024,2,0,L|294:337,1,70,12|0,0:2|1:0,0:0:0:0:
343,270,21249,1,0,1:0:0:0:
334,267,21324,1,0,1:0:0:0:
245,236,21474,1,0,1:0:0:0:
347,107,21624,5,4,1:2:0:0:
344,116,22224,1,4,0:0:0:0:
341,125,22824,1,6,0:0:0:0:
338,134,23424,1,4,0:0:0:0:
335,143,24024,5,14,0:2:0:0:
191,84,24174,1,0,1:0:0:0:
194,75,24249,1,0,1:0:0:0:
197,66,24324,2,0,B|236:55|236:55|278:62,1,83.9999974365235,14|0,0:2|1:0,0:0:0:0:
426,27,24624,1,14,0:2:0:0:
423,18,24699,1,0,1:0:0:0:
420,9,24774,1,0,1:0:0:0:
511,134,24924,2,0,B|472:123|472:123|429:130,1,83.9999974365235,14|0,0:2|1:0,0:0:0:0:
306,245,25224,6,0,L|201:237,1,83.9999974365235,14|0,0:2|1:0,0:0:0:0:
228,153,25449,1,0,1:0:0:0:
231,144,25524,2,0,L|314:150,1,83.9999974365235,14|0,0:2|1:0,0:0:0:0:
439,251,25824,1,14,0:2:0:0:
436,242,25899,1,0,1:0:0:0:
433,233,25974,1,0,1:0:0:0:
300,339,26124,2,0,L|216:332,1,83.9999974365235,14|0,0:2|1:0,0:0:0:0:
72,205,26424,6,0,P|110:191|157:195,1,83.9999974365235,14|0,0:2|1:0,0:0:0:0:
225,242,26649,1,0,1:0:0:0:
228,251,26724,2,0,P|214:289|218:336,1,83.9999974365235,14|0,0:2|1:0,0:0:0:0:
156,184,27024,1,14,0:2:0:0:
159,175,27099,1,0,1:0:0:0:
162,166,27174,1,0,1:0:0:0:
334,265,27324,2,0,P|336:306|322:345,1,83.9999974365235,14|0,0:2|1:0,0:0:0:0:
436,199,27624,6,0,B|263:104|361:288|47:122|266:-51|501:88|282:238|217:243,1,489.999985046387,14|0,0:2|0:0,0:0:0:0:
35,255,29624,6,0,B|132:285|119:208|218:239,1,188.999994232178,4|0,1:2|0:0,0:0:0:0:
