osu file format v14

[General]
AudioFilename: audio.mp3
AudioLeadIn: 0
PreviewTime: 13149
Countdown: 0
SampleSet: Soft
StackLeniency: 0.7
Mode: 0
LetterboxInBreaks: 0
WidescreenStoryboard: 0

[Editor]
DistanceSpacing: 1.4
BeatDivisor: 4
GridSize: 16
TimelineZoom: 1.7

[Metadata]
Title:Angry Nu Metal Trailer No3
TitleUnicode:Angry Nu Metal Trailer No3
Artist:Johnny Berglund
ArtistUnicode:Johnny Berglund
Creator:NeKroMan4ik
Version:Hard
Source:
Tags:instrumental wenect Unranked Mapper _tranquility Fall
BeatmapID:2145647
BeatmapSetID:1025944

[Difficulty]
HPDrainRate:4
CircleSize:3.6
OverallDifficulty:7
ApproachRate:8
SliderMultiplier:1.3
SliderTickRate:2

[Events]
//Background and Video events
0,0,"2HI8SQo.jpg",0,0
//Break Periods
//Storyboard Layer 0 (Background)
//Storyboard Layer 1 (Fail)
//Storyboard Layer 2 (Pass)
//Storyboard Layer 3 (Foreground)
//Storyboard Layer 4 (Overlay)
//Storyboard Sound Samples

[TimingPoints]
24,300,4,2,1,40,1,0
24,-200,4,2,1,40,0,0
3699,-200,4,2,1,5,0,0
4824,-200,4,2,1,40,0,0
8499,-200,4,2,1,5,0,0
9624,-111.111111111111,4,2,1,40,0,0
13224,-100,4,2,1,40,0,0
24024,-90.9090909090909,4,2,1,50,0,1
27624,500,4,2,1,40,1,0
29374,-90.9090909090909,4,2,1,30,0,0
29624,-90.9090909090909,4,2,1,40,0,0
30123,-90.9090909090909,4,2,1,10,0,0

[Colours]
Combo1 : 176,133,79
Combo2 : 144,144,144
Combo3 : 111,65,55
Combo4 : 165,114,105

[HitObjects]
50,152,24,5,4,1:2:0:0:
160,262,1224,1,4,1:2:0:0:
271,151,2424,1,4,1:2:0:0:
382,261,3624,2,0,B|418:201|388:136|388:136|360:70|394:3,1,260,4|4,1:2|1:2,0:0:0:0:
281,122,6024,5,4,1:2:0:0:
169,12,7224,1,4,1:2:0:0:
60,124,8424,2,0,B|109:167|109:167|37:236|58:324,1,227.5,4|0,1:2|0:0,0:0:0:0:
128,372,9624,5,4,1:2:0:0:
188,300,9774,2,0,L|194:263,2,29.2499991073609,0|0|0,1:0|1:0|1:0,0:0:0:0:
251,369,10074,1,0,1:0:0:0:
316,301,10224,2,0,L|310:264,2,29.2499991073609,4|0|0,1:2|1:0|1:0,0:0:0:0:
392,355,10524,2,0,L|387:387,2,29.2499991073609,0|0|0,1:0|1:0|1:0,0:0:0:0:
455,286,10824,5,4,1:2:0:0:
455,286,12024,6,0,L|460:248,3,29.2499991073609,4|0|0|0,3:0|3:0|3:0|3:0,0:0:0:0:
433,216,12324,2,0,L|428:178,3,29.2499991073609,4|0|0|0,3:0|3:0|3:0|3:0,0:0:0:0:
450,144,12624,2,0,L|455:106,3,29.2499991073609,4|0|0|0,3:0|3:0|3:0|3:0,0:0:0:0:
421,80,12924,2,0,L|416:42,3,29.2499991073609,4|0|0|0,3:0|3:0|3:0|3:0,0:0:0:0:
382,21,13224,6,0,P|341:5|301:8,2,65,6|0|0,1:2|1:0|0:0,0:0:0:0:
336,99,13674,2,0,L|326:178,1,65,0|12,1:0|0:0,0:0:0:0:
261,226,13974,1,0,1:0:0:0:
261,226,14049,1,0,1:0:0:0:
261,226,14124,2,0,L|271:305,1,65,0|0,1:0|1:0,0:0:0:0:
219,367,14424,6,0,P|187:370|155:365,1,65,4|0,1:2|1:0,0:0:0:0:
86,303,14724,1,0,1:0:0:0:
124,220,14874,1,0,1:0:0:0:
68,148,15024,2,0,P|73:115|77:83,1,65,12|0,0:2|1:0,0:0:0:0:
106,48,15249,1,0,1:0:0:0:
106,48,15324,2,0,P|141:42|187:37,1,65,0|0,1:0|1:0,0:0:0:0:
244,91,15624,6,0,P|276:96|308:100,2,65,6|0|0,1:2|1:0|0:0,0:0:0:0:
161,129,16074,2,0,P|175:172|179:218,1,65,0|12,1:0|0:2,0:0:0:0:
223,271,16374,1,0,1:0:0:0:
223,271,16449,1,0,1:0:0:0:
223,271,16524,2,0,P|266:285|312:289,1,65,0|0,1:0|1:0,0:0:0:0:
361,236,16824,6,0,P|404:222|450:218,1,65,4|0,1:2|1:0,0:0:0:0:
463,241,17049,1,0,1:0:0:0:
463,241,17124,1,0,1:0:0:0:
505,160,17274,1,0,1:0:0:0:
441,95,17424,2,0,P|409:89|378:78,1,65,12|0,0:2|1:0,0:0:0:0:
299,32,17724,2,0,P|296:16|290:0,2,32.5,0|0|0,1:0|1:0|1:0,0:0:0:0:
298,123,18024,6,0,P|273:144|252:168,2,65,6|0|0,1:2|1:0|1:0,0:0:0:0:
378,78,18474,2,0,L|387:154,1,65,0|12,1:0|0:2,0:0:0:0:
455,200,18774,1,0,1:0:0:0:
455,200,18849,1,0,1:0:0:0:
455,200,18924,2,0,L|446:276,1,65,0|0,1:0|1:0,0:0:0:0:
392,336,19224,6,0,P|355:345|318:344,1,65,4|0,1:2|1:0,0:0:0:0:
256,287,19524,1,0,1:0:0:0:
182,340,19674,1,0,1:0:0:0:
109,284,19824,2,0,P|72:275|35:276,1,65,12|0,0:2|1:0,0:0:0:0:
8,247,20049,1,0,1:0:0:0:
8,247,20124,2,0,P|-1:210|0:173,1,65,0|0,1:0|1:0,0:0:0:0:
59,114,20424,6,0,P|68:77|67:40,2,65,6|0|0,1:2|1:0|1:0,0:0:0:0:
121,180,20874,2,0,L|200:170,1,65,0|12,1:0|0:2,0:0:0:0:
260,119,21174,1,0,1:0:0:0:
260,119,21249,1,0,1:0:0:0:
260,119,21324,2,0,L|339:129,1,65,0|0,1:0|1:0,0:0:0:0:
393,187,21624,5,4,1:2:0:0:
393,187,22224,1,4,0:0:0:0:
393,187,22824,1,6,0:0:0:0:
393,187,23424,1,4,0:0:0:0:
393,187,24024,6,0,P|381:228|375:280,1,71.5000021820069,14|0,0:2|1:0,0:0:0:0:
344,294,24249,1,0,1:0:0:0:
344,294,24324,1,14,0:2:0:0:
257,344,24474,1,0,1:0:0:0:
182,277,24624,2,0,L|187:229,2,35.7500010910034,14|0|0,0:2|1:0|1:0,0:0:0:0:
99,332,24924,2,0,P|63:329|28:323,1,71.5000021820069,14|0,0:2|1:0,0:0:0:0:
8,224,25224,6,0,L|-1:153,1,71.5000021820069,14|0,0:2|1:0,0:0:0:0:
29,113,25449,1,0,1:0:0:0:
29,113,25524,1,14,0:0:0:0:
121,151,25674,1,0,1:0:0:0:
210,105,25824,2,0,L|216:65,2,35.7500010910034,14|0|0,0:2|1:0|1:0,0:0:0:0:
269,186,26124,2,0,L|277:285,1,71.5000021820069,14|0,0:2|1:0,0:0:0:0:
345,328,26424,6,0,P|379:337|415:335,1,71.5000021820069,14|0,0:2|1:0,0:0:0:0:
456,305,26649,1,0,1:0:0:0:
456,305,26724,1,14,0:0:0:0:
411,215,26874,1,0,1:0:0:0:
463,129,27024,2,0,L|512:137,2,35.7500010910034,14|0|0,0:2|1:0|1:0,0:0:0:0:
397,52,27324,2,0,L|301:62,1,71.5000021820069,14|0,0:2|1:0,0:0:0:0:
250,125,27624,5,14,0:2:0:0:
256,192,27749,12,0,29124,0:0:0:0:
376,135,29624,6,0,L|392:277,1,143.000004364014,4|0,1:2|0:0,0:0:0:0:
