osu file format v14

[General]
AudioFilename: audio.mp3
AudioLeadIn: 0
PreviewTime: -1
Countdown: 1
SampleSet: Normal
StackLeniency: 0.7
Mode: 0
LetterboxInBreaks: 0
WidescreenStoryboard: 0

[Editor]
DistanceSpacing: 0.8
BeatDivisor: 4
GridSize: 4
TimelineZoom: 1

[Metadata]
Title:Hils Paa Mig ft. Guld Dennis
TitleUnicode:Hils På Mig ft. Guld Dennis
Artist:Johnni Gade
ArtistUnicode:Johnni Gade
Creator:Taoshi
Version:Easy
Source:
Tags:Dansk Danish Johnni Gade Guld Dennis
BeatmapID:1456629
BeatmapSetID:688301

[Difficulty]
HPDrainRate:2
CircleSize:3
OverallDifficulty:2
ApproachRate:2
SliderMultiplier:1.00000000596046
SliderTickRate:1

[Events]
//Background and Video events
//Break Periods
//Storyboard Layer 0 (Background)
//Storyboard Layer 1 (Fail)
//Storyboard Layer 2 (Pass)
//Storyboard Layer 3 (Foreground)
//Storyboard Sound Samples

[TimingPoints]
709,588.235294117647,4,1,0,100,1,0
11399,588.235294117647,4,1,0,100,1,0

[HitObjects]
120,172,709,6,0,P|136:220|152:200,1,100.000000596046
244,208,1885,2,0,P|248:176|192:148,1,100.000000596046
140,132,3061,1,0,0:0:0:0:
200,152,3650,2,0,B|288:152|288:152|304:140,1,100.000000596046
336,164,4826,1,0,0:0:0:0:
152,184,5414,1,0,0:0:0:0:
352,224,6003,1,0,0:0:0:0:
84,176,6591,1,0,0:0:0:0:
328,204,7179,1,0,0:0:0:0:
104,188,7767,1,0,0:0:0:0:
336,192,8356,1,0,0:0:0:0:
80,192,8944,1,0,0:0:0:0:
316,216,9532,1,0,0:0:0:0:
72,196,10120,1,0,0:0:0:0:
232,228,11987,1,0,0:0:0:0:
4,200,12575,1,0,0:0:0:0:
324,232,13163,1,0,0:0:0:0:
36,212,13751,1,0,0:0:0:0:
364,236,14340,1,0,0:0:0:0:
48,208,14928,1,0,0:0:0:0:
392,264,15516,1,0,0:0:0:0:
64,228,16104,1,0,0:0:0:0:
256,192,17575,12,0,18899,0:0:0:0:
160,180,20222,6,0,P|276:180|160:184,18,350.000002086161
380,176,57722,2,0,B|232:68|88:248|360:260|360:256,3,350.000002086161
300,228,64781,1,0,0:0:0:0:
68,208,65369,1,0,0:0:0:0:
256,192,65957,12,0,68751,0:0:0:0:
88,152,69487,5,0,0:0:0:0:
168,144,70222,1,0,0:0:0:0:
280,152,70810,1,0,0:0:0:0:
348,168,71399,1,0,0:0:0:0:
396,220,71987,1,0,0:0:0:0:
416,288,72575,1,0,0:0:0:0:
356,296,73163,1,0,0:0:0:0:
256,296,73751,1,0,0:0:0:0:
144,292,74340,1,0,0:0:0:0:
48,260,74928,1,0,0:0:0:0:
48,160,75516,1,0,0:0:0:0:
128,76,76104,1,0,0:0:0:0:
236,64,76693,1,0,0:0:0:0:
352,56,77281,1,0,0:0:0:0:
480,92,77869,1,0,0:0:0:0:
448,192,78604,1,0,0:0:0:0:
424,288,79046,1,0,0:0:0:0:
320,308,79634,1,0,0:0:0:0:
184,272,80222,1,0,0:0:0:0:
16,224,80957,1,0,0:0:0:0:
92,64,81399,1,0,0:0:0:0:
288,192,81987,1,0,0:0:0:0:
132,296,82722,1,0,0:0:0:0:
72,144,83310,1,0,0:0:0:0:
200,72,83751,1,0,0:0:0:0:
240,212,84340,1,0,0:0:0:0:
96,320,84928,1,0,0:0:0:0:
112,188,86104,2,0,B|408:180|400:176,2,275.000001639126
104,200,92722,1,0,0:0:0:0:
280,252,93457,1,0,0:0:0:0:
76,200,94046,1,0,0:0:0:0:
332,208,94487,1,0,0:0:0:0:
160,196,95222,1,0,0:0:0:0:
196,252,95810,1,0,0:0:0:0:
284,160,96399,1,0,0:0:0:0:
284,160,96987,1,0,0:0:0:0:
284,160,97575,1,0,0:0:0:0:
284,160,98163,1,0,0:0:0:0:
284,160,98751,1,0,0:0:0:0:
284,160,99340,1,0,0:0:0:0:
284,160,99928,1,0,0:0:0:0:
284,160,100516,1,0,0:0:0:0:
284,160,101104,1,0,0:0:0:0:
284,160,101693,1,0,0:0:0:0:
284,160,102281,1,0,0:0:0:0:
136,120,103457,2,0,L|336:248,1,225.000001341103
208,176,105516,1,0,0:0:0:0:
316,184,106104,1,0,0:0:0:0:
152,216,107134,1,0,0:0:0:0:
212,180,107575,1,0,0:0:0:0:
244,192,108310,1,0,0:0:0:0:
132,168,109487,1,0,0:0:0:0:
120,240,110516,2,0,B|260:88|340:232|232:256,1,275.000001639126
88,160,112428,2,0,B|340:184|108:108|344:288|96:68|336:328|112:80|96:344|396:104|64:92|136:344|416:280|296:84|128:24|80:288|280:348|372:112|212:44|88:84|380:112|368:164,4,425.000002533195
56,196,123163,1,0,0:0:0:0:
316,152,123751,1,0,0:0:0:0:
264,304,124193,1,0,0:0:0:0:
96,204,124928,1,0,0:0:0:0:
232,136,125516,1,0,0:0:0:0:
112,288,126104,1,0,0:0:0:0:
224,244,126693,1,0,0:0:0:0:
200,148,127281,1,0,0:0:0:0:
136,216,127869,1,0,0:0:0:0:
124,304,128457,1,0,0:0:0:0:
260,292,129046,1,0,0:0:0:0:
360,272,129634,1,0,0:0:0:0:
296,152,130222,1,0,0:0:0:0:
112,216,130810,1,0,0:0:0:0:
72,324,131399,1,0,0:0:0:0:
104,208,131987,2,0,B|380:204|184:64|208:72,2,250.000001490115
152,232,135516,1,0,0:0:0:0:
360,232,136104,1,0,0:0:0:0:
32,208,136693,1,0,0:0:0:0:
336,224,137428,1,0,0:0:0:0:
108,192,138016,1,0,0:0:0:0:
396,244,138604,1,0,0:0:0:0:
124,228,139046,1,0,0:0:0:0:
384,264,139781,1,0,0:0:0:0:
152,208,140222,1,0,0:0:0:0:
240,172,140957,1,0,0:0:0:0:
368,152,141546,1,0,0:0:0:0:
296,284,142134,1,0,0:0:0:0:
104,272,142722,1,0,0:0:0:0:
112,112,143310,1,0,0:0:0:0:
380,56,143899,1,0,0:0:0:0:
380,292,144487,1,0,0:0:0:0:
80,304,145075,1,0,0:0:0:0:
112,32,145663,1,0,0:0:0:0:
456,68,146251,1,0,0:0:0:0:
452,344,146840,1,0,0:0:0:0:
40,328,147428,1,0,0:0:0:0:
72,72,148016,1,0,0:0:0:0:
412,112,148604,1,0,0:0:0:0:
416,348,149193,1,0,0:0:0:0:
40,336,149781,1,0,0:0:0:0:
96,72,150369,1,0,0:0:0:0:
432,100,150957,1,0,0:0:0:0:
408,344,151546,1,0,0:0:0:0:
60,280,152134,1,0,0:0:0:0:
256,192,153310,12,0,156399,0:0:0:0:
108,176,157575,6,0,L|392:200,1,275.000001639126
88,252,159928,2,0,L|272:148,2,200.000001192092
320,240,164046,2,0,L|132:128,3,200.000001192092
144,264,167722,2,0,L|236:152,1,125.000000745057
152,260,169781,1,0,0:0:0:0:
192,232,170369,1,0,0:0:0:0:
224,232,170663,1,0,0:0:0:0:
248,228,170957,1,0,0:0:0:0:
280,224,171251,1,0,0:0:0:0:
300,220,171399,1,0,0:0:0:0:
344,204,171693,1,0,0:0:0:0:
