osu file format v14

[General]
AudioFilename: Star Wars Episode IV Soundtrack - Cantina Band.mp3
AudioLeadIn: 0
PreviewTime: -1
Countdown: 0
SampleSet: Normal
StackLeniency: 0.7
Mode: 0
LetterboxInBreaks: 0
WidescreenStoryboard: 1

[Editor]
DistanceSpacing: 4.5
BeatDivisor: 4
GridSize: 4
TimelineZoom: 1

[Metadata]
Title:Star Wars Cantina
TitleUnicode:Star Wars Cantina
Artist:John Williams
ArtistUnicode:John Williams
Creator:Astarz
Version:Yvanhoe AR8
Source:Star Wars
Tags:Star Wars stupeflip tagada jones justin punk bar
BeatmapID:899205
BeatmapSetID:395259

[Difficulty]
HPDrainRate:4
CircleSize:3.8
OverallDifficulty:4
ApproachRate:8
SliderMultiplier:1.6
SliderTickRate:2

[Events]
//Background and Video events
0,0,"yvahnree.jpg",0,0
//Break Periods
//Storyboard Layer 0 (Background)
//Storyboard Layer 1 (Fail)
//Storyboard Layer 2 (Pass)
//Storyboard Layer 3 (Foreground)
//Storyboard Sound Samples

[TimingPoints]
240,458.015267175573,4,1,0,20,1,0
75583,-95.2380952380952,4,1,0,20,0,0
79133,-100,4,1,0,20,0,0
87949,454.545454545455,4,1,0,20,1,0
113403,-66.6666666666667,4,1,0,20,0,0
117039,-86.9565217391304,4,1,0,20,0,0
129767,-76.9230769230769,4,1,0,20,0,0
142608,-100,4,1,0,20,0,0
147721,-181.818181818182,4,1,0,20,0,0
149199,-100,4,1,0,20,0,0

[HitObjects]
364,168,240,5,2,0:0:0:0:
272,176,469,1,8,0:0:0:0:
308,104,698,1,8,0:0:0:0:
232,80,927,1,8,0:0:0:0:
156,52,1156,2,0,P|108:104|88:124,1,80
96,188,1614,2,0,P|128:228|168:248,1,80
264,248,2072,2,0,P|308:240|340:192,1,80
408,160,2530,6,0,P|332:108|248:144,1,160
128,164,3446,1,14,0:0:0:0:
104,64,3904,2,0,P|171:51|215:67,1,80
308,132,4362,2,0,P|272:172|228:176,1,80
124,148,4820,2,0,P|160:200|176:220,1,80
240,260,5278,1,0,0:0:0:0:
320,176,5736,6,2,L|376:144,2,40
260,160,6194,2,0,P|220:124|240:48,1,120
268,60,6766,1,0,0:0:0:0:
304,64,6881,1,0,0:0:0:0:
336,76,6995,1,0,0:0:0:0:
420,164,7339,1,14,0:0:0:0:
356,280,7568,5,0,0:0:0:0:
264,296,7797,1,0,0:0:0:0:
176,276,8026,1,0,0:0:0:0:
112,216,8255,2,0,L|140:124,1,80
200,64,8713,2,0,L|256:132,1,80
312,284,9400,2,0,P|288:304|216:344,1,80
180,296,9858,6,0,P|216:260|252:252,2,80
162,214,11232,2,0,P|121:165|121:137,1,80
120,152,11690,2,0,B|152:124|192:120|192:120|248:124,1,120
231,122,12148,2,0,P|276:140|308:180,1,80
298,162,12606,2,0,P|336:152|320:36,1,160
296,236,13293,5,0,0:0:0:0:
180,224,13522,1,0,0:0:0:0:
180,224,13751,1,0,0:0:0:0:
128,200,13980,2,4,P|108:184|104:140,1,60
316,172,15125,6,2,L|372:136,2,60.0000022888184
184,188,16041,2,2,L|124:140,2,60.0000022888184,14|2|2,0:0|0:0|0:0,0:0:0:0:
320,248,16957,5,0,0:0:0:0:
320,248,17186,2,0,P|368:224|376:192,1,80
380,60,17644,2,0,P|312:72|280:100,1,80
192,244,18102,1,0,0:0:0:0:
168,64,18789,6,2,L|124:80,3,40
368,56,19705,2,2,L|416:56,3,40
300,292,20621,2,0,P|232:272|264:176,1,160
272,112,21308,2,0,P|208:104|84:224,1,240
352,108,22453,2,2,L|400:60,3,40
172,248,23369,2,0,L|124:300,3,40
296,184,24285,5,0,0:0:0:0:
312,88,24514,1,0,0:0:0:0:
216,80,24743,2,0,P|156:104|140:124,1,80
128,228,25201,2,0,P|168:256|232:264,1,80
380,68,25888,6,0,L|376:112,1,40
316,116,26346,2,0,L|308:156,1,40
280,216,26690,2,0,P|240:256|188:252,1,80
128,256,27148,1,4,0:0:0:0:
72,88,27720,6,0,P|116:40|148:48,1,80
264,56,28178,2,0,P|308:68|356:76,1,80
476,120,28636,1,8,0:0:0:0:
120,104,29896,5,0,0:0:0:0:
180,272,30240,1,0,0:0:0:0:
336,172,30698,2,0,L|392:112,2,80
208,276,31385,1,0,0:0:0:0:
120,176,31843,2,0,P|108:132|128:88,2,80
292,196,32530,2,0,P|317:166|318:127,2,80
140,104,33217,5,0,0:0:0:0:
284,240,33675,2,0,P|280:192|232:172,1,80
168,108,34247,2,0,B|180:100|212:64|112:116,2,80
324,124,35049,5,0,0:0:0:0:
216,284,35507,1,0,0:0:0:0:
76,204,35965,1,0,0:0:0:0:
200,80,36423,1,0,0:0:0:0:
252,188,36881,6,2,B|216:196|236:168|192:184|236:132|148:176|224:96|112:156|184:92|144:88|376:84,1,320
369,84,38255,1,0,0:0:0:0:
112,128,38827,6,2,B|208:48|360:76|369:199|-132:76|-44:392|628:36|289:227|245:211|265:239|288:256,1,440
292,312,40659,6,2,B|336:264|256:280|352:196|408:200|344:140|232:192|124:288|112:188|148:120|252:120|348:104|256:80,1,440
392,88,42377,6,0,L|348:112,1,40
284,136,42720,2,0,L|228:140,1,40
172,152,43064,2,0,P|192:196|284:212,1,120
84,192,43980,5,2,0:0:0:0:
168,140,44209,1,8,0:0:0:0:
264,152,44438,1,8,0:0:0:0:
320,80,44667,1,8,0:0:0:0:
240,40,44896,2,0,P|192:92|172:112,1,80
120,176,45354,2,0,P|152:216|192:236,1,80
296,240,45812,2,0,P|392:232|396:232,2,80
84,288,46499,6,0,P|108:240|136:212,1,80
192,88,47186,1,4,0:0:0:0:
296,228,47644,1,0,0:0:0:0:
240,168,47873,1,0,0:0:0:0:
168,208,48102,1,0,0:0:0:0:
184,284,48331,1,0,0:0:0:0:
260,300,48560,1,0,0:0:0:0:
392,280,48789,2,0,P|356:244|384:196,1,80
256,188,49476,5,0,0:0:0:0:
256,188,49705,1,0,0:0:0:0:
128,132,50392,2,0,L|48:76,2,80
128,132,50965,1,0,0:0:0:0:
212,264,51308,5,0,0:0:0:0:
236,192,51537,1,0,0:0:0:0:
272,128,51766,1,0,0:0:0:0:
208,92,51995,1,0,0:0:0:0:
148,132,52224,1,0,0:0:0:0:
84,164,52453,2,0,P|104:212|156:244,1,80
256,188,53140,5,0,0:0:0:0:
256,188,53369,1,0,0:0:0:0:
120,80,53827,2,0,B|156:12|104:124|224:0|88:184|248:176,1,200
204,288,54972,6,0,P|256:280|300:248,1,80
344,192,55430,2,0,P|360:148|336:92,1,80
276,52,55888,2,0,P|220:48|164:64,1,80
104,112,56346,2,0,P|84:148|96:184,1,80
192,296,56804,1,6,0:0:0:0:
300,212,57033,1,6,0:0:0:0:
376,100,57262,1,6,0:0:0:0:
376,100,57377,2,14,P|332:100|324:68,1,80
160,168,58865,6,2,P|112:124|72:144,2,80
324,164,59781,2,2,B|361:154|368:68|380:120,2,80
188,304,60698,2,2,P|169:270|131:260,2,80
272,232,61385,2,0,P|320:208|336:172,1,80
352,88,61843,1,0,0:0:0:0:
76,56,62530,6,2,P|120:116|144:112,2,80
376,96,63446,2,2,P|424:84|444:132,2,80
256,260,64362,2,2,P|268:312|304:288,2,80
192,204,65049,2,0,B|224:180|164:184|260:160|152:156|240:144|280:148,1,120
364,128,66194,6,2,P|408:188|432:184,2,80
100,136,67110,6,2,P|67:114|60:76,2,80
188,276,68026,2,2,P|225:286|244:320,2,80
280,176,68713,2,0,P|328:152|344:116,1,80
400,56,69171,1,0,0:0:0:0:
128,272,69743,2,0,L|116:232,1,40
84,176,70201,2,0,L|68:136,1,40
200,88,70659,1,0,0:0:0:0:
200,88,70774,1,0,0:0:0:0:
200,88,70888,1,0,0:0:0:0:
120,76,71575,6,0,P|120:128|248:152,1,200
384,96,72377,1,4,0:0:0:0:
116,128,73293,6,0,P|156:184|180:208,1,80
192,268,73751,1,0,0:0:0:0:
364,212,74094,2,0,P|312:168|296:124,1,80
232,88,74552,2,0,P|176:136|140:136,2,80
356,36,75240,1,0,0:0:0:0:
408,152,75583,6,0,P|364:192|280:212,1,120
160,216,76270,2,0,P|104:200|88:152,1,80
92,72,76728,1,0,0:0:0:0:
200,104,77072,2,0,P|244:96|328:144,1,120
404,200,77759,1,0,0:0:0:0:
208,280,78213,2,0,P|236:316|264:340,2,80
60,120,78904,1,0,0:0:0:0:
132,192,79247,6,8,P|164:232|180:196,1,80
248,88,79705,2,8,P|280:60|324:104,1,80
368,240,80163,2,8,P|392:204|376:156,1,80
212,204,80965,6,6,B|120:200|88:160|40:168|176:84|176:84|192:148|208:136|328:80,1,440
372,264,82568,2,6,B|44:332|628:164|-4:308|592:128|36:260|536:116|136:176|432:148|196:160|300:92|204:16|56:196,1,520
100,80,84629,6,6,P|240:60|312:272,1,400
208,104,86232,2,0,L|136:160,1,80
108,200,86575,2,0,L|176:252,1,80
208,272,86919,2,0,P|256:272|304:224,1,120
87,168,87949,5,4,0:0:0:0:
87,168,88176,2,0,P|95:236|143:264,4,120
151,72,89767,1,0,0:0:0:0:
231,116,89994,1,0,0:0:0:0:
259,204,90221,1,0,0:0:0:0:
215,280,90449,2,4,P|139:264|131:252,1,80
135,108,91585,5,0,0:0:0:0:
195,176,91812,2,0,L|231:204,4,40
283,256,92494,2,0,P|343:260|375:224,1,80
423,184,92949,1,0,0:0:0:0:
363,104,93176,2,0,B|295:88|259:88|259:88|263:88,1,80
179,64,93630,2,0,L|103:96,1,80
99,208,94199,6,0,P|151:240|175:216,2,80
123,84,94994,1,0,0:0:0:0:
219,156,95335,2,0,P|263:184|311:176,1,80
303,88,95789,2,0,P|343:60|375:64,1,80
451,152,96244,1,0,0:0:0:0:
379,272,96471,5,0,0:0:0:0:
279,208,96699,1,0,0:0:0:0:
183,288,96926,1,0,0:0:0:0:
123,200,97153,2,0,L|131:160,4,40
55,152,97835,2,0,P|71:100|111:72,1,80
167,40,98289,2,0,P|335:48|415:80,1,240
359,200,99199,6,0,P|411:168|431:132,2,80
195,184,99880,1,0,0:0:0:0:
123,264,100335,1,0,0:0:0:0:
87,132,100676,2,4,B|123:112|123:112|135:152,6,80
215,92,102380,5,8,0:0:0:0:
319,100,102608,2,2,P|363:128|355:232,1,160
267,296,103289,1,4,0:0:0:0:
23,124,103858,6,2,P|27:152|107:212,1,120
171,248,104426,1,2,0:0:0:0:
255,236,104653,1,2,0:0:0:0:
323,188,104880,1,2,0:0:0:0:
375,120,105108,1,2,0:0:0:0:
295,92,105732,5,8,0:0:0:0:
203,120,106017,2,2,P|127:176|191:292,1,240
267,328,106926,1,4,0:0:0:0:
463,128,107608,6,2,P|444:183|393:214,1,120
314,251,108176,1,2,0:0:0:0:
230,239,108403,1,2,0:0:0:0:
162,191,108630,1,2,0:0:0:0:
110,123,108858,1,2,0:0:0:0:
319,80,109426,6,0,P|295:116|235:152,1,80
223,176,109767,2,0,L|175:128,2,40
307,264,110335,2,0,P|363:256|383:220,1,80
403,204,110676,2,0,L|463:228,2,40
323,132,111244,2,0,P|283:133|253:108,1,80
219,72,111585,2,0,L|271:36,2,40
103,88,112153,6,0,P|99:140|151:156,1,80
117,155,112494,1,0,0:0:0:0:
383,76,113062,1,0,0:0:0:0:
431,148,113403,6,2,P|403:224|371:236,1,120.000004577637
275,264,113858,1,8,0:0:0:0:
187,216,114085,1,8,0:0:0:0:
151,136,114312,2,2,P|207:92|387:76,1,240.000009155274
471,152,114994,1,8,0:0:0:0:
355,200,115221,6,8,L|279:220,1,60.0000022888184
191,224,115676,2,8,L|135:188,1,60.0000022888184
75,104,116017,2,0,L|135:80,1,60.0000022888184
295,132,117039,6,0,L|243:124,6,46.0000008773804
355,172,117949,2,0,P|350:223|339:240,1,46.0000008773804
327,264,118289,2,0,P|271:268|255:256,1,46.0000008773804
231,248,118630,2,0,P|215:196|227:188,1,46.0000008773804
143,120,118971,6,0,P|175:84|263:72,1,138.000002632141
343,80,119539,1,0,0:0:0:0:
299,180,119767,6,0,L|247:172,6,46.0000008773804
171,192,120676,2,0,P|176:243|187:260,1,46.0000008773804
199,284,121016,2,0,P|255:288|271:276,1,46.0000008773804
295,268,121357,2,0,P|311:216|299:208,4,46.0000008773804
283,168,122153,2,0,L|239:148,7,46.0000008773804
143,224,123289,2,0,P|183:236|223:240,8,46.0000008773804
223,119,124426,6,0,P|220:142|225:165,1,46.0000008773804,0|0,0:3|0:3,0:3:0:0:
250,211,124767,2,0,P|272:220|294:220,1,46.0000008773804,0|0,0:3|0:3,0:3:0:0:
347,196,125108,2,0,P|365:183|367:128,4,46.0000008773804,0|0|0|0|0,0:3|0:3|0:3|0:3|0:3,0:3:0:0:
279,300,125903,2,0,P|211:280|163:216,1,138.000002632141
99,168,126471,1,0,0:0:0:0:
127,68,126699,6,0,P|175:112|271:100,1,138.000002632141
303,52,127380,2,0,P|375:68|383:116,1,92.0000017547608
343,236,127835,2,0,P|363:200|415:140,2,92.0000017547608
239,288,128517,2,0,P|191:272|159:232,1,92.0000017547608
87,144,128971,2,0,B|127:128|127:128|195:112,1,92.0000017547608
271,96,129426,1,0,0:0:0:0:
371,88,129767,6,14,B|343:180|343:180|335:184,1,92.0000017547608
141,95,130221,2,14,B|167:180|167:180|165:176,1,92.0000017547608
431,192,130676,2,14,L|331:264,1,103.999995239258
79,192,131130,2,14,L|179:264,1,103.999995239258
255,316,131585,1,0,0:0:0:0:
255,316,131812,1,0,0:0:0:0:
259,168,132380,5,0,0:0:0:0:
259,168,132494,1,0,0:0:0:0:
259,168,132607,1,0,0:0:0:0:
259,168,132721,1,0,0:0:0:0:
259,168,132835,1,0,0:0:0:0:
259,168,132948,1,0,0:0:0:0:
371,296,133403,6,14,B|343:204|343:204|335:200,1,92.0000017547608
141,289,133857,2,14,B|167:204|167:204|165:208,1,92.0000017547608
431,192,134312,2,14,L|331:120,1,103.999995239258
79,192,134766,2,14,L|179:120,1,103.999995239258
255,52,135221,5,0,0:0:0:0:
415,196,135676,1,0,0:0:0:0:
255,312,136130,1,0,0:0:0:0:
99,188,136585,1,0,0:0:0:0:
251,56,137039,2,0,B|307:76|323:112|323:112|343:152,1,103.999995239258
403,256,137494,2,0,P|331:296|287:272,1,103.999995239258
151,244,137949,2,0,B|111:212|119:136|119:136|143:128,1,103.999995239258
163,72,138403,2,0,L|275:56,1,103.999995239258
367,80,138858,6,0,L|447:160,1,103.999995239258
455,248,139312,2,0,L|347:308,1,103.999995239258
263,312,139767,2,0,P|195:304|159:280,1,103.999995239258
151,196,140221,2,0,L|123:88,1,103.999995239258
263,196,140676,2,0,L|263:72,1,103.999995239258
383,200,141130,2,0,L|409:99,1,103.999995239258
275,44,141585,2,0,P|127:76|67:140,1,207.999990478516
71,280,142608,6,0,B|139:292|87:228|-1:156|119:96|267:284|271:80|271:80|387:104,1,480
447,216,144426,2,0,B|391:248|411:176|323:276|295:312|239:320|179:320|151:272|151:224|191:240|191:196|183:196|91:240,1,400
79,132,146130,2,0,P|203:80|403:216,1,360
271,92,147721,6,0,L|331:132,6,40
407,160,149199,5,0,0:0:0:0:
311,216,149426,1,0,0:0:0:0:
247,128,149653,1,0,0:0:0:0:
147,172,149880,1,0,0:0:0:0:
175,40,150108,2,0,P|127:92|107:112,1,80
95,188,150562,2,0,P|127:228|167:248,1,80
263,248,151017,2,0,P|307:240|339:192,1,80
407,160,151471,6,0,P|331:108|247:144,1,160
51,124,152267,1,0,0:0:0:0:
167,60,152835,2,0,P|207:56|243:80,1,80
227,172,153289,2,0,P|171:184|147:152,1,80
339,84,153744,2,0,P|387:72|431:68,1,80
459,192,154199,1,0,0:0:0:0:
203,200,154653,6,0,B|179:192|163:188|163:188|131:180,2,40
287,88,155278,2,0,L|335:88,1,40
375,92,155562,2,4,B|427:128|351:144|311:168|395:200|439:248,1,200
199,72,156471,2,0,P|223:120|251:140,1,80
255,260,156926,2,0,P|284:232|298:196,1,80
395,68,157380,2,0,P|380:104|351:131,1,80
227,128,157835,2,0,L|147:128,1,80
251,236,158289,5,8,0:0:0:0:
251,236,158517,1,8,0:0:0:0:
183,72,158858,2,0,B|115:104|227:128|115:152|231:184|111:260,1,200
95,340,159653,1,0,0:0:0:0:
199,176,160108,6,0,P|139:168|123:204,1,80
343,176,160562,2,0,P|411:168|435:188,1,80
235,120,161017,2,0,P|159:100|131:108,1,80
415,152,161471,2,0,P|411:187|351:264,1,120
179,320,162039,1,0,0:0:0:0:
223,108,162267,1,2,0:0:0:0:
331,232,162494,1,0,0:0:0:0:
119,208,162721,1,0,0:0:0:0:
