osu file format v14

[General]
AudioFilename: audio.mp3
AudioLeadIn: 0
PreviewTime: 60140
Countdown: 0
SampleSet: Normal
StackLeniency: 0.7
Mode: 1
LetterboxInBreaks: 0
WidescreenStoryboard: 1

[Editor]
Bookmarks: 52640
DistanceSpacing: 1.9
BeatDivisor: 6
GridSize: 32
TimelineZoom: 1

[Metadata]
Title:Cantina Band (Noize Tank Remix)
TitleUnicode:Cantina Band (Noize Tank Remix)
Artist:John Williams (remixed by Noize Tank)
ArtistUnicode:John Williams (remixed by Noize Tank)
Creator:Loopy542
Version:Double-Time Swing
Source:
Tags:
BeatmapID:1807031
BeatmapSetID:863955

[Difficulty]
HPDrainRate:6
CircleSize:5
OverallDifficulty:6
ApproachRate:5
SliderMultiplier:1.4
SliderTickRate:1

[Events]
//Background and Video events
0,0,"Cantina Band 2.jpg",0,0
//Break Periods
//Storyboard Layer 0 (Background)
//Storyboard Layer 1 (Fail)
//Storyboard Layer 2 (Pass)
//Storyboard Layer 3 (Foreground)
//Storyboard Sound Samples

[TimingPoints]
140,468.75,4,1,0,70,1,0
29827,-98.0392156862745,4,1,0,70,0,0
29905,-96.1538461538461,4,1,0,70,0,0
30061,-92.5925925925926,4,1,0,70,0,0
30140,-90.9090909090909,4,1,0,70,0,0
44827,-88.4955752212389,4,1,0,70,0,0
45061,-81.9672131147541,4,1,0,70,0,0
45140,-80,4,1,0,70,0,0
52874,-77.5193798449612,4,1,0,70,0,0
53108,-75.7575757575758,4,1,0,70,0,0
53343,-74.0740740740741,4,1,0,70,0,0
53577,-71.9424460431655,4,1,0,70,0,0
53811,-70.4225352112676,4,1,0,70,0,0
54046,-68.9655172413793,4,1,0,70,0,0
54280,-67.1140939597315,4,1,0,70,0,0
54515,-65.7894736842105,4,1,0,70,0,0
54749,-64.5161290322581,4,1,0,70,0,0
54983,-62.8930817610063,4,1,0,70,0,0
55218,-61.7283950617284,4,1,0,70,0,0
55452,-60.6060606060606,4,1,0,70,0,0
55686,-59.1715976331361,4,1,0,70,0,0
55921,-58.1395348837209,4,1,0,70,0,0
56155,-57.1428571428571,4,1,0,70,0,0
56390,-55.8659217877095,4,1,0,70,0,0
56624,-54.9450549450549,4,1,0,70,0,0
56858,-54.054054054054,4,1,0,70,0,0
57093,-52.9100529100529,4,1,0,70,0,0
57327,-52.0833333333333,4,1,0,70,0,0
57561,-51.2820512820513,4,1,0,70,0,0
57796,-50.251256281407,4,1,0,70,0,0
58030,-49.5049504950495,4,1,0,70,0,0
58265,-48.780487804878,4,1,0,70,0,0
58499,-47.8468899521531,4,1,0,70,0,0
58733,-47.1698113207547,4,1,0,70,0,0
58968,-46.5116279069767,4,1,0,70,0,0
59202,-45.662100456621,4,1,0,70,0,0
59436,-45.045045045045,4,1,0,70,0,0
59671,-44.4444444444445,4,1,0,70,0,0
60140,-66.6666666666667,4,1,0,70,0,1
90140,-90.9090909090909,4,1,0,70,0,0
97640,-80,4,1,0,70,0,0
105140,-66.6666666666667,4,1,0,70,0,1
108890,-80,4,1,0,70,0,0
112640,-66.6666666666667,4,1,0,70,0,1
135140,-100,4,1,0,70,0,0

[HitObjects]
224,160,140,5,0,0:0:0:0:
288,160,374,1,8,0:0:0:0:
224,160,608,1,0,0:0:0:0:
288,160,843,1,8,0:0:0:0:
224,160,1077,1,0,0:0:0:0:
288,160,1311,1,8,0:0:0:0:
224,160,1546,1,0,0:0:0:0:
288,160,1780,1,8,0:0:0:0:
224,160,2015,1,0,0:0:0:0:
288,160,2249,1,8,0:0:0:0:
224,160,2483,1,0,0:0:0:0:
288,160,2718,1,8,0:0:0:0:
224,160,2952,1,0,0:0:0:0:
288,160,3108,1,8,0:0:0:0:
288,160,3186,1,8,0:0:0:0:
224,160,3343,1,0,0:0:0:0:
224,160,3421,1,0,0:0:0:0:
288,160,3655,1,8,0:0:0:0:
224,160,3890,1,0,0:0:0:0:
288,160,4124,1,8,0:0:0:0:
224,160,4358,1,0,0:0:0:0:
288,160,4593,1,8,0:0:0:0:
224,160,4827,1,0,0:0:0:0:
288,160,5061,1,8,0:0:0:0:
224,160,5296,1,0,0:0:0:0:
288,160,5530,1,8,0:0:0:0:
224,160,5765,1,0,0:0:0:0:
288,160,5999,1,8,0:0:0:0:
224,160,6233,1,0,0:0:0:0:
288,160,6468,1,8,0:0:0:0:
224,160,6702,1,0,0:0:0:0:
288,160,6936,1,8,0:0:0:0:
224,160,7171,1,0,0:0:0:0:
288,160,7405,1,8,0:0:0:0:
288,160,7561,1,8,0:0:0:0:
224,160,7640,1,0,0:0:0:0:
288,160,7874,1,8,0:0:0:0:
224,160,8108,1,0,0:0:0:0:
288,160,8343,1,8,0:0:0:0:
224,160,8577,1,0,0:0:0:0:
288,160,8811,1,8,0:0:0:0:
224,160,9046,1,0,0:0:0:0:
288,160,9280,1,8,0:0:0:0:
224,160,9515,1,0,0:0:0:0:
288,160,9749,1,8,0:0:0:0:
224,160,9983,1,0,0:0:0:0:
288,160,10218,1,8,0:0:0:0:
224,160,10452,1,0,0:0:0:0:
288,160,10608,1,8,0:0:0:0:
224,160,10686,1,0,0:0:0:0:
288,160,10843,1,8,0:0:0:0:
224,160,10921,1,0,0:0:0:0:
288,160,11155,1,8,0:0:0:0:
224,160,11390,1,0,0:0:0:0:
288,160,11624,1,8,0:0:0:0:
224,160,11858,1,0,0:0:0:0:
288,160,12093,1,8,0:0:0:0:
224,160,12327,1,0,0:0:0:0:
288,160,12561,1,8,0:0:0:0:
224,160,12796,1,0,0:0:0:0:
288,160,13030,1,8,0:0:0:0:
224,160,13265,1,0,0:0:0:0:
288,160,13499,1,8,0:0:0:0:
224,160,13733,1,0,0:0:0:0:
288,160,13968,1,8,0:0:0:0:
224,160,14202,1,0,0:0:0:0:
288,160,14436,1,8,0:0:0:0:
224,160,14671,1,0,0:0:0:0:
288,160,14827,1,8,0:0:0:0:
288,160,14905,1,8,0:0:0:0:
288,160,15061,1,8,0:0:0:0:
224,160,15140,1,0,0:0:0:0:
288,160,15374,1,8,0:0:0:0:
224,160,15608,1,0,0:0:0:0:
288,160,15843,1,8,0:0:0:0:
224,160,16077,1,0,0:0:0:0:
288,160,16311,1,8,0:0:0:0:
224,160,16546,1,0,0:0:0:0:
288,160,16780,1,8,0:0:0:0:
224,160,17015,1,0,0:0:0:0:
288,160,17249,1,8,0:0:0:0:
224,160,17483,1,0,0:0:0:0:
288,160,17718,1,8,0:0:0:0:
224,160,17952,1,0,0:0:0:0:
288,160,18108,1,8,0:0:0:0:
288,160,18186,1,8,0:0:0:0:
224,160,18343,1,0,0:0:0:0:
224,160,18421,1,0,0:0:0:0:
288,160,18655,1,8,0:0:0:0:
224,160,18890,1,0,0:0:0:0:
288,160,19124,1,8,0:0:0:0:
224,160,19358,1,0,0:0:0:0:
288,160,19593,1,8,0:0:0:0:
224,160,19827,1,0,0:0:0:0:
288,160,20061,1,8,0:0:0:0:
224,160,20296,1,0,0:0:0:0:
288,160,20530,1,8,0:0:0:0:
224,160,20765,1,0,0:0:0:0:
288,160,20999,1,8,0:0:0:0:
224,160,21233,1,0,0:0:0:0:
288,160,21468,1,8,0:0:0:0:
224,160,21702,1,0,0:0:0:0:
288,160,21936,1,8,0:0:0:0:
224,160,22171,1,0,0:0:0:0:
288,160,22405,1,8,0:0:0:0:
288,160,22561,1,8,0:0:0:0:
224,160,22640,1,0,0:0:0:0:
288,160,22874,1,8,0:0:0:0:
224,160,23108,1,0,0:0:0:0:
288,160,23343,1,8,0:0:0:0:
224,160,23577,1,0,0:0:0:0:
288,160,23811,1,8,0:0:0:0:
224,160,24046,1,0,0:0:0:0:
288,160,24280,1,8,0:0:0:0:
224,160,24515,1,0,0:0:0:0:
288,160,24749,1,8,0:0:0:0:
224,160,24983,1,0,0:0:0:0:
288,160,25218,1,8,0:0:0:0:
224,160,25452,1,0,0:0:0:0:
288,160,25608,1,8,0:0:0:0:
224,160,25686,1,0,0:0:0:0:
288,160,25843,1,8,0:0:0:0:
224,160,25921,1,0,0:0:0:0:
288,160,26155,1,8,0:0:0:0:
224,160,26390,1,0,0:0:0:0:
288,160,26624,1,8,0:0:0:0:
224,160,26858,1,0,0:0:0:0:
288,160,27093,1,8,0:0:0:0:
224,160,27327,1,0,0:0:0:0:
288,160,27561,1,8,0:0:0:0:
224,160,27796,1,0,0:0:0:0:
288,160,28030,1,8,0:0:0:0:
224,160,28265,1,0,0:0:0:0:
288,160,28499,1,8,0:0:0:0:
224,160,28733,1,0,0:0:0:0:
288,160,28968,1,8,0:0:0:0:
288,160,29436,1,8,0:0:0:0:
288,160,29827,1,8,0:0:0:0:
288,160,29905,1,8,0:0:0:0:
288,160,30061,1,8,0:0:0:0:
224,160,30140,1,0,0:0:0:0:
288,160,30374,1,8,0:0:0:0:
224,160,30530,1,0,0:0:0:0:
224,160,30608,1,0,0:0:0:0:
288,160,30843,1,8,0:0:0:0:
224,160,31077,1,0,0:0:0:0:
288,160,31233,1,8,0:0:0:0:
224,160,31468,1,0,0:0:0:0:
288,160,31546,1,8,0:0:0:0:
288,160,31780,1,8,0:0:0:0:
224,160,32015,1,0,0:0:0:0:
224,160,32249,1,0,0:0:0:0:
288,160,32405,1,8,0:0:0:0:
288,160,32483,1,8,0:0:0:0:
288,160,32718,1,8,0:0:0:0:
224,160,32952,1,0,0:0:0:0:
288,160,33108,1,8,0:0:0:0:
288,160,33343,1,8,0:0:0:0:
224,160,33421,1,0,0:0:0:0:
288,160,33655,1,8,0:0:0:0:
288,160,33811,1,8,0:0:0:0:
224,160,33890,1,0,0:0:0:0:
288,160,34124,1,8,0:0:0:0:
224,160,34280,1,0,0:0:0:0:
288,160,34358,1,8,0:0:0:0:
288,160,34593,1,8,0:0:0:0:
224,160,34827,1,0,0:0:0:0:
288,160,34983,1,8,0:0:0:0:
224,160,35218,1,0,0:0:0:0:
288,160,35296,1,8,0:0:0:0:
288,160,35530,1,8,0:0:0:0:
224,160,35765,1,0,0:0:0:0:
224,160,35999,1,0,0:0:0:0:
224,160,36155,1,0,0:0:0:0:
288,160,36233,1,8,0:0:0:0:
288,160,36468,1,8,0:0:0:0:
224,160,36702,1,0,0:0:0:0:
288,160,36858,1,8,0:0:0:0:
224,160,37093,1,0,0:0:0:0:
288,160,37171,1,8,0:0:0:0:
224,160,37327,1,0,0:0:0:0:
288,160,37561,1,8,0:0:0:0:
224,160,37640,1,0,0:0:0:0:
288,160,37874,1,8,0:0:0:0:
288,160,38030,1,8,0:0:0:0:
224,160,38108,1,0,0:0:0:0:
288,160,38343,1,8,0:0:0:0:
224,160,38577,1,0,0:0:0:0:
288,160,38733,1,8,0:0:0:0:
224,160,38968,1,0,0:0:0:0:
288,160,39046,1,8,0:0:0:0:
288,160,39280,1,8,0:0:0:0:
224,160,39515,1,0,0:0:0:0:
224,160,39749,1,0,0:0:0:0:
224,160,39905,1,0,0:0:0:0:
288,160,39983,1,8,0:0:0:0:
288,160,40218,1,8,0:0:0:0:
224,160,40452,1,0,0:0:0:0:
288,160,40608,1,8,0:0:0:0:
224,160,40843,1,0,0:0:0:0:
288,160,40921,1,8,0:0:0:0:
224,160,41155,1,0,0:0:0:0:
288,160,41311,1,8,0:0:0:0:
224,160,41390,1,0,0:0:0:0:
224,160,41624,1,0,0:0:0:0:
224,160,41780,1,0,0:0:0:0:
288,160,41858,1,8,0:0:0:0:
224,160,42093,1,0,0:0:0:0:
224,160,42249,1,0,0:0:0:0:
288,160,42327,1,8,0:0:0:0:
224,160,42561,1,0,0:0:0:0:
288,160,42718,1,8,0:0:0:0:
288,160,42796,1,8,0:0:0:0:
224,160,43030,1,0,0:0:0:0:
288,160,43186,1,8,0:0:0:0:
288,160,43265,1,8,0:0:0:0:
288,160,43499,1,8,0:0:0:0:
224,160,43733,1,0,0:0:0:0:
288,160,43890,1,8,0:0:0:0:
288,160,44124,1,8,0:0:0:0:
224,160,44202,1,0,0:0:0:0:
224,160,44436,1,0,0:0:0:0:
224,160,44671,1,0,0:0:0:0:
288,160,44827,1,8,0:0:0:0:
288,160,45061,1,8,0:0:0:0:
224,160,45140,1,0,0:0:0:0:
288,160,45374,1,8,0:0:0:0:
288,160,45530,1,8,0:0:0:0:
224,160,45608,1,0,0:0:0:0:
288,160,45843,1,8,0:0:0:0:
224,160,46077,1,0,0:0:0:0:
288,160,46233,1,8,0:0:0:0:
224,160,46468,1,0,0:0:0:0:
224,160,46546,1,0,0:0:0:0:
288,160,46780,1,8,0:0:0:0:
224,160,47015,1,0,0:0:0:0:
288,160,47249,1,8,0:0:0:0:
224,160,47405,1,0,0:0:0:0:
288,160,47483,1,8,0:0:0:0:
288,160,47718,1,8,0:0:0:0:
224,160,47952,1,0,0:0:0:0:
288,160,48108,1,8,0:0:0:0:
224,160,48343,1,0,0:0:0:0:
224,160,48421,1,0,0:0:0:0:
288,160,48655,1,8,0:0:0:0:
224,160,48811,1,0,0:0:0:0:
224,160,48890,1,0,0:0:0:0:
288,160,49124,1,8,0:0:0:0:
224,160,49280,1,0,0:0:0:0:
288,160,49358,1,8,0:0:0:0:
288,160,49593,1,8,0:0:0:0:
224,160,49827,1,0,0:0:0:0:
288,160,49983,1,8,0:0:0:0:
288,160,50218,1,8,0:0:0:0:
288,160,50296,1,8,0:0:0:0:
288,160,50530,1,8,0:0:0:0:
224,160,50765,1,0,0:0:0:0:
288,160,50999,1,8,0:0:0:0:
224,160,51155,1,0,0:0:0:0:
288,160,51233,1,8,0:0:0:0:
224,160,51468,1,0,0:0:0:0:
224,160,51702,1,0,0:0:0:0:
288,160,51858,1,8,0:0:0:0:
224,160,51936,1,0,0:0:0:0:
288,160,52093,1,8,0:0:0:0:
288,160,52171,1,8,0:0:0:0:
288,160,52327,1,8,0:0:0:0:
224,160,52405,1,0,0:0:0:0:
224,160,52561,1,0,0:0:0:0:
224,160,52640,1,0,0:0:0:0:
288,160,52874,1,8,0:0:0:0:
224,160,53030,1,0,0:0:0:0:
224,160,53108,1,0,0:0:0:0:
224,160,53265,1,0,0:0:0:0:
288,160,53343,1,8,0:0:0:0:
224,160,53577,1,0,0:0:0:0:
288,160,53733,1,8,0:0:0:0:
224,160,53811,1,0,0:0:0:0:
224,160,53968,1,0,0:0:0:0:
224,160,54046,1,0,0:0:0:0:
224,160,54202,1,0,0:0:0:0:
288,160,54280,1,8,0:0:0:0:
224,160,54515,1,0,0:0:0:0:
288,160,54749,1,8,0:0:0:0:
224,160,54905,1,0,0:0:0:0:
224,160,54983,1,0,0:0:0:0:
224,160,55140,1,0,0:0:0:0:
288,160,55218,1,8,0:0:0:0:
224,160,55452,1,0,0:0:0:0:
288,160,55608,1,8,0:0:0:0:
224,160,55686,1,0,0:0:0:0:
288,160,55843,1,8,0:0:0:0:
224,160,55921,1,0,0:0:0:0:
224,160,56077,1,0,0:0:0:0:
288,160,56155,1,8,0:0:0:0:
288,160,56311,1,8,0:0:0:0:
224,160,56390,1,0,0:0:0:0:
288,160,56624,1,8,0:0:0:0:
224,160,56780,1,0,0:0:0:0:
224,160,56858,1,0,0:0:0:0:
288,160,57093,1,8,0:0:0:0:
224,160,57249,1,0,0:0:0:0:
224,160,57327,1,0,0:0:0:0:
288,160,57483,1,8,0:0:0:0:
224,160,57561,1,0,0:0:0:0:
224,160,57718,1,0,0:0:0:0:
288,160,57796,1,8,0:0:0:0:
224,160,58030,1,0,0:0:0:0:
224,160,58186,1,0,0:0:0:0:
224,160,58265,1,0,0:0:0:0:
224,160,58421,1,0,0:0:0:0:
288,160,58499,1,8,0:0:0:0:
224,160,58655,1,0,0:0:0:0:
224,160,58733,1,0,0:0:0:0:
288,160,58890,1,8,0:0:0:0:
288,160,58968,1,8,0:0:0:0:
224,160,59124,1,0,0:0:0:0:
288,160,59202,1,8,0:0:0:0:
224,160,59358,1,0,0:0:0:0:
224,160,59436,1,0,0:0:0:0:
288,224,59671,1,12,0:0:0:0:
224,160,60140,1,0,0:0:0:0:
288,160,60374,1,8,0:0:0:0:
224,160,60608,1,0,0:0:0:0:
288,160,60843,1,8,0:0:0:0:
224,160,61077,1,0,0:0:0:0:
288,160,61194,1,8,0:0:0:0:
288,160,61429,1,8,0:0:0:0:
224,160,61546,1,0,0:0:0:0:
224,160,61663,1,0,0:0:0:0:
288,160,61780,1,8,0:0:0:0:
224,160,62015,1,0,0:0:0:0:
288,160,62249,1,8,0:0:0:0:
224,160,62483,1,0,0:0:0:0:
288,160,62600,1,8,0:0:0:0:
224,160,62952,1,0,0:0:0:0:
288,160,63304,1,8,0:0:0:0:
224,160,63421,1,0,0:0:0:0:
224,160,63890,1,0,0:0:0:0:
288,160,64124,1,8,0:0:0:0:
224,160,64358,1,0,0:0:0:0:
288,160,64593,1,8,0:0:0:0:
224,160,64827,1,0,0:0:0:0:
288,160,64944,1,8,0:0:0:0:
224,160,65179,1,0,0:0:0:0:
224,160,65413,1,0,0:0:0:0:
288,160,65530,1,8,0:0:0:0:
288,160,65765,1,8,0:0:0:0:
288,160,65999,1,8,0:0:0:0:
288,160,66233,1,8,0:0:0:0:
224,160,66350,1,0,0:0:0:0:
288,160,66468,1,8,0:0:0:0:
288,160,66702,1,8,0:0:0:0:
224,160,66819,1,0,0:0:0:0:
224,160,67054,1,0,0:0:0:0:
224,160,67288,1,0,0:0:0:0:
224,160,67405,1,0,0:0:0:0:
224,160,67640,1,0,0:0:0:0:
288,160,67874,1,8,0:0:0:0:
224,160,68108,1,0,0:0:0:0:
288,160,68343,1,8,0:0:0:0:
224,160,68577,1,0,0:0:0:0:
288,160,68694,1,8,0:0:0:0:
288,160,68929,1,8,0:0:0:0:
224,160,69046,1,0,0:0:0:0:
288,160,69280,1,8,0:0:0:0:
288,160,69515,1,8,0:0:0:0:
224,160,69671,1,0,0:0:0:0:
224,160,69749,1,0,0:0:0:0:
224,160,69905,1,0,0:0:0:0:
288,160,69983,1,8,0:0:0:0:
224,160,70140,1,0,0:0:0:0:
224,160,70218,1,0,0:0:0:0:
224,160,70374,1,0,0:0:0:0:
224,160,70452,1,0,0:0:0:0:
224,160,70608,1,0,0:0:0:0:
224,160,70765,1,0,0:0:0:0:
288,224,70921,1,12,0:0:0:0:
224,160,71390,1,0,0:0:0:0:
288,160,71624,1,8,0:0:0:0:
224,160,71858,1,0,0:0:0:0:
224,160,72327,1,0,0:0:0:0:
288,160,72561,1,8,0:0:0:0:
288,160,72796,1,8,0:0:0:0:
288,160,73265,1,8,0:0:0:0:
224,160,73499,1,0,0:0:0:0:
224,160,73733,1,0,0:0:0:0:
288,160,73850,1,8,0:0:0:0:
224,160,74085,1,0,0:0:0:0:
288,160,74202,1,8,0:0:0:0:
288,160,74436,1,8,0:0:0:0:
288,160,74671,1,8,0:0:0:0:
224,160,74905,1,0,0:0:0:0:
224,160,75140,1,0,0:0:0:0:
288,160,75257,1,8,0:0:0:0:
224,160,75491,1,0,0:0:0:0:
288,160,75608,1,8,0:0:0:0:
224,160,75843,1,0,0:0:0:0:
224,160,76077,1,0,0:0:0:0:
288,160,76194,1,8,0:0:0:0:
224,160,76429,1,0,0:0:0:0:
224,160,76546,1,0,0:0:0:0:
224,160,76780,1,0,0:0:0:0:
224,160,77015,1,0,0:0:0:0:
288,160,77132,1,8,0:0:0:0:
224,160,77366,1,0,0:0:0:0:
224,160,77483,1,0,0:0:0:0:
288,160,77600,1,8,0:0:0:0:
288,160,77835,1,8,0:0:0:0:
224,160,77952,1,0,0:0:0:0:
224,160,78108,1,0,0:0:0:0:
288,160,78265,1,8,0:0:0:0:
224,160,78421,1,0,0:0:0:0:
288,160,78577,1,8,0:0:0:0:
288,160,78733,1,8,0:0:0:0:
224,160,78890,1,0,0:0:0:0:
288,160,79007,1,8,0:0:0:0:
224,160,79241,1,0,0:0:0:0:
288,160,79358,1,8,0:0:0:0:
224,160,79593,1,0,0:0:0:0:
224,160,79827,1,0,0:0:0:0:
288,160,79944,1,8,0:0:0:0:
224,160,80179,1,0,0:0:0:0:
224,160,80296,1,0,0:0:0:0:
224,160,80530,1,0,0:0:0:0:
224,160,80765,1,0,0:0:0:0:
288,160,80882,1,8,0:0:0:0:
224,160,81116,1,0,0:0:0:0:
224,160,81233,1,0,0:0:0:0:
288,160,81350,1,8,0:0:0:0:
224,160,81585,1,0,0:0:0:0:
288,160,81702,1,8,0:0:0:0:
288,160,81858,1,8,0:0:0:0:
224,160,81936,1,0,0:0:0:0:
224,160,82093,1,0,0:0:0:0:
288,160,82171,1,8,0:0:0:0:
288,160,82249,1,8,0:0:0:0:
288,160,82327,1,8,0:0:0:0:
288,160,82405,1,8,0:0:0:0:
288,160,82483,1,8,0:0:0:0:
288,160,82561,1,8,0:0:0:0:
224,160,82640,1,0,0:0:0:0:
288,160,82757,1,8,0:0:0:0:
224,160,82991,1,0,0:0:0:0:
288,160,83108,1,8,0:0:0:0:
224,160,83343,1,0,0:0:0:0:
224,160,83577,1,0,0:0:0:0:
288,160,83694,1,8,0:0:0:0:
224,160,83929,1,0,0:0:0:0:
224,160,84046,1,0,0:0:0:0:
224,160,84280,1,0,0:0:0:0:
224,160,84515,1,0,0:0:0:0:
288,160,84632,1,8,0:0:0:0:
224,160,84866,1,0,0:0:0:0:
224,160,84983,1,0,0:0:0:0:
288,160,85100,1,8,0:0:0:0:
288,160,85335,1,8,0:0:0:0:
288,160,85452,1,8,0:0:0:0:
224,160,85608,1,0,0:0:0:0:
224,160,85765,1,0,0:0:0:0:
224,160,85843,1,0,0:0:0:0:
288,160,85921,1,8,0:0:0:0:
224,160,86155,1,0,0:0:0:0:
224,160,86390,1,0,0:0:0:0:
224,160,86507,1,0,0:0:0:0:
288,160,86624,1,8,0:0:0:0:
224,160,86858,1,0,0:0:0:0:
288,160,86975,1,8,0:0:0:0:
288,160,87093,1,8,0:0:0:0:
224,160,87327,1,0,0:0:0:0:
288,160,87444,1,8,0:0:0:0:
224,160,87679,1,0,0:0:0:0:
288,160,87796,1,8,0:0:0:0:
224,160,88030,1,0,0:0:0:0:
224,160,88265,1,0,0:0:0:0:
288,160,88382,1,8,0:0:0:0:
288,160,88499,1,8,0:0:0:0:
224,160,88616,1,0,0:0:0:0:
224,160,88733,1,0,0:0:0:0:
288,160,88850,1,8,0:0:0:0:
224,160,89124,1,0,0:0:0:0:
288,160,89202,1,8,0:0:0:0:
224,160,89436,1,0,0:0:0:0:
224,160,89593,1,0,0:0:0:0:
288,160,89671,1,8,0:0:0:0:
224,160,89905,1,0,0:0:0:0:
224,160,90140,1,0,0:0:0:0:
288,160,90374,1,8,0:0:0:0:
224,160,90530,1,0,0:0:0:0:
224,160,90608,1,0,0:0:0:0:
224,160,90765,1,0,0:0:0:0:
288,160,90843,1,8,0:0:0:0:
224,160,91077,1,0,0:0:0:0:
224,160,91233,1,0,0:0:0:0:
288,160,91311,1,8,0:0:0:0:
224,160,91546,1,0,0:0:0:0:
224,160,91702,1,0,0:0:0:0:
288,160,91780,1,8,0:0:0:0:
224,160,92015,1,0,0:0:0:0:
288,160,92249,1,8,0:0:0:0:
224,160,92405,1,0,0:0:0:0:
224,160,92483,1,0,0:0:0:0:
224,160,92640,1,0,0:0:0:0:
288,160,92718,1,8,0:0:0:0:
224,160,92952,1,0,0:0:0:0:
224,160,93108,1,0,0:0:0:0:
288,160,93186,1,8,0:0:0:0:
288,160,93343,1,8,0:0:0:0:
224,160,93421,1,0,0:0:0:0:
224,160,93577,1,0,0:0:0:0:
288,160,93655,1,8,0:0:0:0:
224,160,93890,1,0,0:0:0:0:
288,160,94124,1,8,0:0:0:0:
224,160,94280,1,0,0:0:0:0:
224,160,94358,1,0,0:0:0:0:
224,160,94515,1,0,0:0:0:0:
288,160,94593,1,8,0:0:0:0:
224,160,94827,1,0,0:0:0:0:
224,160,94983,1,0,0:0:0:0:
288,160,95061,1,8,0:0:0:0:
224,160,95296,1,0,0:0:0:0:
224,160,95452,1,0,0:0:0:0:
288,160,95530,1,8,0:0:0:0:
224,160,95765,1,0,0:0:0:0:
224,160,97327,1,0,0:0:0:0:
288,160,97405,1,8,0:0:0:0:
224,160,97640,1,0,0:0:0:0:
288,160,97874,1,8,0:0:0:0:
288,160,98030,1,8,0:0:0:0:
224,160,98108,1,0,0:0:0:0:
224,160,98265,1,0,0:0:0:0:
288,160,98343,1,8,0:0:0:0:
224,160,98577,1,0,0:0:0:0:
224,160,98733,1,0,0:0:0:0:
288,160,98811,1,8,0:0:0:0:
288,160,98968,1,8,0:0:0:0:
224,160,99046,1,0,0:0:0:0:
288,160,99280,1,8,0:0:0:0:
288,160,99436,1,8,0:0:0:0:
224,160,99515,1,0,0:0:0:0:
288,160,99749,1,8,0:0:0:0:
288,160,99905,1,8,0:0:0:0:
224,160,99983,1,0,0:0:0:0:
288,160,100218,1,8,0:0:0:0:
224,160,100452,1,0,0:0:0:0:
288,160,100608,1,8,0:0:0:0:
288,160,100686,1,8,0:0:0:0:
288,160,100843,1,8,0:0:0:0:
224,160,100921,1,0,0:0:0:0:
288,160,101155,1,8,0:0:0:0:
224,160,101390,1,0,0:0:0:0:
288,160,101624,1,8,0:0:0:0:
224,160,101780,1,0,0:0:0:0:
224,160,101858,1,0,0:0:0:0:
288,160,102093,1,8,0:0:0:0:
224,160,102327,1,0,0:0:0:0:
224,160,102483,1,0,0:0:0:0:
288,160,102561,1,8,0:0:0:0:
288,160,102718,1,8,0:0:0:0:
224,160,102796,1,0,0:0:0:0:
288,160,103030,1,8,0:0:0:0:
288,160,103186,1,8,0:0:0:0:
224,160,103265,1,0,0:0:0:0:
288,160,103499,1,8,0:0:0:0:
224,160,103655,1,0,0:0:0:0:
224,160,103733,1,0,0:0:0:0:
288,160,103968,1,8,0:0:0:0:
288,160,104202,1,8,0:0:0:0:
288,160,104358,1,8,0:0:0:0:
288,160,104593,1,8,0:0:0:0:
288,160,104827,1,8,0:0:0:0:
224,160,105061,1,0,0:0:0:0:
288,160,105140,1,8,0:0:0:0:
224,160,105296,1,0,0:0:0:0:
224,160,105374,1,0,0:0:0:0:
224,160,105530,1,0,0:0:0:0:
224,160,105765,1,0,0:0:0:0:
224,160,105843,1,0,0:0:0:0:
224,160,105999,1,0,0:0:0:0:
224,160,106077,1,0,0:0:0:0:
288,160,106311,1,8,0:0:0:0:
288,160,106468,1,8,0:0:0:0:
224,160,106702,1,0,0:0:0:0:
288,160,106780,1,8,0:0:0:0:
288,160,107015,1,8,0:0:0:0:
224,160,107132,1,0,0:0:0:0:
288,160,107249,1,8,0:0:0:0:
224,160,107366,1,0,0:0:0:0:
288,160,107600,1,8,0:0:0:0:
288,160,107718,1,8,0:0:0:0:
224,160,107835,1,0,0:0:0:0:
224,160,107952,1,0,0:0:0:0:
288,160,108186,1,8,0:0:0:0:
224,160,108304,1,0,0:0:0:0:
224,160,108538,1,0,0:0:0:0:
288,160,108655,1,8,0:0:0:0:
224,160,108890,1,0,0:0:0:0:
224,160,109046,1,0,0:0:0:0:
288,160,109124,1,8,0:0:0:0:
288,160,109280,1,8,0:0:0:0:
224,160,109358,1,0,0:0:0:0:
224,160,109515,1,0,0:0:0:0:
288,160,109593,1,8,0:0:0:0:
288,160,109749,1,8,0:0:0:0:
224,160,109827,1,0,0:0:0:0:
288,160,109983,1,8,0:0:0:0:
288,160,110061,1,8,0:0:0:0:
224,160,110218,1,0,0:0:0:0:
224,160,110296,1,0,0:0:0:0:
224,160,110452,1,0,0:0:0:0:
288,160,110530,1,8,0:0:0:0:
288,160,110765,1,8,0:0:0:0:
288,160,110999,1,8,0:0:0:0:
288,160,111233,1,8,0:0:0:0:
224,160,111350,1,0,0:0:0:0:
288,160,111468,1,8,0:0:0:0:
288,160,111702,1,8,0:0:0:0:
224,160,111819,1,0,0:0:0:0:
288,160,111936,1,8,0:0:0:0:
288,160,112054,1,8,0:0:0:0:
224,160,112288,1,0,0:0:0:0:
288,160,112405,1,8,0:0:0:0:
224,160,112640,1,0,0:0:0:0:
224,160,112796,1,0,0:0:0:0:
224,160,112874,1,0,0:0:0:0:
224,160,113108,1,0,0:0:0:0:
224,160,113265,1,0,0:0:0:0:
224,160,113343,1,0,0:0:0:0:
224,160,113577,1,0,0:0:0:0:
224,160,113733,1,0,0:0:0:0:
288,160,113811,1,8,0:0:0:0:
224,160,113929,1,0,0:0:0:0:
224,160,114163,1,0,0:0:0:0:
288,160,114280,1,8,0:0:0:0:
288,160,114515,1,8,0:0:0:0:
288,160,114749,1,8,0:0:0:0:
224,160,114983,1,0,0:0:0:0:
288,160,115100,1,8,0:0:0:0:
224,160,115218,1,0,0:0:0:0:
224,160,115452,1,0,0:0:0:0:
288,160,115686,1,8,0:0:0:0:
224,160,115804,1,0,0:0:0:0:
224,160,116038,1,0,0:0:0:0:
288,160,116155,1,8,0:0:0:0:
224,160,116390,1,0,0:0:0:0:
288,160,116624,1,8,0:0:0:0:
224,160,116780,1,0,0:0:0:0:
224,160,116858,1,0,0:0:0:0:
224,160,117015,1,0,0:0:0:0:
288,160,117093,1,8,0:0:0:0:
224,160,117327,1,0,0:0:0:0:
288,160,117561,1,8,0:0:0:0:
224,160,117679,1,0,0:0:0:0:
288,160,117913,1,8,0:0:0:0:
224,160,118030,1,0,0:0:0:0:
288,160,118265,1,8,0:0:0:0:
224,160,118499,1,0,0:0:0:0:
224,160,118733,1,0,0:0:0:0:
288,160,118850,1,8,0:0:0:0:
224,160,119085,1,0,0:0:0:0:
224,160,119202,1,0,0:0:0:0:
288,160,119436,1,8,0:0:0:0:
288,160,119554,1,8,0:0:0:0:
224,160,119788,1,0,0:0:0:0:
288,160,119905,1,8,0:0:0:0:
224,160,120140,1,0,0:0:0:0:
288,160,120374,1,8,0:0:0:0:
224,160,120530,1,0,0:0:0:0:
288,160,120608,1,8,0:0:0:0:
288,160,120843,1,8,0:0:0:0:
224,160,120999,1,0,0:0:0:0:
288,160,121077,1,8,0:0:0:0:
288,160,121311,1,8,0:0:0:0:
224,160,121468,1,0,0:0:0:0:
288,160,121546,1,8,0:0:0:0:
288,160,121780,1,8,0:0:0:0:
224,160,122015,1,0,0:0:0:0:
288,160,122249,1,8,0:0:0:0:
224,160,122405,1,0,0:0:0:0:
288,160,122483,1,8,0:0:0:0:
288,160,122640,1,8,0:0:0:0:
224,160,122874,1,0,0:0:0:0:
224,160,122952,1,0,0:0:0:0:
224,160,123186,1,0,0:0:0:0:
288,160,123343,1,8,0:0:0:0:
224,160,123421,1,0,0:0:0:0:
288,160,123655,1,8,0:0:0:0:
288,160,123811,1,8,0:0:0:0:
224,160,123890,1,0,0:0:0:0:
288,160,124124,1,8,0:0:0:0:
224,160,124280,1,0,0:0:0:0:
288,160,124358,1,8,0:0:0:0:
288,160,124593,1,8,0:0:0:0:
224,160,124749,1,0,0:0:0:0:
288,160,124827,1,8,0:0:0:0:
288,160,125061,1,8,0:0:0:0:
224,160,125218,1,0,0:0:0:0:
288,160,125296,1,8,0:0:0:0:
288,160,125530,1,8,0:0:0:0:
224,160,125765,1,0,0:0:0:0:
288,160,125999,1,8,0:0:0:0:
224,160,126155,1,0,0:0:0:0:
288,160,126233,1,8,0:0:0:0:
288,160,126390,1,8,0:0:0:0:
224,160,126624,1,0,0:0:0:0:
288,160,126702,1,8,0:0:0:0:
224,160,126858,1,0,0:0:0:0:
224,160,126936,1,0,0:0:0:0:
224,160,127171,1,0,0:0:0:0:
224,160,127327,1,0,0:0:0:0:
288,160,127405,1,8,0:0:0:0:
288,160,127561,1,8,0:0:0:0:
224,160,127640,1,0,0:0:0:0:
288,160,127874,1,8,0:0:0:0:
224,160,128030,1,0,0:0:0:0:
288,160,128108,1,8,0:0:0:0:
288,160,128343,1,8,0:0:0:0:
224,160,128499,1,0,0:0:0:0:
288,160,128577,1,8,0:0:0:0:
288,160,128811,1,8,0:0:0:0:
224,160,128968,1,0,0:0:0:0:
288,160,129046,1,8,0:0:0:0:
288,160,129280,1,8,0:0:0:0:
224,160,129515,1,0,0:0:0:0:
224,160,129671,1,0,0:0:0:0:
288,160,129749,1,8,0:0:0:0:
224,160,129905,1,0,0:0:0:0:
288,160,129983,1,8,0:0:0:0:
288,160,130140,1,8,0:0:0:0:
224,160,130374,1,0,0:0:0:0:
288,160,130452,1,8,0:0:0:0:
288,160,130686,1,8,0:0:0:0:
224,160,130843,1,0,0:0:0:0:
224,160,130921,1,0,0:0:0:0:
288,160,131155,1,8,0:0:0:0:
288,160,131311,1,8,0:0:0:0:
224,160,131390,1,0,0:0:0:0:
224,160,131507,1,0,0:0:0:0:
288,160,131624,1,8,0:0:0:0:
288,160,131975,1,8,0:0:0:0:
224,160,132093,1,0,0:0:0:0:
224,160,132210,1,0,0:0:0:0:
224,160,132327,1,0,0:0:0:0:
288,160,132444,1,8,0:0:0:0:
288,160,132561,1,8,0:0:0:0:
224,160,132679,1,0,0:0:0:0:
224,160,132796,1,0,0:0:0:0:
288,160,133030,1,8,0:0:0:0:
224,160,133265,1,0,0:0:0:0:
288,160,133382,1,8,0:0:0:0:
288,160,133499,1,8,0:0:0:0:
224,160,133616,1,0,0:0:0:0:
288,160,133733,1,8,0:0:0:0:
288,160,133850,1,8,0:0:0:0:
224,160,134124,1,0,0:0:0:0:
288,160,134202,1,8,0:0:0:0:
224,160,134436,1,0,0:0:0:0:
288,160,134593,1,8,0:0:0:0:
288,160,134827,1,8,0:0:0:0:
288,160,134905,1,8,0:0:0:0:
288,160,135061,1,8,0:0:0:0:
