osu file format v14

[General]
AudioFilename: audio.mp3
AudioLeadIn: 0
PreviewTime: -1
Countdown: 0
SampleSet: None
StackLeniency: 0.7
Mode: 3
LetterboxInBreaks: 0
SpecialStyle: 0
WidescreenStoryboard: 1

[Editor]
Bookmarks: 18301,31362,44423,57484,98301,111362,152178
DistanceSpacing: 0.9
BeatDivisor: 4
GridSize: 16
TimelineZoom: 0.9999999

[Metadata]
Title:Scatman World
TitleUnicode:Scatman World
Artist:John Scatman
ArtistUnicode:John Scatman
Creator:Mat
Version:EZ clap
Source:
Tags:
BeatmapID:1573839
BeatmapSetID:744756

[Difficulty]
HPDrainRate:6
CircleSize:4
OverallDifficulty:7
ApproachRate:5
SliderMultiplier:1.4
SliderTickRate:1

[Events]
//Background and Video events
0,0,"scasdatman.jpg",0,0
//Break Periods
2,7888,17101
2,23195,43223
//Storyboard Layer 0 (Background)
//Storyboard Layer 1 (Fail)
//Storyboard Layer 2 (Pass)
//Storyboard Layer 3 (Foreground)
//Storyboard Sound Samples

[TimingPoints]
342,408.163265306122,4,1,0,30,1,0
72178,-100,4,1,0,30,0,1
85239,-100,4,1,0,30,0,0
126056,-100,4,1,0,30,0,1
139117,-100,4,1,0,30,0,0
165239,-100,4,1,0,30,0,1
178301,-100,4,1,0,30,0,0
194627,-100,4,1,0,30,0,1
207688,-100,4,1,0,30,0,0

[HitObjects]
448,192,342,5,0,0:0:0:0:
64,192,546,1,0,0:0:0:0:
192,192,648,1,0,0:0:0:0:
320,192,750,1,0,0:0:0:0:
448,192,954,1,0,0:0:0:0:
320,192,1056,1,0,0:0:0:0:
64,192,1260,1,0,0:0:0:0:
192,192,1362,1,0,0:0:0:0:
448,192,1566,1,0,0:0:0:0:
320,192,1668,1,0,0:0:0:0:
192,192,1770,1,0,0:0:0:0:
64,192,1872,1,0,0:0:0:0:
448,192,1974,1,0,0:0:0:0:
192,192,2178,1,0,0:0:0:0:
320,192,2280,1,0,0:0:0:0:
64,192,2484,1,0,0:0:0:0:
448,192,2586,1,0,0:0:0:0:
320,192,2688,1,0,0:0:0:0:
64,192,2893,1,0,0:0:0:0:
192,192,2995,1,0,0:0:0:0:
448,192,3097,1,0,0:0:0:0:
320,192,3199,1,0,0:0:0:0:
192,192,3301,1,0,0:0:0:0:
64,192,3658,128,0,3964:0:0:0:0:
448,192,3964,128,0,4372:0:0:0:0:
192,192,4372,128,0,5239:0:0:0:0:
448,192,5239,1,0,0:0:0:0:
64,192,5444,1,0,0:0:0:0:
320,192,5648,1,0,0:0:0:0:
192,192,5852,1,0,0:0:0:0:
320,192,6056,1,0,0:0:0:0:
192,192,6260,1,0,0:0:0:0:
320,192,6464,1,0,0:0:0:0:
192,192,6668,1,0,0:0:0:0:
320,192,6872,1,0,0:0:0:0:
192,192,7076,1,0,0:0:0:0:
320,192,7280,1,0,0:0:0:0:
192,192,7484,1,0,0:0:0:0:
320,192,7688,1,0,0:0:0:0:
64,192,18301,5,0,0:0:0:0:
192,192,18505,1,0,0:0:0:0:
448,192,18709,1,0,0:0:0:0:
192,192,18913,1,0,0:0:0:0:
320,192,19015,1,0,0:0:0:0:
64,192,19219,1,0,0:0:0:0:
448,192,19423,1,0,0:0:0:0:
320,192,19525,1,0,0:0:0:0:
64,192,19729,1,0,0:0:0:0:
320,192,19933,1,0,0:0:0:0:
192,192,20137,1,0,0:0:0:0:
64,192,20341,1,0,0:0:0:0:
448,192,20546,1,0,0:0:0:0:
192,192,20648,1,0,0:0:0:0:
64,192,20852,1,0,0:0:0:0:
320,192,21056,1,0,0:0:0:0:
448,192,21158,1,0,0:0:0:0:
64,192,21362,1,0,0:0:0:0:
448,192,21566,1,0,0:0:0:0:
320,192,21770,1,0,0:0:0:0:
64,192,21974,1,0,0:0:0:0:
320,192,22178,1,0,0:0:0:0:
192,192,22280,1,0,0:0:0:0:
448,192,22484,1,0,0:0:0:0:
64,192,22688,1,0,0:0:0:0:
192,192,22790,1,0,0:0:0:0:
448,192,22995,1,0,0:0:0:0:
64,192,44423,5,0,0:0:0:0:
192,192,44525,1,0,0:0:0:0:
320,192,44627,1,0,0:0:0:0:
448,192,44729,1,0,0:0:0:0:
192,192,44831,1,0,0:0:0:0:
64,192,44933,1,0,0:0:0:0:
448,192,45035,1,0,0:0:0:0:
320,192,45137,1,0,0:0:0:0:
192,192,45239,1,0,0:0:0:0:
64,192,45341,1,0,0:0:0:0:
320,192,45444,1,0,0:0:0:0:
448,192,45546,1,0,0:0:0:0:
64,192,45648,1,0,0:0:0:0:
192,192,45750,1,0,0:0:0:0:
448,192,45852,1,0,0:0:0:0:
320,192,45954,1,0,0:0:0:0:
192,192,46056,1,0,0:0:0:0:
64,192,46158,1,0,0:0:0:0:
320,192,46260,1,0,0:0:0:0:
192,192,46362,1,0,0:0:0:0:
64,192,46464,1,0,0:0:0:0:
320,192,46566,1,0,0:0:0:0:
448,192,46668,1,0,0:0:0:0:
64,192,46770,1,0,0:0:0:0:
192,192,46872,1,0,0:0:0:0:
320,192,46974,1,0,0:0:0:0:
448,192,47076,1,0,0:0:0:0:
64,192,47178,1,0,0:0:0:0:
192,192,47280,1,0,0:0:0:0:
320,192,47382,1,0,0:0:0:0:
64,192,47484,1,0,0:0:0:0:
192,192,47586,1,0,0:0:0:0:
448,192,47688,1,0,0:0:0:0:
320,192,47790,1,0,0:0:0:0:
192,192,47893,1,0,0:0:0:0:
64,192,47995,1,0,0:0:0:0:
320,192,48097,1,0,0:0:0:0:
448,192,48199,1,0,0:0:0:0:
192,192,48301,1,0,0:0:0:0:
64,192,48403,1,0,0:0:0:0:
320,192,48505,1,0,0:0:0:0:
448,192,48607,1,0,0:0:0:0:
192,192,48709,1,0,0:0:0:0:
320,192,48811,1,0,0:0:0:0:
448,192,48913,1,0,0:0:0:0:
64,192,48913,1,0,0:0:0:0:
192,192,49015,1,0,0:0:0:0:
320,192,49117,1,0,0:0:0:0:
448,192,49219,1,0,0:0:0:0:
192,192,49321,1,0,0:0:0:0:
64,192,49423,1,0,0:0:0:0:
320,192,49525,1,0,0:0:0:0:
448,192,49627,1,0,0:0:0:0:
64,192,49729,1,0,0:0:0:0:
192,192,49831,1,0,0:0:0:0:
320,192,49933,1,0,0:0:0:0:
448,192,50035,1,0,0:0:0:0:
320,192,50137,1,0,0:0:0:0:
192,192,50239,1,0,0:0:0:0:
64,192,50341,1,0,0:0:0:0:
448,192,50444,1,0,0:0:0:0:
320,192,50546,1,0,0:0:0:0:
192,192,50648,1,0,0:0:0:0:
64,192,50750,1,0,0:0:0:0:
448,192,50852,1,0,0:0:0:0:
320,192,50954,1,0,0:0:0:0:
64,192,51056,1,0,0:0:0:0:
192,192,51158,1,0,0:0:0:0:
320,192,51260,1,0,0:0:0:0:
64,192,51362,1,0,0:0:0:0:
192,192,51464,1,0,0:0:0:0:
448,192,51566,1,0,0:0:0:0:
320,192,51668,1,0,0:0:0:0:
192,192,51770,1,0,0:0:0:0:
64,192,51872,1,0,0:0:0:0:
448,192,51974,1,0,0:0:0:0:
320,192,52076,1,0,0:0:0:0:
64,192,52178,1,0,0:0:0:0:
192,192,52280,1,0,0:0:0:0:
448,192,52382,1,0,0:0:0:0:
320,192,52484,1,0,0:0:0:0:
192,192,52586,1,0,0:0:0:0:
64,192,52688,1,0,0:0:0:0:
192,192,52790,1,0,0:0:0:0:
320,192,52893,1,0,0:0:0:0:
448,192,52995,1,0,0:0:0:0:
64,192,53097,1,0,0:0:0:0:
192,192,53199,1,0,0:0:0:0:
448,192,53301,1,0,0:0:0:0:
320,192,53403,1,0,0:0:0:0:
192,192,53505,1,0,0:0:0:0:
64,192,53607,1,0,0:0:0:0:
320,192,53709,1,0,0:0:0:0:
192,192,53811,1,0,0:0:0:0:
448,192,53913,1,0,0:0:0:0:
320,192,54015,1,0,0:0:0:0:
64,192,54117,1,0,0:0:0:0:
192,192,54219,1,0,0:0:0:0:
320,192,54321,1,0,0:0:0:0:
448,192,54423,1,0,0:0:0:0:
192,192,54525,1,0,0:0:0:0:
320,192,54627,1,0,0:0:0:0:
64,192,54729,1,0,0:0:0:0:
192,192,54831,1,0,0:0:0:0:
448,192,54933,1,0,0:0:0:0:
320,192,55035,1,0,0:0:0:0:
192,192,55137,1,0,0:0:0:0:
64,192,55239,1,0,0:0:0:0:
448,192,55341,1,0,0:0:0:0:
320,192,55444,1,0,0:0:0:0:
64,192,55546,1,0,0:0:0:0:
192,192,55648,1,0,0:0:0:0:
320,192,55750,1,0,0:0:0:0:
448,192,55852,1,0,0:0:0:0:
64,192,55954,1,0,0:0:0:0:
192,192,56056,1,0,0:0:0:0:
448,192,56158,1,0,0:0:0:0:
320,192,56260,1,0,0:0:0:0:
192,192,56362,1,0,0:0:0:0:
64,192,56464,1,0,0:0:0:0:
320,192,56566,1,0,0:0:0:0:
448,192,56668,1,0,0:0:0:0:
192,192,56770,1,0,0:0:0:0:
64,192,56872,1,0,0:0:0:0:
320,192,56974,1,0,0:0:0:0:
192,192,57076,1,0,0:0:0:0:
64,192,57178,1,0,0:0:0:0:
448,192,57280,1,0,0:0:0:0:
320,192,57382,1,0,0:0:0:0:
64,192,57484,1,0,0:0:0:0:
64,192,72178,1,0,0:0:0:0:
448,192,72178,1,0,0:0:0:0:
320,192,72484,1,0,0:0:0:0:
192,192,72484,1,0,0:0:0:0:
64,192,72790,1,0,0:0:0:0:
448,192,72790,1,0,0:0:0:0:
448,192,73199,1,0,0:0:0:0:
320,192,73199,1,0,0:0:0:0:
64,192,73403,1,0,0:0:0:0:
192,192,73505,1,0,0:0:0:0:
320,192,73607,1,0,0:0:0:0:
448,192,73811,1,0,0:0:0:0:
64,192,73811,1,0,0:0:0:0:
192,192,74117,1,0,0:0:0:0:
64,192,74117,1,0,0:0:0:0:
448,192,74423,1,0,0:0:0:0:
320,192,74423,1,0,0:0:0:0:
448,192,74831,1,0,0:0:0:0:
64,192,74831,1,0,0:0:0:0:
320,192,75035,1,0,0:0:0:0:
192,192,75137,1,0,0:0:0:0:
64,192,75239,1,0,0:0:0:0:
