osu file format v14

[General]
AudioFilename: John Maus - Just Wait Till Next Year.mp3
AudioLeadIn: 0
PreviewTime: 9596
Countdown: 0
SampleSet: Normal
StackLeniency: 0.2
Mode: 3
LetterboxInBreaks: 0
SpecialStyle: 1
WidescreenStoryboard: 1

[Editor]
DistanceSpacing: 0.5
BeatDivisor: 4
GridSize: 4
TimelineZoom: 2.3

[Metadata]
Title:Just Wait Till Next Year
TitleUnicode:Just Wait Till Next Year
Artist:John Maus
ArtistUnicode:John Maus
Creator:MAX WiRED
Version:Oh... Oh... I feel so stupid when you are around
Source:
Tags:Songs 2006 Indie Experimental Lo-Fi English Chordjack Stamina Redux Dereku
BeatmapID:1758546
BeatmapSetID:840074

[Difficulty]
HPDrainRate:7
CircleSize:4
OverallDifficulty:8
ApproachRate:5
SliderMultiplier:1.6
SliderTickRate:1

[Events]
//Background and Video events
0,0,"1519669614312.jpg",0,0
//Break Periods
//Storyboard Layer 0 (Background)
//Storyboard Layer 1 (Fail)
//Storyboard Layer 2 (Pass)
//Storyboard Layer 3 (Foreground)
//Storyboard Layer 4 (Overlay)
//Storyboard Sound Samples

[TimingPoints]
110,296.442687747036,4,1,0,5,1,0
104457,297.029702970297,4,1,0,5,1,0

[HitObjects]
64,192,110,5,0,0:0:0:0:
192,192,110,1,0,0:0:0:0:
320,192,110,1,0,0:0:0:0:
448,192,184,1,0,0:0:0:0:
320,192,258,1,0,0:0:0:0:
64,192,332,1,0,0:0:0:0:
192,192,406,1,0,0:0:0:0:
320,192,406,1,0,0:0:0:0:
448,192,480,1,0,0:0:0:0:
64,192,554,1,0,0:0:0:0:
192,192,628,1,0,0:0:0:0:
448,192,702,1,0,0:0:0:0:
320,192,702,1,0,0:0:0:0:
64,192,702,1,0,0:0:0:0:
192,192,776,1,0,0:0:0:0:
448,192,851,1,0,0:0:0:0:
320,192,925,1,0,0:0:0:0:
192,192,999,1,0,0:0:0:0:
64,192,999,1,0,0:0:0:0:
448,192,999,1,0,0:0:0:0:
320,192,1073,1,0,0:0:0:0:
192,192,1147,1,0,0:0:0:0:
64,192,1221,1,0,0:0:0:0:
192,192,1295,1,0,0:0:0:0:
448,192,1295,1,0,0:0:0:0:
320,192,1295,1,0,0:0:0:0:
64,192,1369,1,0,0:0:0:0:
192,192,1443,1,0,0:0:0:0:
320,192,1518,1,0,0:0:0:0:
448,192,1592,1,0,0:0:0:0:
64,192,1592,1,0,0:0:0:0:
192,192,1666,1,0,0:0:0:0:
320,192,1740,1,0,0:0:0:0:
448,192,1814,1,0,0:0:0:0:
320,192,1888,1,0,0:0:0:0:
64,192,1888,1,0,0:0:0:0:
192,192,1888,1,0,0:0:0:0:
448,192,1962,1,0,0:0:0:0:
320,192,2036,1,0,0:0:0:0:
192,192,2110,1,0,0:0:0:0:
320,192,2185,1,0,0:0:0:0:
64,192,2185,1,0,0:0:0:0:
448,192,2185,1,0,0:0:0:0:
192,192,2259,1,0,0:0:0:0:
320,192,2333,1,0,0:0:0:0:
448,192,2407,1,0,0:0:0:0:
320,192,2481,1,0,0:0:0:0:
192,192,2481,1,0,0:0:0:0:
64,192,2481,1,0,0:0:0:0:
448,192,2555,1,0,0:0:0:0:
320,192,2629,1,0,0:0:0:0:
192,192,2703,1,0,0:0:0:0:
448,192,2777,1,0,0:0:0:0:
64,192,2777,1,0,0:0:0:0:
320,192,2852,1,0,0:0:0:0:
192,192,2926,1,0,0:0:0:0:
64,192,3000,1,0,0:0:0:0:
192,192,3074,1,0,0:0:0:0:
448,192,3074,1,0,0:0:0:0:
320,192,3074,1,0,0:0:0:0:
64,192,3148,1,0,0:0:0:0:
448,192,3222,1,0,0:0:0:0:
320,192,3296,1,0,0:0:0:0:
192,192,3370,1,0,0:0:0:0:
448,192,3370,1,0,0:0:0:0:
64,192,3370,1,0,0:0:0:0:
320,192,3444,1,0,0:0:0:0:
64,192,3519,1,0,0:0:0:0:
192,192,3593,1,0,0:0:0:0:
448,192,3667,1,0,0:0:0:0:
64,192,3667,1,0,0:0:0:0:
320,192,3667,1,0,0:0:0:0:
192,192,3741,1,0,0:0:0:0:
320,192,3815,1,0,0:0:0:0:
448,192,3889,1,0,0:0:0:0:
192,192,3963,1,0,0:0:0:0:
320,192,3963,1,0,0:0:0:0:
64,192,4037,1,0,0:0:0:0:
448,192,4111,1,0,0:0:0:0:
320,192,4186,1,0,0:0:0:0:
448,192,4260,1,0,0:0:0:0:
64,192,4260,1,0,0:0:0:0:
192,192,4260,1,0,0:0:0:0:
320,192,4334,1,0,0:0:0:0:
64,192,4408,1,0,0:0:0:0:
192,192,4482,1,0,0:0:0:0:
320,192,4556,1,0,0:0:0:0:
64,192,4556,1,0,0:0:0:0:
448,192,4556,1,0,0:0:0:0:
192,192,4630,1,0,0:0:0:0:
448,192,4704,1,0,0:0:0:0:
320,192,4778,1,0,0:0:0:0:
64,192,4853,1,0,0:0:0:0:
192,192,4853,1,0,0:0:0:0:
448,192,4853,1,0,0:0:0:0:
320,192,4927,1,0,0:0:0:0:
192,192,5001,1,0,0:0:0:0:
64,192,5075,1,0,0:0:0:0:
320,192,5149,1,0,0:0:0:0:
192,192,5149,1,0,0:0:0:0:
448,192,5223,1,0,0:0:0:0:
320,192,5297,1,0,0:0:0:0:
192,192,5371,1,0,0:0:0:0:
448,192,5445,1,0,0:0:0:0:
64,192,5445,1,0,0:0:0:0:
320,192,5445,1,0,0:0:0:0:
192,192,5520,1,0,0:0:0:0:
448,192,5594,1,0,0:0:0:0:
320,192,5668,1,0,0:0:0:0:
192,192,5742,1,0,0:0:0:0:
64,192,5742,1,0,0:0:0:0:
448,192,5742,1,0,0:0:0:0:
320,192,5816,1,0,0:0:0:0:
64,192,5890,1,0,0:0:0:0:
192,192,5964,1,0,0:0:0:0:
448,192,6038,1,0,0:0:0:0:
64,192,6038,1,0,0:0:0:0:
320,192,6038,1,0,0:0:0:0:
192,192,6112,1,0,0:0:0:0:
320,192,6187,1,0,0:0:0:0:
448,192,6261,1,0,0:0:0:0:
192,192,6335,1,0,0:0:0:0:
320,192,6335,1,0,0:0:0:0:
64,192,6409,1,0,0:0:0:0:
192,192,6483,1,0,0:0:0:0:
320,192,6557,1,0,0:0:0:0:
64,192,6631,1,0,0:0:0:0:
448,192,6631,1,0,0:0:0:0:
192,192,6631,1,0,0:0:0:0:
320,192,6705,1,0,0:0:0:0:
64,192,6779,1,0,0:0:0:0:
192,192,6854,1,0,0:0:0:0:
320,192,6928,1,0,0:0:0:0:
448,192,6928,1,0,0:0:0:0:
64,192,6928,1,0,0:0:0:0:
192,192,7002,1,0,0:0:0:0:
448,192,7076,1,0,0:0:0:0:
320,192,7150,1,0,0:0:0:0:
192,192,7224,1,0,0:0:0:0:
64,192,7224,1,0,0:0:0:0:
448,192,7224,1,0,0:0:0:0:
320,192,7298,1,0,0:0:0:0:
64,192,7372,1,0,0:0:0:0:
192,192,7446,1,0,0:0:0:0:
320,192,7521,1,0,0:0:0:0:
448,192,7521,1,0,0:0:0:0:
64,192,7595,1,0,0:0:0:0:
192,192,7669,1,0,0:0:0:0:
448,192,7743,1,0,0:0:0:0:
64,192,7817,1,0,0:0:0:0:
320,192,7817,1,0,0:0:0:0:
192,192,7817,1,0,0:0:0:0:
448,192,7891,1,0,0:0:0:0:
320,192,7965,1,0,0:0:0:0:
64,192,8039,1,0,0:0:0:0:
192,192,8113,1,0,0:0:0:0:
448,192,8113,1,0,0:0:0:0:
320,192,8113,1,0,0:0:0:0:
64,192,8188,1,0,0:0:0:0:
192,192,8262,1,0,0:0:0:0:
448,192,8336,1,0,0:0:0:0:
320,192,8410,1,0,0:0:0:0:
64,192,8410,1,0,0:0:0:0:
192,192,8410,1,0,0:0:0:0:
448,192,8484,1,0,0:0:0:0:
64,192,8558,1,0,0:0:0:0:
192,192,8632,1,0,0:0:0:0:
320,192,8706,1,0,0:0:0:0:
448,192,8706,1,0,0:0:0:0:
64,192,8706,1,0,0:0:0:0:
192,192,8780,1,0,0:0:0:0:
448,192,8855,1,0,0:0:0:0:
320,192,8929,1,0,0:0:0:0:
64,192,9003,1,0,0:0:0:0:
192,192,9003,1,0,0:0:0:0:
448,192,9003,1,0,0:0:0:0:
320,192,9077,1,0,0:0:0:0:
192,192,9151,1,0,0:0:0:0:
64,192,9225,1,0,0:0:0:0:
320,192,9299,1,0,0:0:0:0:
448,192,9299,1,0,0:0:0:0:
192,192,9299,1,0,0:0:0:0:
64,192,9373,1,0,0:0:0:0:
192,192,9447,1,0,0:0:0:0:
320,192,9447,1,0,0:0:0:0:
448,192,9522,1,0,0:0:0:0:
192,192,9596,1,0,0:0:0:0:
64,192,9596,1,0,0:0:0:0:
320,192,9596,1,0,0:0:0:0:
192,192,9744,1,0,0:0:0:0:
448,192,9744,1,0,0:0:0:0:
320,192,9744,1,0,0:0:0:0:
64,192,9892,1,0,0:0:0:0:
192,192,9892,1,0,0:0:0:0:
320,192,9892,1,0,0:0:0:0:
448,192,9892,1,0,0:0:0:0:
320,192,10040,1,0,0:0:0:0:
64,192,10040,1,0,0:0:0:0:
448,192,10040,1,0,0:0:0:0:
64,192,10189,1,0,0:0:0:0:
448,192,10189,1,0,0:0:0:0:
192,192,10189,1,0,0:0:0:0:
448,192,10337,1,0,0:0:0:0:
320,192,10337,1,0,0:0:0:0:
192,192,10337,1,0,0:0:0:0:
64,192,10485,1,0,0:0:0:0:
192,192,10485,1,0,0:0:0:0:
320,192,10485,1,0,0:0:0:0:
448,192,10485,1,0,0:0:0:0:
64,192,10633,1,0,0:0:0:0:
192,192,10633,1,0,0:0:0:0:
320,192,10633,1,0,0:0:0:0:
64,192,10781,1,0,0:0:0:0:
192,192,10781,1,0,0:0:0:0:
320,192,10781,1,0,0:0:0:0:
448,192,10781,1,0,0:0:0:0:
192,192,10930,1,0,0:0:0:0:
320,192,10930,1,0,0:0:0:0:
448,192,10930,1,0,0:0:0:0:
64,192,11078,1,0,0:0:0:0:
320,192,11078,1,0,0:0:0:0:
448,192,11078,1,0,0:0:0:0:
192,192,11078,1,0,0:0:0:0:
64,192,11226,1,0,0:0:0:0:
192,192,11226,1,0,0:0:0:0:
448,192,11226,1,0,0:0:0:0:
64,192,11374,1,0,0:0:0:0:
192,192,11374,1,0,0:0:0:0:
320,192,11374,1,0,0:0:0:0:
448,192,11374,1,0,0:0:0:0:
320,192,11523,1,0,0:0:0:0:
448,192,11523,1,0,0:0:0:0:
64,192,11523,1,0,0:0:0:0:
320,192,11671,1,0,0:0:0:0:
192,192,11671,1,0,0:0:0:0:
64,192,11671,1,0,0:0:0:0:
448,192,11671,1,0,0:0:0:0:
192,192,11819,1,0,0:0:0:0:
320,192,11819,1,0,0:0:0:0:
448,192,11819,1,0,0:0:0:0:
192,192,11967,1,0,0:0:0:0:
320,192,11967,1,0,0:0:0:0:
64,192,11967,1,0,0:0:0:0:
448,192,11967,1,0,0:0:0:0:
64,192,12115,1,0,0:0:0:0:
192,192,12115,1,0,0:0:0:0:
320,192,12115,1,0,0:0:0:0:
320,192,12264,1,0,0:0:0:0:
448,192,12264,1,0,0:0:0:0:
64,192,12264,1,0,0:0:0:0:
448,192,12412,1,0,0:0:0:0:
64,192,12412,1,0,0:0:0:0:
320,192,12412,1,0,0:0:0:0:
64,192,12560,1,0,0:0:0:0:
320,192,12560,1,0,0:0:0:0:
448,192,12560,1,0,0:0:0:0:
192,192,12560,1,0,0:0:0:0:
192,192,12708,1,0,0:0:0:0:
448,192,12708,1,0,0:0:0:0:
64,192,12708,1,0,0:0:0:0:
192,192,12857,1,0,0:0:0:0:
320,192,12857,1,0,0:0:0:0:
448,192,12857,1,0,0:0:0:0:
64,192,13005,1,0,0:0:0:0:
320,192,13005,1,0,0:0:0:0:
448,192,13005,1,0,0:0:0:0:
64,192,13153,1,0,0:0:0:0:
192,192,13153,1,0,0:0:0:0:
448,192,13153,1,0,0:0:0:0:
320,192,13153,1,0,0:0:0:0:
448,192,13301,1,0,0:0:0:0:
192,192,13301,1,0,0:0:0:0:
320,192,13301,1,0,0:0:0:0:
320,192,13449,1,0,0:0:0:0:
448,192,13449,1,0,0:0:0:0:
64,192,13449,1,0,0:0:0:0:
192,192,13598,1,0,0:0:0:0:
320,192,13598,1,0,0:0:0:0:
448,192,13598,1,0,0:0:0:0:
192,192,13746,1,0,0:0:0:0:
320,192,13746,1,0,0:0:0:0:
448,192,13746,1,0,0:0:0:0:
64,192,13746,1,0,0:0:0:0:
64,192,13894,1,0,0:0:0:0:
192,192,13894,1,0,0:0:0:0:
320,192,13894,1,0,0:0:0:0:
192,192,14042,1,0,0:0:0:0:
320,192,14042,1,0,0:0:0:0:
448,192,14042,1,0,0:0:0:0:
192,192,14191,1,0,0:0:0:0:
320,192,14191,1,0,0:0:0:0:
448,192,14191,1,0,0:0:0:0:
448,192,14339,1,0,0:0:0:0:
320,192,14339,1,0,0:0:0:0:
192,192,14339,1,0,0:0:0:0:
64,192,14339,1,0,0:0:0:0:
192,192,14487,1,0,0:0:0:0:
64,192,14487,1,0,0:0:0:0:
448,192,14635,1,0,0:0:0:0:
320,192,14635,1,0,0:0:0:0:
192,192,14635,1,0,0:0:0:0:
64,192,14635,1,0,0:0:0:0:
320,192,14783,1,0,0:0:0:0:
448,192,14783,1,0,0:0:0:0:
64,192,14932,1,0,0:0:0:0:
192,192,14932,1,0,0:0:0:0:
320,192,14932,1,0,0:0:0:0:
448,192,14932,1,0,0:0:0:0:
64,192,15080,1,0,0:0:0:0:
448,192,15080,1,0,0:0:0:0:
192,192,15080,1,0,0:0:0:0:
64,192,15228,1,0,0:0:0:0:
192,192,15228,1,0,0:0:0:0:
320,192,15228,1,0,0:0:0:0:
448,192,15228,1,0,0:0:0:0:
64,192,15376,1,0,0:0:0:0:
448,192,15376,1,0,0:0:0:0:
320,192,15376,1,0,0:0:0:0:
448,192,15525,1,0,0:0:0:0:
320,192,15525,1,0,0:0:0:0:
192,192,15525,1,0,0:0:0:0:
64,192,15525,1,0,0:0:0:0:
64,192,15673,1,0,0:0:0:0:
192,192,15673,1,0,0:0:0:0:
320,192,15673,1,0,0:0:0:0:
64,192,15821,1,0,0:0:0:0:
192,192,15821,1,0,0:0:0:0:
320,192,15821,1,0,0:0:0:0:
448,192,15821,1,0,0:0:0:0:
448,192,15969,1,0,0:0:0:0:
320,192,15969,1,0,0:0:0:0:
192,192,15969,1,0,0:0:0:0:
64,192,16117,1,0,0:0:0:0:
320,192,16117,1,0,0:0:0:0:
448,192,16117,1,0,0:0:0:0:
192,192,16117,1,0,0:0:0:0:
64,192,16266,1,0,0:0:0:0:
192,192,16266,1,0,0:0:0:0:
320,192,16266,1,0,0:0:0:0:
192,192,16414,1,0,0:0:0:0:
320,192,16414,1,0,0:0:0:0:
448,192,16414,1,0,0:0:0:0:
320,192,16562,1,0,0:0:0:0:
192,192,16562,1,0,0:0:0:0:
64,192,16562,1,0,0:0:0:0:
192,192,16710,1,0,0:0:0:0:
320,192,16710,1,0,0:0:0:0:
448,192,16710,1,0,0:0:0:0:
64,192,16710,1,0,0:0:0:0:
64,192,16859,1,0,0:0:0:0:
192,192,16859,1,0,0:0:0:0:
448,192,16859,1,0,0:0:0:0:
448,192,17007,1,0,0:0:0:0:
320,192,17007,1,0,0:0:0:0:
192,192,17007,1,0,0:0:0:0:
64,192,17007,1,0,0:0:0:0:
64,192,17155,1,0,0:0:0:0:
320,192,17155,1,0,0:0:0:0:
448,192,17155,1,0,0:0:0:0:
448,192,17303,1,0,0:0:0:0:
320,192,17303,1,0,0:0:0:0:
192,192,17303,1,0,0:0:0:0:
64,192,17303,1,0,0:0:0:0:
64,192,17451,1,0,0:0:0:0:
192,192,17451,1,0,0:0:0:0:
320,192,17451,1,0,0:0:0:0:
64,192,17600,1,0,0:0:0:0:
192,192,17600,1,0,0:0:0:0:
320,192,17600,1,0,0:0:0:0:
448,192,17600,1,0,0:0:0:0:
448,192,17748,1,0,0:0:0:0:
320,192,17748,1,0,0:0:0:0:
192,192,17748,1,0,0:0:0:0:
64,192,17896,1,0,0:0:0:0:
192,192,17896,1,0,0:0:0:0:
320,192,17896,1,0,0:0:0:0:
448,192,17896,1,0,0:0:0:0:
64,192,18044,1,0,0:0:0:0:
192,192,18044,1,0,0:0:0:0:
320,192,18044,1,0,0:0:0:0:
192,192,18193,1,0,0:0:0:0:
320,192,18193,1,0,0:0:0:0:
448,192,18193,1,0,0:0:0:0:
64,192,18341,1,0,0:0:0:0:
320,192,18341,1,0,0:0:0:0:
448,192,18341,1,0,0:0:0:0:
64,192,18489,1,0,0:0:0:0:
192,192,18489,1,0,0:0:0:0:
448,192,18489,1,0,0:0:0:0:
320,192,18489,1,0,0:0:0:0:
64,192,18637,1,0,0:0:0:0:
192,192,18637,1,0,0:0:0:0:
320,192,18637,1,0,0:0:0:0:
448,192,18637,1,0,0:0:0:0:
320,192,18785,1,0,0:0:0:0:
448,192,18785,1,0,0:0:0:0:
192,192,18860,1,0,0:0:0:0:
64,192,18860,1,0,0:0:0:0:
320,192,18934,1,0,0:0:0:0:
448,192,18934,1,0,0:0:0:0:
192,192,19008,1,0,0:0:0:0:
64,192,19008,1,0,0:0:0:0:
320,192,19082,1,0,0:0:0:0:
448,192,19082,1,0,0:0:0:0:
64,192,19230,1,0,0:0:0:0:
192,192,19230,1,0,0:0:0:0:
320,192,19230,1,0,0:0:0:0:
192,192,19378,1,0,0:0:0:0:
320,192,19378,1,0,0:0:0:0:
448,192,19378,1,0,0:0:0:0:
192,192,19526,1,0,0:0:0:0:
448,192,19526,1,0,0:0:0:0:
64,192,19526,1,0,0:0:0:0:
64,192,19675,1,0,0:0:0:0:
320,192,19675,1,0,0:0:0:0:
448,192,19675,1,0,0:0:0:0:
192,192,19675,1,0,0:0:0:0:
64,192,19823,1,0,0:0:0:0:
320,192,19823,1,0,0:0:0:0:
448,192,19823,1,0,0:0:0:0:
64,192,19971,1,0,0:0:0:0:
192,192,19971,1,0,0:0:0:0:
320,192,19971,1,0,0:0:0:0:
448,192,19971,1,0,0:0:0:0:
64,192,20119,1,0,0:0:0:0:
192,192,20119,1,0,0:0:0:0:
448,192,20119,1,0,0:0:0:0:
448,192,20268,1,0,0:0:0:0:
320,192,20268,1,0,0:0:0:0:
192,192,20268,1,0,0:0:0:0:
64,192,20268,1,0,0:0:0:0:
64,192,20416,1,0,0:0:0:0:
192,192,20416,1,0,0:0:0:0:
320,192,20416,1,0,0:0:0:0:
64,192,20564,1,0,0:0:0:0:
192,192,20564,1,0,0:0:0:0:
320,192,20564,1,0,0:0:0:0:
448,192,20564,1,0,0:0:0:0:
448,192,20712,1,0,0:0:0:0:
320,192,20712,1,0,0:0:0:0:
192,192,20712,1,0,0:0:0:0:
64,192,20860,1,0,0:0:0:0:
192,192,20860,1,0,0:0:0:0:
320,192,20860,1,0,0:0:0:0:
448,192,20860,1,0,0:0:0:0:
320,192,21009,1,0,0:0:0:0:
448,192,21009,1,0,0:0:0:0:
64,192,21009,1,0,0:0:0:0:
64,192,21157,1,0,0:0:0:0:
192,192,21157,1,0,0:0:0:0:
320,192,21157,1,0,0:0:0:0:
448,192,21157,1,0,0:0:0:0:
64,192,21305,1,0,0:0:0:0:
192,192,21305,1,0,0:0:0:0:
448,192,21305,1,0,0:0:0:0:
448,192,21453,1,0,0:0:0:0:
320,192,21453,1,0,0:0:0:0:
64,192,21453,1,0,0:0:0:0:
192,192,21453,1,0,0:0:0:0:
64,192,21602,1,0,0:0:0:0:
192,192,21602,1,0,0:0:0:0:
320,192,21602,1,0,0:0:0:0:
64,192,21750,1,0,0:0:0:0:
320,192,21750,1,0,0:0:0:0:
448,192,21750,1,0,0:0:0:0:
64,192,21898,1,0,0:0:0:0:
192,192,21898,1,0,0:0:0:0:
448,192,21898,1,0,0:0:0:0:
192,192,22046,1,0,0:0:0:0:
320,192,22046,1,0,0:0:0:0:
448,192,22046,1,0,0:0:0:0:
64,192,22046,1,0,0:0:0:0:
64,192,22194,1,0,0:0:0:0:
192,192,22194,1,0,0:0:0:0:
320,192,22194,1,0,0:0:0:0:
192,192,22343,1,0,0:0:0:0:
320,192,22343,1,0,0:0:0:0:
448,192,22343,1,0,0:0:0:0:
64,192,22343,1,0,0:0:0:0:
192,192,22491,1,0,0:0:0:0:
320,192,22491,1,0,0:0:0:0:
448,192,22491,1,0,0:0:0:0:
320,192,22639,1,0,0:0:0:0:
192,192,22639,1,0,0:0:0:0:
64,192,22639,1,0,0:0:0:0:
448,192,22639,1,0,0:0:0:0:
64,192,22787,1,0,0:0:0:0:
192,192,22787,1,0,0:0:0:0:
320,192,22787,1,0,0:0:0:0:
64,192,22936,1,0,0:0:0:0:
320,192,22936,1,0,0:0:0:0:
448,192,22936,1,0,0:0:0:0:
192,192,23084,1,0,0:0:0:0:
320,192,23084,1,0,0:0:0:0:
448,192,23084,1,0,0:0:0:0:
64,192,23232,1,0,0:0:0:0:
192,192,23232,1,0,0:0:0:0:
448,192,23232,1,0,0:0:0:0:
320,192,23232,1,0,0:0:0:0:
64,192,23380,1,0,0:0:0:0:
192,192,23380,1,0,0:0:0:0:
64,192,23528,1,0,0:0:0:0:
192,192,23528,1,0,0:0:0:0:
320,192,23528,1,0,0:0:0:0:
448,192,23528,1,0,0:0:0:0:
448,192,23677,1,0,0:0:0:0:
320,192,23677,1,0,0:0:0:0:
320,192,23825,1,0,0:0:0:0:
448,192,23825,1,0,0:0:0:0:
192,192,23825,1,0,0:0:0:0:
64,192,23825,1,0,0:0:0:0:
192,192,23973,1,0,0:0:0:0:
320,192,23973,1,0,0:0:0:0:
64,192,24121,1,0,0:0:0:0:
192,192,24121,1,0,0:0:0:0:
320,192,24121,1,0,0:0:0:0:
448,192,24121,1,0,0:0:0:0:
64,192,24270,1,0,0:0:0:0:
192,192,24270,1,0,0:0:0:0:
64,192,24418,1,0,0:0:0:0:
192,192,24418,1,0,0:0:0:0:
320,192,24418,1,0,0:0:0:0:
448,192,24418,1,0,0:0:0:0:
448,192,24566,1,0,0:0:0:0:
320,192,24566,1,0,0:0:0:0:
320,192,24714,1,0,0:0:0:0:
448,192,24714,1,0,0:0:0:0:
192,192,24714,1,0,0:0:0:0:
64,192,24714,1,0,0:0:0:0:
64,192,24862,1,0,0:0:0:0:
320,192,24862,1,0,0:0:0:0:
448,192,24862,1,0,0:0:0:0:
64,192,25011,1,0,0:0:0:0:
192,192,25011,1,0,0:0:0:0:
320,192,25011,1,0,0:0:0:0:
448,192,25011,1,0,0:0:0:0:
64,192,25159,1,0,0:0:0:0:
192,192,25159,1,0,0:0:0:0:
448,192,25159,1,0,0:0:0:0:
448,192,25307,1,0,0:0:0:0:
320,192,25307,1,0,0:0:0:0:
192,192,25307,1,0,0:0:0:0:
64,192,25307,1,0,0:0:0:0:
64,192,25455,1,0,0:0:0:0:
192,192,25455,1,0,0:0:0:0:
320,192,25455,1,0,0:0:0:0:
64,192,25604,1,0,0:0:0:0:
192,192,25604,1,0,0:0:0:0:
320,192,25604,1,0,0:0:0:0:
448,192,25604,1,0,0:0:0:0:
448,192,25752,1,0,0:0:0:0:
320,192,25752,1,0,0:0:0:0:
192,192,25752,1,0,0:0:0:0:
64,192,25900,1,0,0:0:0:0:
192,192,25900,1,0,0:0:0:0:
320,192,25900,1,0,0:0:0:0:
448,192,25900,1,0,0:0:0:0:
64,192,26048,1,0,0:0:0:0:
192,192,26048,1,0,0:0:0:0:
320,192,26048,1,0,0:0:0:0:
448,192,26048,1,0,0:0:0:0:
448,192,26196,1,0,0:0:0:0:
320,192,26196,1,0,0:0:0:0:
192,192,26196,1,0,0:0:0:0:
64,192,26196,1,0,0:0:0:0:
64,192,26345,1,0,0:0:0:0:
320,192,26345,1,0,0:0:0:0:
448,192,26345,1,0,0:0:0:0:
64,192,26493,1,0,0:0:0:0:
192,192,26493,1,0,0:0:0:0:
320,192,26493,1,0,0:0:0:0:
448,192,26493,1,0,0:0:0:0:
64,192,26641,1,0,0:0:0:0:
192,192,26641,1,0,0:0:0:0:
448,192,26641,1,0,0:0:0:0:
64,192,26789,1,0,0:0:0:0:
192,192,26789,1,0,0:0:0:0:
320,192,26789,1,0,0:0:0:0:
448,192,26789,1,0,0:0:0:0:
64,192,26938,1,0,0:0:0:0:
192,192,26938,1,0,0:0:0:0:
320,192,26938,1,0,0:0:0:0:
64,192,27086,1,0,0:0:0:0:
192,192,27086,1,0,0:0:0:0:
320,192,27086,1,0,0:0:0:0:
448,192,27086,1,0,0:0:0:0:
448,192,27234,1,0,0:0:0:0:
320,192,27234,1,0,0:0:0:0:
192,192,27234,1,0,0:0:0:0:
64,192,27382,1,0,0:0:0:0:
192,192,27382,1,0,0:0:0:0:
320,192,27382,1,0,0:0:0:0:
448,192,27382,1,0,0:0:0:0:
64,192,27530,1,0,0:0:0:0:
192,192,27530,1,0,0:0:0:0:
448,192,27530,1,0,0:0:0:0:
64,192,27679,1,0,0:0:0:0:
192,192,27679,1,0,0:0:0:0:
320,192,27679,1,0,0:0:0:0:
448,192,27679,1,0,0:0:0:0:
64,192,27827,1,0,0:0:0:0:
320,192,27827,1,0,0:0:0:0:
448,192,27827,1,0,0:0:0:0:
448,192,27975,1,0,0:0:0:0:
320,192,27975,1,0,0:0:0:0:
192,192,27975,1,0,0:0:0:0:
64,192,27975,1,0,0:0:0:0:
64,192,28123,1,0,0:0:0:0:
192,192,28123,1,0,0:0:0:0:
320,192,28123,1,0,0:0:0:0:
448,192,28123,1,0,0:0:0:0:
64,192,28272,1,0,0:0:0:0:
192,192,28272,1,0,0:0:0:0:
320,192,28346,1,0,0:0:0:0:
448,192,28346,1,0,0:0:0:0:
64,192,28420,1,0,0:0:0:0:
192,192,28420,1,0,0:0:0:0:
320,192,28494,1,0,0:0:0:0:
448,192,28494,1,0,0:0:0:0:
192,192,28568,1,0,0:0:0:0:
64,192,28568,1,0,0:0:0:0:
448,192,28642,1,0,0:0:0:0:
320,192,28716,1,0,0:0:0:0:
192,192,28790,1,0,0:0:0:0:
320,192,28864,1,0,0:0:0:0:
448,192,28864,1,0,0:0:0:0:
320,192,29013,1,0,0:0:0:0:
448,192,29013,1,0,0:0:0:0:
64,192,29161,1,0,0:0:0:0:
320,192,29161,1,0,0:0:0:0:
192,192,29161,1,0,0:0:0:0:
448,192,29161,1,0,0:0:0:0:
192,192,29309,1,0,0:0:0:0:
64,192,29309,1,0,0:0:0:0:
192,192,29457,1,0,0:0:0:0:
448,192,29457,1,0,0:0:0:0:
64,192,29457,1,0,0:0:0:0:
320,192,29606,1,0,0:0:0:0:
192,192,29754,1,0,0:0:0:0:
64,192,29754,1,0,0:0:0:0:
448,192,29902,1,0,0:0:0:0:
320,192,30050,1,0,0:0:0:0:
192,192,30050,1,0,0:0:0:0:
64,192,30198,1,0,0:0:0:0:
192,192,30347,1,0,0:0:0:0:
320,192,30347,1,0,0:0:0:0:
448,192,30347,1,0,0:0:0:0:
64,192,30495,1,0,0:0:0:0:
192,192,30643,1,0,0:0:0:0:
320,192,30643,1,0,0:0:0:0:
448,192,30791,1,0,0:0:0:0:
320,192,30940,1,0,0:0:0:0:
192,192,30940,1,0,0:0:0:0:
64,192,30940,1,0,0:0:0:0:
448,192,31088,1,0,0:0:0:0:
64,192,31236,1,0,0:0:0:0:
320,192,31236,1,0,0:0:0:0:
192,192,31384,1,0,0:0:0:0:
320,192,31532,1,0,0:0:0:0:
448,192,31532,1,0,0:0:0:0:
320,192,31681,1,0,0:0:0:0:
448,192,31681,1,0,0:0:0:0:
448,192,31829,1,0,0:0:0:0:
320,192,31829,1,0,0:0:0:0:
64,192,31829,1,0,0:0:0:0:
192,192,31829,1,0,0:0:0:0:
64,192,31977,1,0,0:0:0:0:
192,192,31977,1,0,0:0:0:0:
64,192,32125,1,0,0:0:0:0:
192,192,32125,1,0,0:0:0:0:
448,192,32125,1,0,0:0:0:0:
320,192,32274,1,0,0:0:0:0:
192,192,32422,1,0,0:0:0:0:
64,192,32422,1,0,0:0:0:0:
448,192,32570,1,0,0:0:0:0:
320,192,32718,1,0,0:0:0:0:
64,192,32718,1,0,0:0:0:0:
64,192,32866,1,0,0:0:0:0:
320,192,32866,1,0,0:0:0:0:
64,192,33015,1,0,0:0:0:0:
192,192,33015,1,0,0:0:0:0:
320,192,33015,1,0,0:0:0:0:
448,192,33015,1,0,0:0:0:0:
448,192,33163,1,0,0:0:0:0:
192,192,33163,1,0,0:0:0:0:
192,192,33311,1,0,0:0:0:0:
448,192,33311,1,0,0:0:0:0:
64,192,33385,1,0,0:0:0:0:
192,192,33459,1,0,0:0:0:0:
320,192,33533,1,0,0:0:0:0:
192,192,33608,1,0,0:0:0:0:
64,192,33608,1,0,0:0:0:0:
64,192,33756,1,0,0:0:0:0:
192,192,33756,1,0,0:0:0:0:
64,192,33904,1,0,0:0:0:0:
192,192,33904,1,0,0:0:0:0:
320,192,33904,1,0,0:0:0:0:
448,192,33904,1,0,0:0:0:0:
448,192,34052,1,0,0:0:0:0:
320,192,34052,1,0,0:0:0:0:
448,192,34200,1,0,0:0:0:0:
64,192,34200,1,0,0:0:0:0:
320,192,34200,1,0,0:0:0:0:
192,192,34349,1,0,0:0:0:0:
320,192,34497,1,0,0:0:0:0:
448,192,34497,1,0,0:0:0:0:
64,192,34645,1,0,0:0:0:0:
192,192,34793,1,0,0:0:0:0:
320,192,34793,1,0,0:0:0:0:
448,192,34942,1,0,0:0:0:0:
192,192,35090,1,0,0:0:0:0:
64,192,35090,1,0,0:0:0:0:
64,192,35238,1,0,0:0:0:0:
192,192,35238,1,0,0:0:0:0:
64,192,35386,1,0,0:0:0:0:
192,192,35386,1,0,0:0:0:0:
320,192,35386,1,0,0:0:0:0:
448,192,35386,1,0,0:0:0:0:
448,192,35534,1,0,0:0:0:0:
320,192,35534,1,0,0:0:0:0:
320,192,35683,1,0,0:0:0:0:
448,192,35683,1,0,0:0:0:0:
64,192,35683,1,0,0:0:0:0:
192,192,35831,1,0,0:0:0:0:
320,192,35979,1,0,0:0:0:0:
448,192,35979,1,0,0:0:0:0:
64,192,36127,1,0,0:0:0:0:
192,192,36276,1,0,0:0:0:0:
320,192,36276,1,0,0:0:0:0:
448,192,36424,1,0,0:0:0:0:
64,192,36572,1,0,0:0:0:0:
320,192,36572,1,0,0:0:0:0:
192,192,36720,1,0,0:0:0:0:
320,192,36868,1,0,0:0:0:0:
448,192,36868,1,0,0:0:0:0:
320,192,37017,1,0,0:0:0:0:
448,192,37017,1,0,0:0:0:0:
448,192,37165,1,0,0:0:0:0:
320,192,37165,1,0,0:0:0:0:
192,192,37165,1,0,0:0:0:0:
64,192,37165,1,0,0:0:0:0:
64,192,37313,1,0,0:0:0:0:
192,192,37313,1,0,0:0:0:0:
64,192,37461,1,0,0:0:0:0:
192,192,37461,1,0,0:0:0:0:
320,192,37461,1,0,0:0:0:0:
448,192,37461,1,0,0:0:0:0:
448,192,37610,1,0,0:0:0:0:
192,192,37610,1,0,0:0:0:0:
192,192,37758,1,0,0:0:0:0:
448,192,37758,1,0,0:0:0:0:
64,192,37758,1,0,0:0:0:0:
320,192,37758,1,0,0:0:0:0:
64,192,37906,1,0,0:0:0:0:
320,192,37906,1,0,0:0:0:0:
64,192,38054,1,0,0:0:0:0:
320,192,38054,1,0,0:0:0:0:
192,192,38128,1,0,0:0:0:0:
448,192,38202,1,0,0:0:0:0:
320,192,38276,1,0,0:0:0:0:
192,192,38351,1,0,0:0:0:0:
64,192,38351,1,0,0:0:0:0:
64,192,38499,1,0,0:0:0:0:
192,192,38499,1,0,0:0:0:0:
64,192,38647,1,0,0:0:0:0:
192,192,38647,1,0,0:0:0:0:
320,192,38647,1,0,0:0:0:0:
448,192,38647,1,0,0:0:0:0:
448,192,38795,1,0,0:0:0:0:
320,192,38795,1,0,0:0:0:0:
448,192,38943,1,0,0:0:0:0:
320,192,38943,1,0,0:0:0:0:
64,192,38943,1,0,0:0:0:0:
192,192,39092,1,0,0:0:0:0:
320,192,39240,1,0,0:0:0:0:
448,192,39240,1,0,0:0:0:0:
64,192,39388,1,0,0:0:0:0:
320,192,39536,1,0,0:0:0:0:
192,192,39536,1,0,0:0:0:0:
448,192,39685,1,0,0:0:0:0:
320,192,39833,1,0,0:0:0:0:
192,192,39833,1,0,0:0:0:0:
64,192,39833,1,0,0:0:0:0:
448,192,39981,1,0,0:0:0:0:
320,192,40129,1,0,0:0:0:0:
192,192,40129,1,0,0:0:0:0:
64,192,40277,1,0,0:0:0:0:
192,192,40426,1,0,0:0:0:0:
320,192,40426,1,0,0:0:0:0:
448,192,40426,1,0,0:0:0:0:
64,192,40574,1,0,0:0:0:0:
192,192,40722,1,0,0:0:0:0:
448,192,40722,1,0,0:0:0:0:
320,192,40870,1,0,0:0:0:0:
192,192,41019,1,0,0:0:0:0:
64,192,41019,1,0,0:0:0:0:
64,192,41167,1,0,0:0:0:0:
192,192,41167,1,0,0:0:0:0:
64,192,41315,1,0,0:0:0:0:
192,192,41315,1,0,0:0:0:0:
320,192,41315,1,0,0:0:0:0:
448,192,41315,1,0,0:0:0:0:
448,192,41463,1,0,0:0:0:0:
320,192,41463,1,0,0:0:0:0:
320,192,41611,1,0,0:0:0:0:
448,192,41611,1,0,0:0:0:0:
64,192,41611,1,0,0:0:0:0:
192,192,41760,1,0,0:0:0:0:
320,192,41908,1,0,0:0:0:0:
448,192,41908,1,0,0:0:0:0:
448,192,42056,1,0,0:0:0:0:
320,192,42056,1,0,0:0:0:0:
320,192,42204,1,0,0:0:0:0:
448,192,42204,1,0,0:0:0:0:
192,192,42204,1,0,0:0:0:0:
64,192,42204,1,0,0:0:0:0:
64,192,42353,1,0,0:0:0:0:
192,192,42353,1,0,0:0:0:0:
64,192,42501,1,0,0:0:0:0:
192,192,42501,1,0,0:0:0:0:
448,192,42501,1,0,0:0:0:0:
320,192,42649,1,0,0:0:0:0:
192,192,42797,1,0,0:0:0:0:
64,192,42797,1,0,0:0:0:0:
448,192,42871,1,0,0:0:0:0:
320,192,42945,1,0,0:0:0:0:
192,192,43020,1,0,0:0:0:0:
320,192,43094,1,0,0:0:0:0:
448,192,43094,1,0,0:0:0:0:
320,192,43242,1,0,0:0:0:0:
448,192,43242,1,0,0:0:0:0:
448,192,43390,1,0,0:0:0:0:
320,192,43390,1,0,0:0:0:0:
192,192,43390,1,0,0:0:0:0:
64,192,43390,1,0,0:0:0:0:
64,192,43538,1,0,0:0:0:0:
192,192,43538,1,0,0:0:0:0:
64,192,43687,1,0,0:0:0:0:
192,192,43687,1,0,0:0:0:0:
448,192,43687,1,0,0:0:0:0:
320,192,43835,1,0,0:0:0:0:
192,192,43983,1,0,0:0:0:0:
64,192,43983,1,0,0:0:0:0:
448,192,44131,1,0,0:0:0:0:
320,192,44279,1,0,0:0:0:0:
192,192,44279,1,0,0:0:0:0:
64,192,44428,1,0,0:0:0:0:
192,192,44576,1,0,0:0:0:0:
320,192,44576,1,0,0:0:0:0:
448,192,44576,1,0,0:0:0:0:
64,192,44724,1,0,0:0:0:0:
192,192,44872,1,0,0:0:0:0:
320,192,44872,1,0,0:0:0:0:
448,192,44872,1,0,0:0:0:0:
64,192,45021,1,0,0:0:0:0:
192,192,45169,128,0,45317:0:0:0:0:
320,192,45169,128,0,45317:0:0:0:0:
448,192,45169,128,0,45317:0:0:0:0:
192,192,45465,128,0,45613:0:0:0:0:
320,192,45465,128,0,45613:0:0:0:0:
448,192,45465,128,0,45613:0:0:0:0:
64,192,45762,1,0,0:0:0:0:
192,192,45762,1,0,0:0:0:0:
320,192,45762,1,0,0:0:0:0:
448,192,45910,1,0,0:0:0:0:
64,192,46058,128,0,46206:0:0:0:0:
192,192,46058,128,0,46206:0:0:0:0:
320,192,46058,128,0,46206:0:0:0:0:
64,192,46355,128,0,46503:0:0:0:0:
192,192,46355,128,0,46503:0:0:0:0:
320,192,46355,128,0,46503:0:0:0:0:
64,192,46651,1,0,0:0:0:0:
192,192,46651,1,0,0:0:0:0:
320,192,46651,1,0,0:0:0:0:
448,192,46651,1,0,0:0:0:0:
64,192,46947,1,0,0:0:0:0:
192,192,46947,1,0,0:0:0:0:
320,192,46947,1,0,0:0:0:0:
448,192,46947,1,0,0:0:0:0:
64,192,47022,1,0,0:0:0:0:
192,192,47022,1,0,0:0:0:0:
320,192,47022,1,0,0:0:0:0:
448,192,47022,1,0,0:0:0:0:
64,192,47244,1,0,0:0:0:0:
192,192,47244,1,0,0:0:0:0:
320,192,47244,1,0,0:0:0:0:
448,192,47244,1,0,0:0:0:0:
64,192,47318,1,0,0:0:0:0:
192,192,47318,1,0,0:0:0:0:
320,192,47318,1,0,0:0:0:0:
448,192,47318,1,0,0:0:0:0:
64,192,47540,1,0,0:0:0:0:
192,192,47540,1,0,0:0:0:0:
320,192,47540,1,0,0:0:0:0:
448,192,47540,1,0,0:0:0:0:
64,192,47689,1,0,0:0:0:0:
192,192,47689,1,0,0:0:0:0:
448,192,47689,1,0,0:0:0:0:
64,192,47837,1,0,0:0:0:0:
192,192,47837,1,0,0:0:0:0:
320,192,47837,1,0,0:0:0:0:
448,192,47837,1,0,0:0:0:0:
64,192,47985,1,0,0:0:0:0:
320,192,47985,1,0,0:0:0:0:
448,192,47985,1,0,0:0:0:0:
64,192,48133,1,0,0:0:0:0:
192,192,48133,1,0,0:0:0:0:
320,192,48133,1,0,0:0:0:0:
448,192,48133,1,0,0:0:0:0:
64,192,48281,1,0,0:0:0:0:
192,192,48281,1,0,0:0:0:0:
320,192,48281,1,0,0:0:0:0:
64,192,48430,1,0,0:0:0:0:
192,192,48430,1,0,0:0:0:0:
320,192,48430,1,0,0:0:0:0:
448,192,48430,1,0,0:0:0:0:
448,192,48578,1,0,0:0:0:0:
192,192,48578,1,0,0:0:0:0:
64,192,48578,1,0,0:0:0:0:
64,192,48726,1,0,0:0:0:0:
192,192,48726,1,0,0:0:0:0:
320,192,48726,1,0,0:0:0:0:
448,192,48726,1,0,0:0:0:0:
64,192,48874,1,0,0:0:0:0:
320,192,48874,1,0,0:0:0:0:
448,192,48874,1,0,0:0:0:0:
64,192,49023,1,0,0:0:0:0:
192,192,49023,1,0,0:0:0:0:
320,192,49023,1,0,0:0:0:0:
448,192,49023,1,0,0:0:0:0:
192,192,49171,1,0,0:0:0:0:
320,192,49171,1,0,0:0:0:0:
448,192,49171,1,0,0:0:0:0:
64,192,49319,1,0,0:0:0:0:
320,192,49319,1,0,0:0:0:0:
448,192,49319,1,0,0:0:0:0:
192,192,49319,1,0,0:0:0:0:
64,192,49467,1,0,0:0:0:0:
448,192,49467,1,0,0:0:0:0:
192,192,49467,1,0,0:0:0:0:
64,192,49615,1,0,0:0:0:0:
192,192,49615,1,0,0:0:0:0:
448,192,49615,1,0,0:0:0:0:
320,192,49615,1,0,0:0:0:0:
192,192,49764,1,0,0:0:0:0:
320,192,49764,1,0,0:0:0:0:
64,192,49764,1,0,0:0:0:0:
64,192,49912,1,0,0:0:0:0:
192,192,49912,1,0,0:0:0:0:
448,192,49912,1,0,0:0:0:0:
320,192,49912,1,0,0:0:0:0:
448,192,50060,1,0,0:0:0:0:
320,192,50060,1,0,0:0:0:0:
192,192,50060,1,0,0:0:0:0:
64,192,50208,1,0,0:0:0:0:
320,192,50208,1,0,0:0:0:0:
192,192,50208,1,0,0:0:0:0:
448,192,50357,1,0,0:0:0:0:
192,192,50357,1,0,0:0:0:0:
64,192,50357,1,0,0:0:0:0:
64,192,50505,1,0,0:0:0:0:
192,192,50505,1,0,0:0:0:0:
320,192,50505,1,0,0:0:0:0:
448,192,50505,1,0,0:0:0:0:
64,192,50653,1,0,0:0:0:0:
320,192,50653,1,0,0:0:0:0:
448,192,50653,1,0,0:0:0:0:
64,192,50801,1,0,0:0:0:0:
192,192,50801,1,0,0:0:0:0:
448,192,50801,1,0,0:0:0:0:
192,192,50949,1,0,0:0:0:0:
320,192,50949,1,0,0:0:0:0:
448,192,50949,1,0,0:0:0:0:
64,192,51098,1,0,0:0:0:0:
192,192,51098,1,0,0:0:0:0:
320,192,51098,1,0,0:0:0:0:
448,192,51098,1,0,0:0:0:0:
64,192,51246,1,0,0:0:0:0:
192,192,51246,1,0,0:0:0:0:
320,192,51246,1,0,0:0:0:0:
64,192,51394,1,0,0:0:0:0:
320,192,51394,1,0,0:0:0:0:
448,192,51394,1,0,0:0:0:0:
64,192,51542,1,0,0:0:0:0:
192,192,51542,1,0,0:0:0:0:
448,192,51542,1,0,0:0:0:0:
64,192,51691,1,0,0:0:0:0:
192,192,51691,1,0,0:0:0:0:
320,192,51691,1,0,0:0:0:0:
448,192,51691,1,0,0:0:0:0:
448,192,51839,1,0,0:0:0:0:
192,192,51839,1,0,0:0:0:0:
320,192,51839,1,0,0:0:0:0:
64,192,51987,1,0,0:0:0:0:
192,192,51987,1,0,0:0:0:0:
448,192,51987,1,0,0:0:0:0:
64,192,52135,1,0,0:0:0:0:
192,192,52135,1,0,0:0:0:0:
448,192,52135,1,0,0:0:0:0:
448,192,52283,1,0,0:0:0:0:
320,192,52283,1,0,0:0:0:0:
192,192,52283,1,0,0:0:0:0:
64,192,52283,1,0,0:0:0:0:
64,192,52432,1,0,0:0:0:0:
320,192,52432,1,0,0:0:0:0:
448,192,52432,1,0,0:0:0:0:
64,192,52580,1,0,0:0:0:0:
192,192,52580,1,0,0:0:0:0:
448,192,52580,1,0,0:0:0:0:
64,192,52728,1,0,0:0:0:0:
192,192,52728,1,0,0:0:0:0:
320,192,52728,1,0,0:0:0:0:
64,192,52876,1,0,0:0:0:0:
192,192,52876,1,0,0:0:0:0:
320,192,52876,1,0,0:0:0:0:
448,192,52876,1,0,0:0:0:0:
64,192,53025,1,0,0:0:0:0:
192,192,53025,1,0,0:0:0:0:
448,192,53025,1,0,0:0:0:0:
448,192,53173,1,0,0:0:0:0:
320,192,53173,1,0,0:0:0:0:
192,192,53173,1,0,0:0:0:0:
64,192,53173,1,0,0:0:0:0:
64,192,53321,1,0,0:0:0:0:
320,192,53321,1,0,0:0:0:0:
448,192,53321,1,0,0:0:0:0:
448,192,53469,1,0,0:0:0:0:
320,192,53469,1,0,0:0:0:0:
192,192,53469,1,0,0:0:0:0:
64,192,53469,1,0,0:0:0:0:
64,192,53617,1,0,0:0:0:0:
192,192,53617,1,0,0:0:0:0:
320,192,53617,1,0,0:0:0:0:
64,192,53766,1,0,0:0:0:0:
192,192,53766,1,0,0:0:0:0:
320,192,53766,1,0,0:0:0:0:
448,192,53766,1,0,0:0:0:0:
448,192,53914,1,0,0:0:0:0:
320,192,53914,1,0,0:0:0:0:
192,192,53914,1,0,0:0:0:0:
64,192,54062,1,0,0:0:0:0:
192,192,54062,1,0,0:0:0:0:
320,192,54062,1,0,0:0:0:0:
448,192,54062,1,0,0:0:0:0:
64,192,54210,1,0,0:0:0:0:
320,192,54210,1,0,0:0:0:0:
448,192,54210,1,0,0:0:0:0:
64,192,54359,1,0,0:0:0:0:
192,192,54359,1,0,0:0:0:0:
448,192,54359,1,0,0:0:0:0:
64,192,54507,1,0,0:0:0:0:
192,192,54507,1,0,0:0:0:0:
320,192,54507,1,0,0:0:0:0:
64,192,54655,1,0,0:0:0:0:
192,192,54655,1,0,0:0:0:0:
320,192,54655,1,0,0:0:0:0:
448,192,54655,1,0,0:0:0:0:
448,192,54803,1,0,0:0:0:0:
320,192,54803,1,0,0:0:0:0:
192,192,54803,1,0,0:0:0:0:
192,192,54951,1,0,0:0:0:0:
320,192,54951,1,0,0:0:0:0:
448,192,54951,1,0,0:0:0:0:
64,192,54951,1,0,0:0:0:0:
64,192,55100,1,0,0:0:0:0:
192,192,55100,1,0,0:0:0:0:
320,192,55100,1,0,0:0:0:0:
64,192,55248,1,0,0:0:0:0:
192,192,55248,1,0,0:0:0:0:
320,192,55248,1,0,0:0:0:0:
448,192,55248,1,0,0:0:0:0:
64,192,55396,1,0,0:0:0:0:
192,192,55396,1,0,0:0:0:0:
448,192,55396,1,0,0:0:0:0:
448,192,55544,1,0,0:0:0:0:
320,192,55544,1,0,0:0:0:0:
192,192,55544,1,0,0:0:0:0:
64,192,55544,1,0,0:0:0:0:
64,192,55693,1,0,0:0:0:0:
320,192,55693,1,0,0:0:0:0:
448,192,55693,1,0,0:0:0:0:
64,192,55841,1,0,0:0:0:0:
192,192,55841,1,0,0:0:0:0:
320,192,55841,1,0,0:0:0:0:
448,192,55841,1,0,0:0:0:0:
64,192,55989,1,0,0:0:0:0:
192,192,55989,1,0,0:0:0:0:
64,192,56137,1,0,0:0:0:0:
192,192,56137,1,0,0:0:0:0:
320,192,56137,1,0,0:0:0:0:
448,192,56137,1,0,0:0:0:0:
448,192,56285,1,0,0:0:0:0:
320,192,56285,1,0,0:0:0:0:
320,192,56434,1,0,0:0:0:0:
448,192,56434,1,0,0:0:0:0:
192,192,56434,1,0,0:0:0:0:
64,192,56434,1,0,0:0:0:0:
64,192,56582,1,0,0:0:0:0:
192,192,56582,1,0,0:0:0:0:
320,192,56582,1,0,0:0:0:0:
448,192,56582,1,0,0:0:0:0:
64,192,56730,1,0,0:0:0:0:
192,192,56730,1,0,0:0:0:0:
320,192,56804,1,0,0:0:0:0:
448,192,56804,1,0,0:0:0:0:
192,192,56878,1,0,0:0:0:0:
64,192,56878,1,0,0:0:0:0:
320,192,56952,1,0,0:0:0:0:
448,192,56952,1,0,0:0:0:0:
192,192,57026,1,0,0:0:0:0:
64,192,57026,1,0,0:0:0:0:
64,192,57175,1,0,0:0:0:0:
192,192,57175,1,0,0:0:0:0:
64,192,57323,1,0,0:0:0:0:
192,192,57323,1,0,0:0:0:0:
320,192,57323,1,0,0:0:0:0:
448,192,57323,1,0,0:0:0:0:
448,192,57471,1,0,0:0:0:0:
320,192,57471,1,0,0:0:0:0:
320,192,57619,1,0,0:0:0:0:
448,192,57619,1,0,0:0:0:0:
192,192,57619,1,0,0:0:0:0:
64,192,57619,1,0,0:0:0:0:
64,192,57768,1,0,0:0:0:0:
448,192,57768,1,0,0:0:0:0:
320,192,57768,1,0,0:0:0:0:
64,192,57916,1,0,0:0:0:0:
192,192,57916,1,0,0:0:0:0:
320,192,57916,1,0,0:0:0:0:
448,192,57916,1,0,0:0:0:0:
64,192,58064,1,0,0:0:0:0:
192,192,58064,1,0,0:0:0:0:
448,192,58064,1,0,0:0:0:0:
64,192,58212,1,0,0:0:0:0:
192,192,58212,1,0,0:0:0:0:
320,192,58212,1,0,0:0:0:0:
448,192,58212,1,0,0:0:0:0:
192,192,58360,1,0,0:0:0:0:
320,192,58360,1,0,0:0:0:0:
448,192,58360,1,0,0:0:0:0:
64,192,58509,1,0,0:0:0:0:
192,192,58509,1,0,0:0:0:0:
448,192,58509,1,0,0:0:0:0:
320,192,58509,1,0,0:0:0:0:
64,192,58657,1,0,0:0:0:0:
192,192,58657,1,0,0:0:0:0:
320,192,58657,1,0,0:0:0:0:
64,192,58805,1,0,0:0:0:0:
192,192,58805,1,0,0:0:0:0:
320,192,58805,1,0,0:0:0:0:
448,192,58805,1,0,0:0:0:0:
64,192,58953,1,0,0:0:0:0:
192,192,58953,1,0,0:0:0:0:
448,192,58953,1,0,0:0:0:0:
64,192,59102,1,0,0:0:0:0:
192,192,59102,1,0,0:0:0:0:
320,192,59102,1,0,0:0:0:0:
448,192,59102,1,0,0:0:0:0:
64,192,59250,1,0,0:0:0:0:
320,192,59250,1,0,0:0:0:0:
448,192,59250,1,0,0:0:0:0:
448,192,59398,1,0,0:0:0:0:
320,192,59398,1,0,0:0:0:0:
192,192,59398,1,0,0:0:0:0:
64,192,59398,1,0,0:0:0:0:
64,192,59546,1,0,0:0:0:0:
192,192,59546,1,0,0:0:0:0:
320,192,59546,1,0,0:0:0:0:
192,192,59694,1,0,0:0:0:0:
320,192,59694,1,0,0:0:0:0:
448,192,59694,1,0,0:0:0:0:
64,192,59843,1,0,0:0:0:0:
320,192,59843,1,0,0:0:0:0:
448,192,59843,1,0,0:0:0:0:
64,192,59991,1,0,0:0:0:0:
192,192,59991,1,0,0:0:0:0:
320,192,59991,1,0,0:0:0:0:
448,192,59991,1,0,0:0:0:0:
64,192,60139,1,0,0:0:0:0:
192,192,60139,1,0,0:0:0:0:
320,192,60139,1,0,0:0:0:0:
64,192,60287,1,0,0:0:0:0:
192,192,60287,1,0,0:0:0:0:
448,192,60287,1,0,0:0:0:0:
64,192,60436,1,0,0:0:0:0:
320,192,60436,1,0,0:0:0:0:
448,192,60436,1,0,0:0:0:0:
448,192,60584,1,0,0:0:0:0:
320,192,60584,1,0,0:0:0:0:
192,192,60584,1,0,0:0:0:0:
64,192,60584,1,0,0:0:0:0:
64,192,60732,1,0,0:0:0:0:
192,192,60732,1,0,0:0:0:0:
320,192,60732,1,0,0:0:0:0:
192,192,60880,1,0,0:0:0:0:
320,192,60880,1,0,0:0:0:0:
448,192,60880,1,0,0:0:0:0:
64,192,61028,1,0,0:0:0:0:
192,192,61028,1,0,0:0:0:0:
320,192,61028,1,0,0:0:0:0:
64,192,61177,1,0,0:0:0:0:
192,192,61177,1,0,0:0:0:0:
320,192,61177,1,0,0:0:0:0:
448,192,61177,1,0,0:0:0:0:
448,192,61325,1,0,0:0:0:0:
320,192,61325,1,0,0:0:0:0:
320,192,61473,1,0,0:0:0:0:
448,192,61473,1,0,0:0:0:0:
192,192,61473,1,0,0:0:0:0:
64,192,61473,1,0,0:0:0:0:
64,192,61621,1,0,0:0:0:0:
192,192,61621,1,0,0:0:0:0:
64,192,61770,1,0,0:0:0:0:
192,192,61770,1,0,0:0:0:0:
320,192,61770,1,0,0:0:0:0:
448,192,61770,1,0,0:0:0:0:
192,192,61918,1,0,0:0:0:0:
320,192,61918,1,0,0:0:0:0:
64,192,62066,1,0,0:0:0:0:
192,192,62066,1,0,0:0:0:0:
320,192,62066,1,0,0:0:0:0:
448,192,62066,1,0,0:0:0:0:
320,192,62214,1,0,0:0:0:0:
448,192,62214,1,0,0:0:0:0:
448,192,62362,1,0,0:0:0:0:
320,192,62362,1,0,0:0:0:0:
192,192,62362,1,0,0:0:0:0:
64,192,62362,1,0,0:0:0:0:
64,192,62511,1,0,0:0:0:0:
192,192,62511,1,0,0:0:0:0:
448,192,62511,1,0,0:0:0:0:
64,192,62659,1,0,0:0:0:0:
192,192,62659,1,0,0:0:0:0:
320,192,62659,1,0,0:0:0:0:
448,192,62659,1,0,0:0:0:0:
64,192,62807,1,0,0:0:0:0:
320,192,62807,1,0,0:0:0:0:
448,192,62807,1,0,0:0:0:0:
448,192,62955,1,0,0:0:0:0:
320,192,62955,1,0,0:0:0:0:
192,192,62955,1,0,0:0:0:0:
64,192,62955,1,0,0:0:0:0:
192,192,63104,1,0,0:0:0:0:
320,192,63104,1,0,0:0:0:0:
448,192,63104,1,0,0:0:0:0:
64,192,63252,1,0,0:0:0:0:
192,192,63252,1,0,0:0:0:0:
448,192,63252,1,0,0:0:0:0:
320,192,63252,1,0,0:0:0:0:
64,192,63400,1,0,0:0:0:0:
192,192,63400,1,0,0:0:0:0:
320,192,63400,1,0,0:0:0:0:
448,192,63400,1,0,0:0:0:0:
64,192,63548,1,0,0:0:0:0:
192,192,63548,1,0,0:0:0:0:
320,192,63548,1,0,0:0:0:0:
448,192,63548,1,0,0:0:0:0:
64,192,63696,1,0,0:0:0:0:
192,192,63696,1,0,0:0:0:0:
320,192,63696,1,0,0:0:0:0:
64,192,63845,1,0,0:0:0:0:
192,192,63845,1,0,0:0:0:0:
320,192,63845,1,0,0:0:0:0:
448,192,63845,1,0,0:0:0:0:
64,192,63993,1,0,0:0:0:0:
320,192,63993,1,0,0:0:0:0:
448,192,63993,1,0,0:0:0:0:
64,192,64141,1,0,0:0:0:0:
192,192,64141,1,0,0:0:0:0:
320,192,64141,1,0,0:0:0:0:
448,192,64141,1,0,0:0:0:0:
64,192,64289,1,0,0:0:0:0:
192,192,64289,1,0,0:0:0:0:
448,192,64289,1,0,0:0:0:0:
64,192,64438,1,0,0:0:0:0:
192,192,64438,1,0,0:0:0:0:
320,192,64438,1,0,0:0:0:0:
192,192,64586,1,0,0:0:0:0:
320,192,64586,1,0,0:0:0:0:
448,192,64586,1,0,0:0:0:0:
320,192,64734,1,0,0:0:0:0:
192,192,64734,1,0,0:0:0:0:
64,192,64734,1,0,0:0:0:0:
448,192,64734,1,0,0:0:0:0:
64,192,64882,1,0,0:0:0:0:
192,192,64882,1,0,0:0:0:0:
448,192,64882,1,0,0:0:0:0:
64,192,65030,1,0,0:0:0:0:
320,192,65030,1,0,0:0:0:0:
448,192,65030,1,0,0:0:0:0:
192,192,65179,1,0,0:0:0:0:
448,192,65179,1,0,0:0:0:0:
320,192,65179,1,0,0:0:0:0:
64,192,65327,1,0,0:0:0:0:
192,192,65327,1,0,0:0:0:0:
320,192,65327,1,0,0:0:0:0:
448,192,65327,1,0,0:0:0:0:
320,192,65475,1,0,0:0:0:0:
448,192,65475,1,0,0:0:0:0:
64,192,65475,1,0,0:0:0:0:
320,192,65623,1,0,0:0:0:0:
448,192,65623,1,0,0:0:0:0:
64,192,65623,1,0,0:0:0:0:
192,192,65623,1,0,0:0:0:0:
448,192,65772,1,0,0:0:0:0:
64,192,65772,1,0,0:0:0:0:
192,192,65772,1,0,0:0:0:0:
64,192,65920,1,0,0:0:0:0:
192,192,65920,1,0,0:0:0:0:
320,192,65920,1,0,0:0:0:0:
448,192,65920,1,0,0:0:0:0:
64,192,66068,1,0,0:0:0:0:
192,192,66068,1,0,0:0:0:0:
320,192,66068,1,0,0:0:0:0:
448,192,66068,1,0,0:0:0:0:
448,192,66216,1,0,0:0:0:0:
320,192,66216,1,0,0:0:0:0:
192,192,66290,1,0,0:0:0:0:
64,192,66290,1,0,0:0:0:0:
320,192,66364,1,0,0:0:0:0:
448,192,66364,1,0,0:0:0:0:
192,192,66439,1,0,0:0:0:0:
64,192,66439,1,0,0:0:0:0:
320,192,66513,1,0,0:0:0:0:
448,192,66513,1,0,0:0:0:0:
64,192,66587,1,0,0:0:0:0:
192,192,66661,1,0,0:0:0:0:
320,192,66735,1,0,0:0:0:0:
192,192,66809,1,0,0:0:0:0:
64,192,66809,1,0,0:0:0:0:
64,192,66957,1,0,0:0:0:0:
192,192,66957,1,0,0:0:0:0:
64,192,67106,1,0,0:0:0:0:
192,192,67106,1,0,0:0:0:0:
448,192,67106,1,0,0:0:0:0:
320,192,67106,1,0,0:0:0:0:
320,192,67254,1,0,0:0:0:0:
448,192,67254,1,0,0:0:0:0:
64,192,67402,1,0,0:0:0:0:
320,192,67402,1,0,0:0:0:0:
448,192,67402,1,0,0:0:0:0:
192,192,67550,1,0,0:0:0:0:
320,192,67698,1,0,0:0:0:0:
448,192,67698,1,0,0:0:0:0:
64,192,67847,1,0,0:0:0:0:
192,192,67995,1,0,0:0:0:0:
320,192,67995,1,0,0:0:0:0:
448,192,68143,1,0,0:0:0:0:
320,192,68291,1,0,0:0:0:0:
64,192,68291,1,0,0:0:0:0:
192,192,68440,1,0,0:0:0:0:
64,192,68588,1,0,0:0:0:0:
448,192,68588,1,0,0:0:0:0:
320,192,68736,1,0,0:0:0:0:
192,192,68884,1,0,0:0:0:0:
448,192,68884,1,0,0:0:0:0:
64,192,69032,1,0,0:0:0:0:
192,192,69181,1,0,0:0:0:0:
320,192,69181,1,0,0:0:0:0:
448,192,69329,1,0,0:0:0:0:
320,192,69477,1,0,0:0:0:0:
64,192,69477,1,0,0:0:0:0:
192,192,69625,1,0,0:0:0:0:
320,192,69774,1,0,0:0:0:0:
448,192,69774,1,0,0:0:0:0:
64,192,69922,1,0,0:0:0:0:
192,192,70070,1,0,0:0:0:0:
448,192,70070,1,0,0:0:0:0:
320,192,70218,1,0,0:0:0:0:
192,192,70366,1,0,0:0:0:0:
64,192,70366,1,0,0:0:0:0:
448,192,70515,1,0,0:0:0:0:
320,192,70663,1,0,0:0:0:0:
192,192,70663,1,0,0:0:0:0:
64,192,70811,1,0,0:0:0:0:
320,192,70959,1,0,0:0:0:0:
448,192,70959,1,0,0:0:0:0:
192,192,71108,1,0,0:0:0:0:
64,192,71108,1,0,0:0:0:0:
320,192,71256,1,0,0:0:0:0:
448,192,71256,1,0,0:0:0:0:
192,192,71330,1,0,0:0:0:0:
320,192,71404,1,0,0:0:0:0:
192,192,71478,1,0,0:0:0:0:
64,192,71552,1,0,0:0:0:0:
448,192,71552,1,0,0:0:0:0:
448,192,71700,1,0,0:0:0:0:
64,192,71849,1,0,0:0:0:0:
448,192,71849,1,0,0:0:0:0:
320,192,71849,1,0,0:0:0:0:
64,192,71997,1,0,0:0:0:0:
448,192,72145,1,0,0:0:0:0:
64,192,72145,1,0,0:0:0:0:
192,192,72145,1,0,0:0:0:0:
320,192,72293,1,0,0:0:0:0:
64,192,72442,1,0,0:0:0:0:
192,192,72442,1,0,0:0:0:0:
448,192,72590,1,0,0:0:0:0:
320,192,72738,1,0,0:0:0:0:
192,192,72738,1,0,0:0:0:0:
64,192,72886,1,0,0:0:0:0:
192,192,73034,1,0,0:0:0:0:
448,192,73034,1,0,0:0:0:0:
320,192,73183,1,0,0:0:0:0:
448,192,73331,1,0,0:0:0:0:
64,192,73331,1,0,0:0:0:0:
192,192,73479,1,0,0:0:0:0:
320,192,73627,1,0,0:0:0:0:
64,192,73627,1,0,0:0:0:0:
448,192,73776,1,0,0:0:0:0:
320,192,73924,1,0,0:0:0:0:
192,192,73924,128,0,74220:0:0:0:0:
64,192,74220,128,0,74517:0:0:0:0:
192,192,74517,128,0,74813:0:0:0:0:
320,192,74813,1,0,0:0:0:0:
448,192,74813,1,0,0:0:0:0:
64,192,74961,1,0,0:0:0:0:
192,192,75110,1,0,0:0:0:0:
320,192,75110,1,0,0:0:0:0:
448,192,75258,1,0,0:0:0:0:
320,192,75406,1,0,0:0:0:0:
192,192,75406,1,0,0:0:0:0:
64,192,75406,1,0,0:0:0:0:
448,192,75554,1,0,0:0:0:0:
320,192,75702,1,0,0:0:0:0:
192,192,75702,1,0,0:0:0:0:
64,192,75851,1,0,0:0:0:0:
320,192,75999,1,0,0:0:0:0:
448,192,75999,1,0,0:0:0:0:
192,192,76073,1,0,0:0:0:0:
320,192,76147,1,0,0:0:0:0:
192,192,76221,1,0,0:0:0:0:
64,192,76295,1,0,0:0:0:0:
448,192,76295,1,0,0:0:0:0:
64,192,76443,1,0,0:0:0:0:
64,192,76592,1,0,0:0:0:0:
192,192,76592,1,0,0:0:0:0:
448,192,76592,1,0,0:0:0:0:
448,192,76740,1,0,0:0:0:0:
448,192,76888,1,0,0:0:0:0:
320,192,76888,1,0,0:0:0:0:
64,192,76888,1,0,0:0:0:0:
192,192,77036,1,0,0:0:0:0:
320,192,77185,1,0,0:0:0:0:
448,192,77185,1,0,0:0:0:0:
64,192,77333,1,0,0:0:0:0:
192,192,77481,1,0,0:0:0:0:
320,192,77481,1,0,0:0:0:0:
448,192,77629,1,0,0:0:0:0:
320,192,77777,1,0,0:0:0:0:
64,192,77777,1,0,0:0:0:0:
192,192,77926,1,0,0:0:0:0:
64,192,78074,1,0,0:0:0:0:
448,192,78074,1,0,0:0:0:0:
320,192,78222,1,0,0:0:0:0:
192,192,78370,1,0,0:0:0:0:
448,192,78370,1,0,0:0:0:0:
64,192,78519,1,0,0:0:0:0:
192,192,78667,1,0,0:0:0:0:
320,192,78667,128,0,78963:0:0:0:0:
448,192,78963,128,0,79260:0:0:0:0:
192,192,79260,1,0,0:0:0:0:
64,192,79260,128,0,79556:0:0:0:0:
448,192,79556,1,0,0:0:0:0:
320,192,79556,1,0,0:0:0:0:
192,192,79704,1,0,0:0:0:0:
64,192,79853,1,0,0:0:0:0:
448,192,79853,1,0,0:0:0:0:
320,192,80001,1,0,0:0:0:0:
192,192,80149,1,0,0:0:0:0:
64,192,80149,1,0,0:0:0:0:
448,192,80297,1,0,0:0:0:0:
320,192,80445,1,0,0:0:0:0:
192,192,80445,1,0,0:0:0:0:
64,192,80594,1,0,0:0:0:0:
192,192,80742,1,0,0:0:0:0:
320,192,80742,1,0,0:0:0:0:
448,192,80816,1,0,0:0:0:0:
320,192,80890,1,0,0:0:0:0:
192,192,80964,1,0,0:0:0:0:
320,192,81038,1,0,0:0:0:0:
448,192,81038,1,0,0:0:0:0:
320,192,81187,1,0,0:0:0:0:
448,192,81187,1,0,0:0:0:0:
448,192,81335,1,0,0:0:0:0:
320,192,81335,1,0,0:0:0:0:
192,192,81335,1,0,0:0:0:0:
64,192,81335,1,0,0:0:0:0:
64,192,81483,1,0,0:0:0:0:
192,192,81483,1,0,0:0:0:0:
64,192,81631,1,0,0:0:0:0:
192,192,81631,1,0,0:0:0:0:
448,192,81631,1,0,0:0:0:0:
320,192,81779,1,0,0:0:0:0:
192,192,81928,1,0,0:0:0:0:
64,192,81928,1,0,0:0:0:0:
448,192,82076,1,0,0:0:0:0:
320,192,82224,1,0,0:0:0:0:
192,192,82224,1,0,0:0:0:0:
64,192,82372,1,0,0:0:0:0:
192,192,82521,1,0,0:0:0:0:
320,192,82521,1,0,0:0:0:0:
448,192,82521,1,0,0:0:0:0:
64,192,82669,1,0,0:0:0:0:
192,192,82817,1,0,0:0:0:0:
320,192,82817,1,0,0:0:0:0:
448,192,82965,1,0,0:0:0:0:
320,192,83113,1,0,0:0:0:0:
192,192,83113,1,0,0:0:0:0:
64,192,83113,1,0,0:0:0:0:
448,192,83262,1,0,0:0:0:0:
64,192,83410,128,0,83558:0:0:0:0:
192,192,83410,128,0,83558:0:0:0:0:
320,192,83410,128,0,83558:0:0:0:0:
192,192,83706,1,0,0:0:0:0:
320,192,83706,1,0,0:0:0:0:
448,192,83706,1,0,0:0:0:0:
192,192,84003,1,0,0:0:0:0:
320,192,84003,1,0,0:0:0:0:
448,192,84003,1,0,0:0:0:0:
64,192,84151,1,0,0:0:0:0:
192,192,84299,128,0,84447:0:0:0:0:
320,192,84299,128,0,84447:0:0:0:0:
448,192,84299,128,0,84447:0:0:0:0:
64,192,84596,1,0,0:0:0:0:
192,192,84596,1,0,0:0:0:0:
320,192,84596,1,0,0:0:0:0:
64,192,84892,1,0,0:0:0:0:
192,192,84892,1,0,0:0:0:0:
320,192,84892,1,0,0:0:0:0:
448,192,84892,1,0,0:0:0:0:
64,192,84966,1,0,0:0:0:0:
192,192,84966,1,0,0:0:0:0:
320,192,84966,1,0,0:0:0:0:
448,192,84966,1,0,0:0:0:0:
64,192,85189,1,0,0:0:0:0:
192,192,85189,1,0,0:0:0:0:
320,192,85189,1,0,0:0:0:0:
448,192,85189,1,0,0:0:0:0:
448,192,85263,1,0,0:0:0:0:
320,192,85263,1,0,0:0:0:0:
192,192,85263,1,0,0:0:0:0:
64,192,85263,1,0,0:0:0:0:
448,192,85485,1,0,0:0:0:0:
192,192,85485,1,0,0:0:0:0:
64,192,85485,1,0,0:0:0:0:
320,192,85633,1,0,0:0:0:0:
192,192,85781,1,0,0:0:0:0:
64,192,85781,1,0,0:0:0:0:
64,192,85930,1,0,0:0:0:0:
192,192,85930,1,0,0:0:0:0:
64,192,86078,1,0,0:0:0:0:
192,192,86078,1,0,0:0:0:0:
448,192,86078,1,0,0:0:0:0:
320,192,86226,1,0,0:0:0:0:
192,192,86374,1,0,0:0:0:0:
64,192,86374,1,0,0:0:0:0:
448,192,86523,1,0,0:0:0:0:
320,192,86671,1,0,0:0:0:0:
192,192,86671,1,0,0:0:0:0:
64,192,86671,1,0,0:0:0:0:
448,192,86819,1,0,0:0:0:0:
320,192,86967,1,0,0:0:0:0:
64,192,86967,1,0,0:0:0:0:
64,192,87115,1,0,0:0:0:0:
320,192,87115,1,0,0:0:0:0:
64,192,87264,1,0,0:0:0:0:
320,192,87264,1,0,0:0:0:0:
448,192,87264,1,0,0:0:0:0:
192,192,87412,1,0,0:0:0:0:
320,192,87560,1,0,0:0:0:0:
448,192,87560,1,0,0:0:0:0:
64,192,87708,1,0,0:0:0:0:
192,192,87857,1,0,0:0:0:0:
320,192,87857,1,0,0:0:0:0:
448,192,87857,1,0,0:0:0:0:
64,192,88005,1,0,0:0:0:0:
192,192,88153,1,0,0:0:0:0:
320,192,88153,1,0,0:0:0:0:
448,192,88301,1,0,0:0:0:0:
64,192,88301,1,0,0:0:0:0:
192,192,88449,1,0,0:0:0:0:
320,192,88449,1,0,0:0:0:0:
448,192,88598,1,0,0:0:0:0:
64,192,88746,1,0,0:0:0:0:
192,192,88746,1,0,0:0:0:0:
320,192,88894,1,0,0:0:0:0:
192,192,89042,1,0,0:0:0:0:
64,192,89042,1,0,0:0:0:0:
448,192,89191,1,0,0:0:0:0:
320,192,89339,1,0,0:0:0:0:
64,192,89339,1,0,0:0:0:0:
192,192,89487,1,0,0:0:0:0:
320,192,89635,1,0,0:0:0:0:
448,192,89635,1,0,0:0:0:0:
64,192,89783,1,0,0:0:0:0:
192,192,89783,1,0,0:0:0:0:
320,192,89932,1,0,0:0:0:0:
448,192,89932,1,0,0:0:0:0:
192,192,90080,1,0,0:0:0:0:
64,192,90080,1,0,0:0:0:0:
320,192,90228,1,0,0:0:0:0:
448,192,90228,1,0,0:0:0:0:
64,192,90376,1,0,0:0:0:0:
192,192,90525,1,0,0:0:0:0:
448,192,90525,1,0,0:0:0:0:
192,192,90673,1,0,0:0:0:0:
448,192,90673,1,0,0:0:0:0:
192,192,90821,1,0,0:0:0:0:
448,192,90821,1,0,0:0:0:0:
64,192,90821,1,0,0:0:0:0:
320,192,90969,1,0,0:0:0:0:
192,192,91117,1,0,0:0:0:0:
64,192,91117,1,0,0:0:0:0:
448,192,91266,1,0,0:0:0:0:
320,192,91414,1,0,0:0:0:0:
192,192,91414,1,0,0:0:0:0:
64,192,91414,1,0,0:0:0:0:
448,192,91562,1,0,0:0:0:0:
320,192,91710,1,0,0:0:0:0:
64,192,91710,1,0,0:0:0:0:
64,192,91859,1,0,0:0:0:0:
320,192,91859,1,0,0:0:0:0:
64,192,92007,1,0,0:0:0:0:
320,192,92007,1,0,0:0:0:0:
448,192,92007,1,0,0:0:0:0:
192,192,92155,1,0,0:0:0:0:
320,192,92303,1,0,0:0:0:0:
448,192,92303,1,0,0:0:0:0:
64,192,92451,1,0,0:0:0:0:
192,192,92600,1,0,0:0:0:0:
320,192,92600,1,0,0:0:0:0:
448,192,92600,1,0,0:0:0:0:
64,192,92748,1,0,0:0:0:0:
192,192,92896,1,0,0:0:0:0:
320,192,92896,1,0,0:0:0:0:
448,192,93044,1,0,0:0:0:0:
64,192,93044,1,0,0:0:0:0:
320,192,93193,1,0,0:0:0:0:
192,192,93193,1,0,0:0:0:0:
448,192,93341,1,0,0:0:0:0:
64,192,93489,1,0,0:0:0:0:
192,192,93489,1,0,0:0:0:0:
320,192,93637,1,0,0:0:0:0:
448,192,93637,1,0,0:0:0:0:
192,192,93785,1,0,0:0:0:0:
64,192,93785,1,0,0:0:0:0:
448,192,93934,1,0,0:0:0:0:
320,192,94082,1,0,0:0:0:0:
192,192,94082,1,0,0:0:0:0:
64,192,94230,1,0,0:0:0:0:
320,192,94378,1,0,0:0:0:0:
448,192,94378,1,0,0:0:0:0:
192,192,94526,1,0,0:0:0:0:
448,192,94675,1,0,0:0:0:0:
320,192,94675,1,0,0:0:0:0:
64,192,94823,1,0,0:0:0:0:
192,192,94971,1,0,0:0:0:0:
448,192,94971,1,0,0:0:0:0:
320,192,95119,1,0,0:0:0:0:
192,192,95268,1,0,0:0:0:0:
64,192,95268,1,0,0:0:0:0:
64,192,95416,1,0,0:0:0:0:
192,192,95416,1,0,0:0:0:0:
64,192,95564,1,0,0:0:0:0:
192,192,95564,1,0,0:0:0:0:
448,192,95564,1,0,0:0:0:0:
320,192,95712,1,0,0:0:0:0:
192,192,95860,1,0,0:0:0:0:
64,192,95860,1,0,0:0:0:0:
448,192,96009,1,0,0:0:0:0:
320,192,96157,1,0,0:0:0:0:
192,192,96157,1,0,0:0:0:0:
64,192,96157,1,0,0:0:0:0:
448,192,96305,1,0,0:0:0:0:
320,192,96453,1,0,0:0:0:0:
64,192,96453,1,0,0:0:0:0:
64,192,96602,1,0,0:0:0:0:
320,192,96602,1,0,0:0:0:0:
64,192,96750,1,0,0:0:0:0:
320,192,96750,1,0,0:0:0:0:
448,192,96750,1,0,0:0:0:0:
192,192,96898,1,0,0:0:0:0:
320,192,97046,1,0,0:0:0:0:
448,192,97046,1,0,0:0:0:0:
64,192,97194,1,0,0:0:0:0:
192,192,97343,1,0,0:0:0:0:
320,192,97343,1,0,0:0:0:0:
448,192,97343,1,0,0:0:0:0:
64,192,97491,1,0,0:0:0:0:
192,192,97639,1,0,0:0:0:0:
448,192,97639,1,0,0:0:0:0:
64,192,97787,1,0,0:0:0:0:
320,192,97787,1,0,0:0:0:0:
192,192,97936,1,0,0:0:0:0:
448,192,97936,1,0,0:0:0:0:
320,192,98084,1,0,0:0:0:0:
192,192,98232,1,0,0:0:0:0:
64,192,98232,1,0,0:0:0:0:
448,192,98380,1,0,0:0:0:0:
320,192,98528,1,0,0:0:0:0:
192,192,98528,1,0,0:0:0:0:
64,192,98677,1,0,0:0:0:0:
448,192,98825,1,0,0:0:0:0:
320,192,98825,1,0,0:0:0:0:
192,192,98973,1,0,0:0:0:0:
320,192,99121,1,0,0:0:0:0:
448,192,99121,1,0,0:0:0:0:
64,192,99270,1,0,0:0:0:0:
192,192,99418,1,0,0:0:0:0:
320,192,99418,1,0,0:0:0:0:
448,192,99566,1,0,0:0:0:0:
320,192,99714,1,0,0:0:0:0:
64,192,99714,1,0,0:0:0:0:
192,192,99862,1,0,0:0:0:0:
320,192,100011,1,0,0:0:0:0:
448,192,100011,1,0,0:0:0:0:
448,192,100159,1,0,0:0:0:0:
320,192,100159,1,0,0:0:0:0:
320,192,100307,1,0,0:0:0:0:
448,192,100307,1,0,0:0:0:0:
64,192,100307,1,0,0:0:0:0:
192,192,100455,1,0,0:0:0:0:
320,192,100604,1,0,0:0:0:0:
448,192,100604,1,0,0:0:0:0:
64,192,100752,1,0,0:0:0:0:
192,192,100900,1,0,0:0:0:0:
320,192,100900,1,0,0:0:0:0:
448,192,100900,1,0,0:0:0:0:
64,192,101048,1,0,0:0:0:0:
192,192,101196,1,0,0:0:0:0:
448,192,101196,1,0,0:0:0:0:
192,192,101345,1,0,0:0:0:0:
448,192,101345,1,0,0:0:0:0:
448,192,101493,1,0,0:0:0:0:
192,192,101493,1,0,0:0:0:0:
64,192,101493,1,0,0:0:0:0:
320,192,101641,1,0,0:0:0:0:
192,192,101789,1,0,0:0:0:0:
64,192,101789,1,0,0:0:0:0:
448,192,101938,1,0,0:0:0:0:
320,192,102086,1,0,0:0:0:0:
192,192,102086,1,0,0:0:0:0:
64,192,102086,1,0,0:0:0:0:
448,192,102234,1,0,0:0:0:0:
320,192,102382,1,0,0:0:0:0:
64,192,102382,1,0,0:0:0:0:
64,192,102530,1,0,0:0:0:0:
320,192,102530,1,0,0:0:0:0:
64,192,102679,1,0,0:0:0:0:
320,192,102679,1,0,0:0:0:0:
448,192,102679,1,0,0:0:0:0:
192,192,102827,1,0,0:0:0:0:
320,192,102975,1,0,0:0:0:0:
448,192,102975,1,0,0:0:0:0:
64,192,103123,1,0,0:0:0:0:
448,192,103272,1,0,0:0:0:0:
320,192,103272,1,0,0:0:0:0:
192,192,103272,1,0,0:0:0:0:
64,192,103420,1,0,0:0:0:0:
192,192,103568,1,0,0:0:0:0:
320,192,103568,1,0,0:0:0:0:
448,192,103568,1,0,0:0:0:0:
64,192,103864,1,0,0:0:0:0:
192,192,103864,1,0,0:0:0:0:
320,192,103864,1,0,0:0:0:0:
448,192,103864,1,0,0:0:0:0:
64,192,103939,1,0,0:0:0:0:
192,192,103939,1,0,0:0:0:0:
320,192,103939,1,0,0:0:0:0:
448,192,103939,1,0,0:0:0:0:
64,192,104161,1,0,0:0:0:0:
192,192,104161,1,0,0:0:0:0:
320,192,104161,1,0,0:0:0:0:
448,192,104161,1,0,0:0:0:0:
448,192,104235,1,0,0:0:0:0:
320,192,104235,1,0,0:0:0:0:
192,192,104235,1,0,0:0:0:0:
64,192,104235,1,0,0:0:0:0:
192,192,104457,1,0,0:0:0:0:
320,192,104457,1,0,0:0:0:0:
448,192,104457,1,0,0:0:0:0:
64,192,104457,1,0,0:0:0:0:
192,192,104605,1,0,0:0:0:0:
320,192,104605,1,0,0:0:0:0:
448,192,104605,1,0,0:0:0:0:
64,192,104754,1,0,0:0:0:0:
320,192,104754,1,0,0:0:0:0:
448,192,104754,1,0,0:0:0:0:
64,192,104902,1,0,0:0:0:0:
192,192,104902,1,0,0:0:0:0:
448,192,104902,1,0,0:0:0:0:
64,192,105051,1,0,0:0:0:0:
192,192,105051,1,0,0:0:0:0:
320,192,105051,1,0,0:0:0:0:
448,192,105051,1,0,0:0:0:0:
192,192,105199,1,0,0:0:0:0:
320,192,105199,1,0,0:0:0:0:
64,192,105199,1,0,0:0:0:0:
64,192,105348,1,0,0:0:0:0:
192,192,105348,1,0,0:0:0:0:
448,192,105348,1,0,0:0:0:0:
320,192,105348,1,0,0:0:0:0:
192,192,105496,1,0,0:0:0:0:
320,192,105496,1,0,0:0:0:0:
448,192,105496,1,0,0:0:0:0:
448,192,105645,1,0,0:0:0:0:
320,192,105645,1,0,0:0:0:0:
192,192,105645,1,0,0:0:0:0:
64,192,105645,1,0,0:0:0:0:
64,192,105793,1,0,0:0:0:0:
192,192,105793,1,0,0:0:0:0:
448,192,105793,1,0,0:0:0:0:
448,192,105942,1,0,0:0:0:0:
320,192,105942,1,0,0:0:0:0:
192,192,105942,1,0,0:0:0:0:
64,192,105942,1,0,0:0:0:0:
64,192,106090,1,0,0:0:0:0:
320,192,106090,1,0,0:0:0:0:
448,192,106090,1,0,0:0:0:0:
64,192,106239,1,0,0:0:0:0:
192,192,106239,1,0,0:0:0:0:
320,192,106239,1,0,0:0:0:0:
448,192,106239,1,0,0:0:0:0:
320,192,106387,1,0,0:0:0:0:
448,192,106387,1,0,0:0:0:0:
448,192,106536,1,0,0:0:0:0:
320,192,106536,1,0,0:0:0:0:
192,192,106536,1,0,0:0:0:0:
64,192,106536,1,0,0:0:0:0:
64,192,106684,1,0,0:0:0:0:
192,192,106684,1,0,0:0:0:0:
64,192,106833,1,0,0:0:0:0:
192,192,106833,1,0,0:0:0:0:
320,192,106833,1,0,0:0:0:0:
448,192,106833,1,0,0:0:0:0:
192,192,106981,1,0,0:0:0:0:
320,192,106981,1,0,0:0:0:0:
448,192,106981,1,0,0:0:0:0:
64,192,107130,1,0,0:0:0:0:
320,192,107130,1,0,0:0:0:0:
448,192,107130,1,0,0:0:0:0:
64,192,107278,1,0,0:0:0:0:
448,192,107278,1,0,0:0:0:0:
320,192,107278,1,0,0:0:0:0:
192,192,107427,1,0,0:0:0:0:
320,192,107427,1,0,0:0:0:0:
448,192,107427,1,0,0:0:0:0:
64,192,107427,1,0,0:0:0:0:
320,192,107575,1,0,0:0:0:0:
448,192,107575,1,0,0:0:0:0:
448,192,107724,1,0,0:0:0:0:
320,192,107724,1,0,0:0:0:0:
192,192,107724,1,0,0:0:0:0:
64,192,107724,1,0,0:0:0:0:
64,192,107872,1,0,0:0:0:0:
192,192,107872,1,0,0:0:0:0:
64,192,108021,1,0,0:0:0:0:
192,192,108021,1,0,0:0:0:0:
448,192,108021,1,0,0:0:0:0:
64,192,108169,1,0,0:0:0:0:
320,192,108169,1,0,0:0:0:0:
448,192,108169,1,0,0:0:0:0:
192,192,108318,1,0,0:0:0:0:
320,192,108318,1,0,0:0:0:0:
448,192,108318,1,0,0:0:0:0:
192,192,108466,1,0,0:0:0:0:
64,192,108466,1,0,0:0:0:0:
320,192,108466,1,0,0:0:0:0:
192,192,108615,1,0,0:0:0:0:
320,192,108615,1,0,0:0:0:0:
448,192,108615,1,0,0:0:0:0:
64,192,108763,1,0,0:0:0:0:
320,192,108763,1,0,0:0:0:0:
448,192,108763,1,0,0:0:0:0:
64,192,108912,1,0,0:0:0:0:
192,192,108912,1,0,0:0:0:0:
448,192,108912,1,0,0:0:0:0:
448,192,109060,1,0,0:0:0:0:
192,192,109060,1,0,0:0:0:0:
64,192,109060,1,0,0:0:0:0:
64,192,109209,1,0,0:0:0:0:
192,192,109209,1,0,0:0:0:0:
320,192,109209,1,0,0:0:0:0:
448,192,109209,1,0,0:0:0:0:
320,192,109357,1,0,0:0:0:0:
448,192,109357,1,0,0:0:0:0:
64,192,109357,1,0,0:0:0:0:
192,192,109506,1,0,0:0:0:0:
320,192,109506,1,0,0:0:0:0:
448,192,109506,1,0,0:0:0:0:
320,192,109655,1,0,0:0:0:0:
192,192,109655,1,0,0:0:0:0:
64,192,109655,1,0,0:0:0:0:
192,192,109803,1,0,0:0:0:0:
320,192,109803,1,0,0:0:0:0:
448,192,109803,1,0,0:0:0:0:
64,192,109803,1,0,0:0:0:0:
448,192,109952,1,0,0:0:0:0:
192,192,109952,1,0,0:0:0:0:
64,192,109952,1,0,0:0:0:0:
64,192,110100,1,0,0:0:0:0:
192,192,110100,1,0,0:0:0:0:
320,192,110100,1,0,0:0:0:0:
448,192,110100,1,0,0:0:0:0:
192,192,110249,1,0,0:0:0:0:
320,192,110249,1,0,0:0:0:0:
448,192,110249,1,0,0:0:0:0:
64,192,110397,1,0,0:0:0:0:
192,192,110397,1,0,0:0:0:0:
320,192,110397,1,0,0:0:0:0:
448,192,110397,1,0,0:0:0:0:
64,192,110546,1,0,0:0:0:0:
320,192,110546,1,0,0:0:0:0:
192,192,110546,1,0,0:0:0:0:
64,192,110694,1,0,0:0:0:0:
192,192,110694,1,0,0:0:0:0:
320,192,110694,1,0,0:0:0:0:
448,192,110694,1,0,0:0:0:0:
192,192,110843,1,0,0:0:0:0:
64,192,110843,1,0,0:0:0:0:
448,192,110843,1,0,0:0:0:0:
192,192,110991,1,0,0:0:0:0:
64,192,110991,1,0,0:0:0:0:
448,192,110991,1,0,0:0:0:0:
320,192,110991,1,0,0:0:0:0:
192,192,111140,1,0,0:0:0:0:
320,192,111140,1,0,0:0:0:0:
448,192,111140,1,0,0:0:0:0:
64,192,111288,1,0,0:0:0:0:
192,192,111288,1,0,0:0:0:0:
320,192,111288,1,0,0:0:0:0:
64,192,111437,1,0,0:0:0:0:
192,192,111437,1,0,0:0:0:0:
448,192,111437,1,0,0:0:0:0:
64,192,111585,1,0,0:0:0:0:
320,192,111585,1,0,0:0:0:0:
448,192,111585,1,0,0:0:0:0:
192,192,111585,1,0,0:0:0:0:
320,192,111734,1,0,0:0:0:0:
448,192,111734,1,0,0:0:0:0:
64,192,111734,1,0,0:0:0:0:
64,192,111882,1,0,0:0:0:0:
192,192,111882,1,0,0:0:0:0:
320,192,111882,1,0,0:0:0:0:
448,192,111882,1,0,0:0:0:0:
64,192,112031,1,0,0:0:0:0:
192,192,112031,1,0,0:0:0:0:
448,192,112031,1,0,0:0:0:0:
448,192,112179,1,0,0:0:0:0:
320,192,112179,1,0,0:0:0:0:
192,192,112179,1,0,0:0:0:0:
64,192,112179,1,0,0:0:0:0:
64,192,112328,1,0,0:0:0:0:
192,192,112328,1,0,0:0:0:0:
320,192,112328,1,0,0:0:0:0:
64,192,112476,1,0,0:0:0:0:
192,192,112476,1,0,0:0:0:0:
320,192,112476,1,0,0:0:0:0:
448,192,112476,1,0,0:0:0:0:
448,192,112625,1,0,0:0:0:0:
320,192,112625,1,0,0:0:0:0:
192,192,112625,1,0,0:0:0:0:
64,192,112773,1,0,0:0:0:0:
192,192,112773,1,0,0:0:0:0:
320,192,112773,1,0,0:0:0:0:
448,192,112773,1,0,0:0:0:0:
64,192,112922,1,0,0:0:0:0:
192,192,112922,1,0,0:0:0:0:
448,192,112922,1,0,0:0:0:0:
64,192,113070,1,0,0:0:0:0:
192,192,113070,1,0,0:0:0:0:
320,192,113070,1,0,0:0:0:0:
448,192,113070,1,0,0:0:0:0:
64,192,113219,1,0,0:0:0:0:
320,192,113219,1,0,0:0:0:0:
448,192,113219,1,0,0:0:0:0:
448,192,113367,1,0,0:0:0:0:
320,192,113367,1,0,0:0:0:0:
192,192,113367,1,0,0:0:0:0:
64,192,113367,1,0,0:0:0:0:
64,192,113516,1,0,0:0:0:0:
192,192,113516,1,0,0:0:0:0:
320,192,113516,1,0,0:0:0:0:
448,192,113516,1,0,0:0:0:0:
448,192,113664,1,0,0:0:0:0:
320,192,113664,1,0,0:0:0:0:
192,192,113739,1,0,0:0:0:0:
64,192,113739,1,0,0:0:0:0:
320,192,113813,1,0,0:0:0:0:
448,192,113813,1,0,0:0:0:0:
192,192,113887,1,0,0:0:0:0:
64,192,113887,1,0,0:0:0:0:
320,192,113961,1,0,0:0:0:0:
448,192,113961,1,0,0:0:0:0:
192,192,114110,1,0,0:0:0:0:
320,192,114110,1,0,0:0:0:0:
192,192,114258,1,0,0:0:0:0:
64,192,114258,1,0,0:0:0:0:
320,192,114258,1,0,0:0:0:0:
448,192,114258,1,0,0:0:0:0:
320,192,114407,1,0,0:0:0:0:
448,192,114407,1,0,0:0:0:0:
448,192,114556,1,0,0:0:0:0:
320,192,114556,1,0,0:0:0:0:
192,192,114556,1,0,0:0:0:0:
64,192,114556,1,0,0:0:0:0:
64,192,114704,1,0,0:0:0:0:
192,192,114704,1,0,0:0:0:0:
64,192,114853,1,0,0:0:0:0:
192,192,114853,1,0,0:0:0:0:
320,192,114853,1,0,0:0:0:0:
448,192,114853,1,0,0:0:0:0:
320,192,115001,1,0,0:0:0:0:
448,192,115001,1,0,0:0:0:0:
64,192,115001,1,0,0:0:0:0:
64,192,115150,1,0,0:0:0:0:
192,192,115150,1,0,0:0:0:0:
320,192,115150,1,0,0:0:0:0:
448,192,115150,1,0,0:0:0:0:
64,192,115298,1,0,0:0:0:0:
192,192,115298,1,0,0:0:0:0:
448,192,115298,1,0,0:0:0:0:
448,192,115447,1,0,0:0:0:0:
320,192,115447,1,0,0:0:0:0:
192,192,115447,1,0,0:0:0:0:
64,192,115447,1,0,0:0:0:0:
192,192,115595,1,0,0:0:0:0:
320,192,115595,1,0,0:0:0:0:
448,192,115595,1,0,0:0:0:0:
64,192,115744,1,0,0:0:0:0:
192,192,115744,1,0,0:0:0:0:
320,192,115744,1,0,0:0:0:0:
448,192,115744,1,0,0:0:0:0:
64,192,115892,1,0,0:0:0:0:
192,192,115892,1,0,0:0:0:0:
320,192,115892,1,0,0:0:0:0:
320,192,116041,1,0,0:0:0:0:
192,192,116041,1,0,0:0:0:0:
64,192,116041,1,0,0:0:0:0:
448,192,116041,1,0,0:0:0:0:
448,192,116189,1,0,0:0:0:0:
320,192,116189,1,0,0:0:0:0:
64,192,116189,1,0,0:0:0:0:
320,192,116338,1,0,0:0:0:0:
448,192,116338,1,0,0:0:0:0:
192,192,116338,1,0,0:0:0:0:
64,192,116338,1,0,0:0:0:0:
64,192,116486,1,0,0:0:0:0:
192,192,116486,1,0,0:0:0:0:
448,192,116486,1,0,0:0:0:0:
64,192,116635,1,0,0:0:0:0:
192,192,116635,1,0,0:0:0:0:
320,192,116635,1,0,0:0:0:0:
448,192,116635,1,0,0:0:0:0:
448,192,116783,1,0,0:0:0:0:
320,192,116783,1,0,0:0:0:0:
192,192,116783,1,0,0:0:0:0:
64,192,116783,1,0,0:0:0:0:
64,192,116932,1,0,0:0:0:0:
192,192,116932,1,0,0:0:0:0:
320,192,116932,1,0,0:0:0:0:
448,192,116932,1,0,0:0:0:0:
192,192,117080,1,0,0:0:0:0:
320,192,117080,1,0,0:0:0:0:
448,192,117080,1,0,0:0:0:0:
64,192,117229,1,0,0:0:0:0:
192,192,117229,1,0,0:0:0:0:
320,192,117229,1,0,0:0:0:0:
192,192,117377,1,0,0:0:0:0:
320,192,117377,1,0,0:0:0:0:
448,192,117377,1,0,0:0:0:0:
64,192,117526,1,0,0:0:0:0:
192,192,117526,1,0,0:0:0:0:
320,192,117526,1,0,0:0:0:0:
448,192,117526,1,0,0:0:0:0:
64,192,117674,1,0,0:0:0:0:
192,192,117674,1,0,0:0:0:0:
448,192,117674,1,0,0:0:0:0:
64,192,117823,1,0,0:0:0:0:
192,192,117823,1,0,0:0:0:0:
320,192,117823,1,0,0:0:0:0:
64,192,117971,1,0,0:0:0:0:
320,192,117971,1,0,0:0:0:0:
448,192,117971,1,0,0:0:0:0:
192,192,118120,1,0,0:0:0:0:
320,192,118120,1,0,0:0:0:0:
448,192,118120,1,0,0:0:0:0:
64,192,118268,1,0,0:0:0:0:
320,192,118268,1,0,0:0:0:0:
448,192,118268,1,0,0:0:0:0:
64,192,118417,1,0,0:0:0:0:
192,192,118417,1,0,0:0:0:0:
448,192,118417,1,0,0:0:0:0:
64,192,118565,1,0,0:0:0:0:
320,192,118565,1,0,0:0:0:0:
448,192,118565,1,0,0:0:0:0:
64,192,118714,1,0,0:0:0:0:
192,192,118714,1,0,0:0:0:0:
320,192,118714,1,0,0:0:0:0:
448,192,118714,1,0,0:0:0:0:
448,192,118862,1,0,0:0:0:0:
192,192,118862,1,0,0:0:0:0:
448,192,119011,1,0,0:0:0:0:
320,192,119011,1,0,0:0:0:0:
192,192,119011,1,0,0:0:0:0:
64,192,119011,1,0,0:0:0:0:
64,192,119159,1,0,0:0:0:0:
320,192,119159,1,0,0:0:0:0:
64,192,119308,1,0,0:0:0:0:
192,192,119308,1,0,0:0:0:0:
320,192,119308,1,0,0:0:0:0:
448,192,119308,1,0,0:0:0:0:
192,192,119457,1,0,0:0:0:0:
64,192,119457,1,0,0:0:0:0:
448,192,119457,1,0,0:0:0:0:
320,192,119605,1,0,0:0:0:0:
192,192,119605,1,0,0:0:0:0:
64,192,119605,1,0,0:0:0:0:
448,192,119605,1,0,0:0:0:0:
192,192,119754,1,0,0:0:0:0:
320,192,119754,1,0,0:0:0:0:
448,192,119754,1,0,0:0:0:0:
64,192,119902,1,0,0:0:0:0:
192,192,119902,1,0,0:0:0:0:
320,192,119902,1,0,0:0:0:0:
448,192,119902,1,0,0:0:0:0:
64,192,120051,1,0,0:0:0:0:
320,192,120051,1,0,0:0:0:0:
448,192,120051,1,0,0:0:0:0:
64,192,120199,1,0,0:0:0:0:
192,192,120199,1,0,0:0:0:0:
320,192,120199,1,0,0:0:0:0:
448,192,120199,1,0,0:0:0:0:
192,192,120348,1,0,0:0:0:0:
448,192,120348,1,0,0:0:0:0:
64,192,120348,1,0,0:0:0:0:
64,192,120496,1,0,0:0:0:0:
192,192,120496,1,0,0:0:0:0:
320,192,120496,1,0,0:0:0:0:
448,192,120496,1,0,0:0:0:0:
64,192,120645,1,0,0:0:0:0:
320,192,120645,1,0,0:0:0:0:
192,192,120645,1,0,0:0:0:0:
448,192,120793,1,0,0:0:0:0:
320,192,120793,1,0,0:0:0:0:
192,192,120793,1,0,0:0:0:0:
64,192,120793,1,0,0:0:0:0:
320,192,120942,1,0,0:0:0:0:
448,192,120942,1,0,0:0:0:0:
448,192,121090,1,0,0:0:0:0:
320,192,121090,1,0,0:0:0:0:
192,192,121090,1,0,0:0:0:0:
64,192,121090,1,0,0:0:0:0:
64,192,121239,1,0,0:0:0:0:
192,192,121239,1,0,0:0:0:0:
448,192,121239,1,0,0:0:0:0:
448,192,121387,1,0,0:0:0:0:
320,192,121387,1,0,0:0:0:0:
192,192,121387,1,0,0:0:0:0:
64,192,121387,1,0,0:0:0:0:
64,192,121536,1,0,0:0:0:0:
320,192,121536,1,0,0:0:0:0:
448,192,121536,1,0,0:0:0:0:
64,192,121684,1,0,0:0:0:0:
192,192,121684,1,0,0:0:0:0:
320,192,121684,1,0,0:0:0:0:
448,192,121684,1,0,0:0:0:0:
192,192,121833,1,0,0:0:0:0:
64,192,121833,1,0,0:0:0:0:
320,192,121833,1,0,0:0:0:0:
64,192,121981,1,0,0:0:0:0:
192,192,121981,1,0,0:0:0:0:
320,192,121981,1,0,0:0:0:0:
448,192,121981,1,0,0:0:0:0:
192,192,122130,1,0,0:0:0:0:
320,192,122130,1,0,0:0:0:0:
448,192,122130,1,0,0:0:0:0:
448,192,122278,1,0,0:0:0:0:
320,192,122278,1,0,0:0:0:0:
192,192,122278,1,0,0:0:0:0:
64,192,122278,1,0,0:0:0:0:
64,192,122427,1,0,0:0:0:0:
192,192,122427,1,0,0:0:0:0:
448,192,122427,1,0,0:0:0:0:
64,192,122575,1,0,0:0:0:0:
192,192,122575,1,0,0:0:0:0:
448,192,122575,1,0,0:0:0:0:
320,192,122575,1,0,0:0:0:0:
320,192,122724,1,0,0:0:0:0:
64,192,122724,1,0,0:0:0:0:
448,192,122724,1,0,0:0:0:0:
64,192,122872,1,0,0:0:0:0:
192,192,122872,1,0,0:0:0:0:
320,192,122872,1,0,0:0:0:0:
448,192,122872,1,0,0:0:0:0:
64,192,123021,1,0,0:0:0:0:
192,192,123021,1,0,0:0:0:0:
320,192,123021,1,0,0:0:0:0:
448,192,123021,1,0,0:0:0:0:
192,192,123169,1,0,0:0:0:0:
64,192,123169,1,0,0:0:0:0:
320,192,123244,1,0,0:0:0:0:
448,192,123244,1,0,0:0:0:0:
192,192,123318,1,0,0:0:0:0:
64,192,123318,1,0,0:0:0:0:
320,192,123392,1,0,0:0:0:0:
448,192,123392,1,0,0:0:0:0:
192,192,123466,1,0,0:0:0:0:
64,192,123466,1,0,0:0:0:0:
64,192,123615,1,0,0:0:0:0:
192,192,123615,1,0,0:0:0:0:
64,192,123763,1,0,0:0:0:0:
192,192,123763,1,0,0:0:0:0:
320,192,123763,1,0,0:0:0:0:
448,192,123763,1,0,0:0:0:0:
448,192,123912,1,0,0:0:0:0:
320,192,123912,1,0,0:0:0:0:
320,192,124060,1,0,0:0:0:0:
448,192,124060,1,0,0:0:0:0:
192,192,124060,1,0,0:0:0:0:
64,192,124060,1,0,0:0:0:0:
64,192,124209,1,0,0:0:0:0:
192,192,124209,1,0,0:0:0:0:
448,192,124209,1,0,0:0:0:0:
64,192,124357,1,0,0:0:0:0:
192,192,124357,1,0,0:0:0:0:
320,192,124357,1,0,0:0:0:0:
448,192,124357,1,0,0:0:0:0:
64,192,124506,1,0,0:0:0:0:
320,192,124506,1,0,0:0:0:0:
448,192,124506,1,0,0:0:0:0:
64,192,124655,1,0,0:0:0:0:
192,192,124655,1,0,0:0:0:0:
320,192,124655,1,0,0:0:0:0:
448,192,124655,1,0,0:0:0:0:
64,192,124803,1,0,0:0:0:0:
192,192,124803,1,0,0:0:0:0:
320,192,124803,1,0,0:0:0:0:
64,192,124952,1,0,0:0:0:0:
192,192,124952,1,0,0:0:0:0:
320,192,124952,1,0,0:0:0:0:
448,192,124952,1,0,0:0:0:0:
320,192,125100,1,0,0:0:0:0:
192,192,125100,1,0,0:0:0:0:
448,192,125100,1,0,0:0:0:0:
192,192,125249,1,0,0:0:0:0:
64,192,125249,1,0,0:0:0:0:
320,192,125249,1,0,0:0:0:0:
448,192,125249,1,0,0:0:0:0:
64,192,125397,1,0,0:0:0:0:
192,192,125397,1,0,0:0:0:0:
448,192,125397,1,0,0:0:0:0:
64,192,125546,1,0,0:0:0:0:
320,192,125546,1,0,0:0:0:0:
448,192,125546,1,0,0:0:0:0:
64,192,125694,1,0,0:0:0:0:
192,192,125694,1,0,0:0:0:0:
320,192,125694,1,0,0:0:0:0:
320,192,125843,1,0,0:0:0:0:
448,192,125843,1,0,0:0:0:0:
192,192,125843,1,0,0:0:0:0:
64,192,125843,1,0,0:0:0:0:
448,192,125991,1,0,0:0:0:0:
320,192,125991,1,0,0:0:0:0:
192,192,125991,1,0,0:0:0:0:
64,192,126140,1,0,0:0:0:0:
320,192,126140,1,0,0:0:0:0:
192,192,126140,1,0,0:0:0:0:
192,192,126288,1,0,0:0:0:0:
448,192,126288,1,0,0:0:0:0:
320,192,126288,1,0,0:0:0:0:
64,192,126437,1,0,0:0:0:0:
192,192,126437,1,0,0:0:0:0:
320,192,126437,1,0,0:0:0:0:
448,192,126437,1,0,0:0:0:0:
64,192,126585,1,0,0:0:0:0:
192,192,126585,1,0,0:0:0:0:
64,192,126734,1,0,0:0:0:0:
192,192,126734,1,0,0:0:0:0:
320,192,126734,1,0,0:0:0:0:
448,192,126734,1,0,0:0:0:0:
448,192,126882,1,0,0:0:0:0:
320,192,126882,1,0,0:0:0:0:
320,192,127031,1,0,0:0:0:0:
448,192,127031,1,0,0:0:0:0:
192,192,127031,1,0,0:0:0:0:
64,192,127031,1,0,0:0:0:0:
64,192,127179,1,0,0:0:0:0:
192,192,127179,1,0,0:0:0:0:
448,192,127179,1,0,0:0:0:0:
64,192,127328,1,0,0:0:0:0:
192,192,127328,1,0,0:0:0:0:
320,192,127328,1,0,0:0:0:0:
448,192,127328,1,0,0:0:0:0:
64,192,127476,1,0,0:0:0:0:
320,192,127476,1,0,0:0:0:0:
448,192,127476,1,0,0:0:0:0:
64,192,127625,1,0,0:0:0:0:
192,192,127625,1,0,0:0:0:0:
320,192,127625,1,0,0:0:0:0:
448,192,127625,1,0,0:0:0:0:
192,192,127773,1,0,0:0:0:0:
320,192,127773,1,0,0:0:0:0:
64,192,127773,1,0,0:0:0:0:
64,192,127922,1,0,0:0:0:0:
192,192,127922,1,0,0:0:0:0:
320,192,127922,1,0,0:0:0:0:
448,192,127922,1,0,0:0:0:0:
448,192,128070,1,0,0:0:0:0:
320,192,128070,1,0,0:0:0:0:
192,192,128070,1,0,0:0:0:0:
320,192,128219,1,0,0:0:0:0:
448,192,128219,1,0,0:0:0:0:
192,192,128219,1,0,0:0:0:0:
64,192,128219,1,0,0:0:0:0:
64,192,128367,1,0,0:0:0:0:
192,192,128367,1,0,0:0:0:0:
64,192,128516,1,0,0:0:0:0:
192,192,128516,1,0,0:0:0:0:
320,192,128516,1,0,0:0:0:0:
448,192,128516,1,0,0:0:0:0:
448,192,128664,1,0,0:0:0:0:
320,192,128664,1,0,0:0:0:0:
320,192,128813,1,0,0:0:0:0:
448,192,128813,1,0,0:0:0:0:
192,192,128813,1,0,0:0:0:0:
64,192,128813,1,0,0:0:0:0:
64,192,128961,1,0,0:0:0:0:
192,192,128961,1,0,0:0:0:0:
448,192,128961,1,0,0:0:0:0:
64,192,129110,1,0,0:0:0:0:
192,192,129110,1,0,0:0:0:0:
320,192,129110,1,0,0:0:0:0:
448,192,129110,1,0,0:0:0:0:
64,192,129258,1,0,0:0:0:0:
320,192,129258,1,0,0:0:0:0:
448,192,129258,1,0,0:0:0:0:
448,192,129407,1,0,0:0:0:0:
320,192,129407,1,0,0:0:0:0:
192,192,129407,1,0,0:0:0:0:
64,192,129407,1,0,0:0:0:0:
64,192,129556,1,0,0:0:0:0:
192,192,129556,1,0,0:0:0:0:
320,192,129556,1,0,0:0:0:0:
64,192,129704,1,0,0:0:0:0:
192,192,129704,1,0,0:0:0:0:
320,192,129704,1,0,0:0:0:0:
448,192,129704,1,0,0:0:0:0:
448,192,129853,1,0,0:0:0:0:
320,192,129853,1,0,0:0:0:0:
192,192,129853,1,0,0:0:0:0:
64,192,130001,1,0,0:0:0:0:
192,192,130001,1,0,0:0:0:0:
320,192,130001,1,0,0:0:0:0:
448,192,130001,1,0,0:0:0:0:
64,192,130150,1,0,0:0:0:0:
192,192,130150,1,0,0:0:0:0:
64,192,130298,1,0,0:0:0:0:
192,192,130298,1,0,0:0:0:0:
320,192,130298,1,0,0:0:0:0:
448,192,130298,1,0,0:0:0:0:
448,192,130447,1,0,0:0:0:0:
320,192,130447,1,0,0:0:0:0:
320,192,130595,1,0,0:0:0:0:
448,192,130595,1,0,0:0:0:0:
192,192,130595,1,0,0:0:0:0:
64,192,130595,1,0,0:0:0:0:
64,192,130744,1,0,0:0:0:0:
192,192,130744,1,0,0:0:0:0:
448,192,130744,1,0,0:0:0:0:
448,192,130892,1,0,0:0:0:0:
320,192,130892,1,0,0:0:0:0:
192,192,130892,1,0,0:0:0:0:
64,192,130892,1,0,0:0:0:0:
64,192,131041,1,0,0:0:0:0:
320,192,131041,1,0,0:0:0:0:
448,192,131041,1,0,0:0:0:0:
448,192,131189,1,0,0:0:0:0:
320,192,131189,1,0,0:0:0:0:
192,192,131189,1,0,0:0:0:0:
64,192,131189,1,0,0:0:0:0:
64,192,131338,1,0,0:0:0:0:
192,192,131338,1,0,0:0:0:0:
320,192,131338,1,0,0:0:0:0:
64,192,131486,1,0,0:0:0:0:
192,192,131486,1,0,0:0:0:0:
320,192,131486,1,0,0:0:0:0:
448,192,131486,1,0,0:0:0:0:
448,192,131635,1,0,0:0:0:0:
320,192,131635,1,0,0:0:0:0:
192,192,131635,1,0,0:0:0:0:
192,192,131783,1,0,0:0:0:0:
320,192,131783,1,0,0:0:0:0:
448,192,131783,1,0,0:0:0:0:
64,192,131783,1,0,0:0:0:0:
64,192,131932,1,0,0:0:0:0:
192,192,131932,1,0,0:0:0:0:
64,192,132080,1,0,0:0:0:0:
192,192,132080,1,0,0:0:0:0:
320,192,132080,1,0,0:0:0:0:
448,192,132080,1,0,0:0:0:0:
448,192,132229,1,0,0:0:0:0:
320,192,132229,1,0,0:0:0:0:
320,192,132377,1,0,0:0:0:0:
448,192,132377,1,0,0:0:0:0:
192,192,132377,1,0,0:0:0:0:
64,192,132377,1,0,0:0:0:0:
64,192,132526,1,0,0:0:0:0:
192,192,132526,1,0,0:0:0:0:
320,192,132526,1,0,0:0:0:0:
448,192,132526,1,0,0:0:0:0:
64,192,132674,1,0,0:0:0:0:
192,192,132674,1,0,0:0:0:0:
320,192,132749,1,0,0:0:0:0:
448,192,132749,1,0,0:0:0:0:
192,192,132823,1,0,0:0:0:0:
64,192,132823,1,0,0:0:0:0:
320,192,132897,1,0,0:0:0:0:
448,192,132897,1,0,0:0:0:0:
192,192,132971,1,0,0:0:0:0:
64,192,132971,1,0,0:0:0:0:
64,192,133120,1,0,0:0:0:0:
192,192,133120,1,0,0:0:0:0:
64,192,133268,1,0,0:0:0:0:
192,192,133268,1,0,0:0:0:0:
320,192,133268,1,0,0:0:0:0:
448,192,133268,1,0,0:0:0:0:
448,192,133417,1,0,0:0:0:0:
320,192,133417,1,0,0:0:0:0:
320,192,133565,1,0,0:0:0:0:
448,192,133565,1,0,0:0:0:0:
192,192,133565,1,0,0:0:0:0:
64,192,133565,1,0,0:0:0:0:
64,192,133714,1,0,0:0:0:0:
192,192,133714,1,0,0:0:0:0:
320,192,133714,1,0,0:0:0:0:
64,192,133862,1,0,0:0:0:0:
192,192,133862,1,0,0:0:0:0:
320,192,133862,1,0,0:0:0:0:
448,192,133862,1,0,0:0:0:0:
192,192,134011,1,0,0:0:0:0:
320,192,134011,1,0,0:0:0:0:
448,192,134011,1,0,0:0:0:0:
64,192,134159,1,0,0:0:0:0:
192,192,134159,1,0,0:0:0:0:
320,192,134159,1,0,0:0:0:0:
448,192,134159,1,0,0:0:0:0:
64,192,134308,1,0,0:0:0:0:
192,192,134308,1,0,0:0:0:0:
448,192,134308,1,0,0:0:0:0:
64,192,134457,1,0,0:0:0:0:
192,192,134457,1,0,0:0:0:0:
320,192,134457,1,0,0:0:0:0:
448,192,134457,1,0,0:0:0:0:
448,192,134605,1,0,0:0:0:0:
320,192,134605,1,0,0:0:0:0:
64,192,134605,1,0,0:0:0:0:
64,192,134754,1,0,0:0:0:0:
192,192,134754,1,0,0:0:0:0:
320,192,134754,1,0,0:0:0:0:
448,192,134754,1,0,0:0:0:0:
64,192,134902,1,0,0:0:0:0:
192,192,134902,1,0,0:0:0:0:
192,192,135051,1,0,0:0:0:0:
320,192,135051,1,0,0:0:0:0:
448,192,135051,1,0,0:0:0:0:
64,192,135051,1,0,0:0:0:0:
320,192,135199,1,0,0:0:0:0:
448,192,135199,1,0,0:0:0:0:
64,192,135348,1,0,0:0:0:0:
192,192,135348,1,0,0:0:0:0:
320,192,135348,1,0,0:0:0:0:
448,192,135348,1,0,0:0:0:0:
64,192,135496,1,0,0:0:0:0:
192,192,135496,1,0,0:0:0:0:
320,192,135496,1,0,0:0:0:0:
64,192,135645,1,0,0:0:0:0:
320,192,135645,1,0,0:0:0:0:
448,192,135645,1,0,0:0:0:0:
64,192,135793,1,0,0:0:0:0:
320,192,135793,1,0,0:0:0:0:
448,192,135793,1,0,0:0:0:0:
64,192,135942,1,0,0:0:0:0:
320,192,135942,1,0,0:0:0:0:
448,192,135942,1,0,0:0:0:0:
192,192,135942,1,0,0:0:0:0:
192,192,136090,1,0,0:0:0:0:
448,192,136090,1,0,0:0:0:0:
64,192,136090,1,0,0:0:0:0:
64,192,136239,1,0,0:0:0:0:
320,192,136239,1,0,0:0:0:0:
448,192,136239,1,0,0:0:0:0:
192,192,136239,1,0,0:0:0:0:
192,192,136387,1,0,0:0:0:0:
320,192,136387,1,0,0:0:0:0:
448,192,136387,1,0,0:0:0:0:
192,192,136536,1,0,0:0:0:0:
64,192,136536,1,0,0:0:0:0:
320,192,136536,1,0,0:0:0:0:
448,192,136536,1,0,0:0:0:0:
64,192,136684,1,0,0:0:0:0:
192,192,136684,1,0,0:0:0:0:
64,192,136833,1,0,0:0:0:0:
192,192,136833,1,0,0:0:0:0:
448,192,136833,1,0,0:0:0:0:
320,192,136833,1,0,0:0:0:0:
320,192,136981,1,0,0:0:0:0:
448,192,136981,1,0,0:0:0:0:
448,192,137130,1,0,0:0:0:0:
320,192,137130,1,0,0:0:0:0:
192,192,137130,1,0,0:0:0:0:
64,192,137130,1,0,0:0:0:0:
64,192,137278,1,0,0:0:0:0:
448,192,137278,1,0,0:0:0:0:
448,192,137427,1,0,0:0:0:0:
320,192,137427,1,0,0:0:0:0:
192,192,137427,1,0,0:0:0:0:
64,192,137427,1,0,0:0:0:0:
320,192,137575,1,0,0:0:0:0:
64,192,137575,1,0,0:0:0:0:
448,192,137575,1,0,0:0:0:0:
64,192,137724,1,0,0:0:0:0:
192,192,137724,1,0,0:0:0:0:
320,192,137724,1,0,0:0:0:0:
448,192,137724,1,0,0:0:0:0:
64,192,137872,1,0,0:0:0:0:
192,192,137872,1,0,0:0:0:0:
64,192,138021,1,0,0:0:0:0:
192,192,138021,1,0,0:0:0:0:
320,192,138021,1,0,0:0:0:0:
448,192,138021,1,0,0:0:0:0:
448,192,138169,1,0,0:0:0:0:
320,192,138169,1,0,0:0:0:0:
320,192,138318,1,0,0:0:0:0:
448,192,138318,1,0,0:0:0:0:
192,192,138318,1,0,0:0:0:0:
64,192,138318,1,0,0:0:0:0:
192,192,138466,1,0,0:0:0:0:
320,192,138466,1,0,0:0:0:0:
64,192,138466,1,0,0:0:0:0:
64,192,138615,1,0,0:0:0:0:
192,192,138615,1,0,0:0:0:0:
320,192,138615,1,0,0:0:0:0:
448,192,138615,1,0,0:0:0:0:
192,192,138763,1,0,0:0:0:0:
320,192,138763,1,0,0:0:0:0:
448,192,138763,1,0,0:0:0:0:
64,192,138912,1,0,0:0:0:0:
192,192,138912,1,0,0:0:0:0:
320,192,138912,1,0,0:0:0:0:
448,192,138912,1,0,0:0:0:0:
64,192,139060,1,0,0:0:0:0:
192,192,139060,1,0,0:0:0:0:
448,192,139060,1,0,0:0:0:0:
64,192,139209,1,0,0:0:0:0:
192,192,139209,1,0,0:0:0:0:
320,192,139209,1,0,0:0:0:0:
448,192,139209,1,0,0:0:0:0:
64,192,139357,1,0,0:0:0:0:
320,192,139357,1,0,0:0:0:0:
448,192,139357,1,0,0:0:0:0:
64,192,139506,1,0,0:0:0:0:
192,192,139506,1,0,0:0:0:0:
320,192,139506,1,0,0:0:0:0:
448,192,139506,1,0,0:0:0:0:
192,192,139655,1,0,0:0:0:0:
64,192,139655,1,0,0:0:0:0:
448,192,139803,1,0,0:0:0:0:
320,192,139803,1,0,0:0:0:0:
192,192,139803,1,0,0:0:0:0:
64,192,139803,1,0,0:0:0:0:
320,192,139952,1,0,0:0:0:0:
448,192,139952,1,0,0:0:0:0:
448,192,140100,1,0,0:0:0:0:
320,192,140100,1,0,0:0:0:0:
192,192,140100,1,0,0:0:0:0:
64,192,140100,1,0,0:0:0:0:
64,192,140249,1,0,0:0:0:0:
192,192,140249,1,0,0:0:0:0:
320,192,140249,1,0,0:0:0:0:
64,192,140397,1,0,0:0:0:0:
192,192,140397,1,0,0:0:0:0:
320,192,140397,1,0,0:0:0:0:
448,192,140397,1,0,0:0:0:0:
64,192,140546,1,0,0:0:0:0:
192,192,140546,1,0,0:0:0:0:
320,192,140546,1,0,0:0:0:0:
448,192,140546,1,0,0:0:0:0:
448,192,140694,1,0,0:0:0:0:
320,192,140694,1,0,0:0:0:0:
192,192,140694,1,0,0:0:0:0:
64,192,140694,1,0,0:0:0:0:
64,192,140843,1,0,0:0:0:0:
320,192,140843,1,0,0:0:0:0:
448,192,140843,1,0,0:0:0:0:
64,192,140991,1,0,0:0:0:0:
192,192,140991,1,0,0:0:0:0:
320,192,140991,1,0,0:0:0:0:
448,192,140991,1,0,0:0:0:0:
64,192,141140,1,0,0:0:0:0:
192,192,141140,1,0,0:0:0:0:
320,192,141140,1,0,0:0:0:0:
64,192,141288,1,0,0:0:0:0:
192,192,141288,1,0,0:0:0:0:
320,192,141288,1,0,0:0:0:0:
448,192,141288,1,0,0:0:0:0:
192,192,141437,1,0,0:0:0:0:
320,192,141437,1,0,0:0:0:0:
448,192,141437,1,0,0:0:0:0:
448,192,141585,1,0,0:0:0:0:
320,192,141585,1,0,0:0:0:0:
192,192,141585,1,0,0:0:0:0:
64,192,141585,1,0,0:0:0:0:
64,192,141734,1,0,0:0:0:0:
192,192,141734,1,0,0:0:0:0:
448,192,141734,1,0,0:0:0:0:
192,192,141882,1,0,0:0:0:0:
64,192,141882,1,0,0:0:0:0:
320,192,141882,1,0,0:0:0:0:
448,192,141882,1,0,0:0:0:0:
64,192,142031,1,0,0:0:0:0:
320,192,142031,1,0,0:0:0:0:
448,192,142031,1,0,0:0:0:0:
192,192,142031,1,0,0:0:0:0:
192,192,142179,1,0,0:0:0:0:
64,192,142179,1,0,0:0:0:0:
320,192,142254,1,0,0:0:0:0:
448,192,142254,1,0,0:0:0:0:
192,192,142328,1,0,0:0:0:0:
64,192,142328,1,0,0:0:0:0:
320,192,142402,1,0,0:0:0:0:
448,192,142402,1,0,0:0:0:0:
192,192,142476,1,0,0:0:0:0:
64,192,142476,1,0,0:0:0:0:
