osu file format v14

[General]
AudioFilename: audio.mp3
AudioLeadIn: 0
PreviewTime: 141983
Countdown: 0
SampleSet: Normal
StackLeniency: 0.7
Mode: 3
LetterboxInBreaks: 0
SpecialStyle: 0
WidescreenStoryboard: 1

[Editor]
Bookmarks: 64237,106490
DistanceSpacing: 0.9
BeatDivisor: 12
GridSize: 32
TimelineZoom: 1.3

[Metadata]
Title:GMF (Cut Ver.)
TitleUnicode:GMF (Cut Ver.)
Artist:John Grant
ArtistUnicode:John Grant
Creator:Roasted Chicken
Version:love is temporary but being a mf is eternal
Source:
Tags:phasezeta mmcc mamachacha unluckycroco greatest motherfucker english freak psychedelic folk alternative indie progressive rock Pale Green Ghosts Sinead Sinéad O'Connor
BeatmapID:2848185
BeatmapSetID:1378279

[Difficulty]
HPDrainRate:7.5
CircleSize:9
OverallDifficulty:7.5
ApproachRate:5
SliderMultiplier:1.4
SliderTickRate:1

[Events]
//Background and Video events
0,0,"bench.jpg",0,0
//Break Periods
//Storyboard Layer 0 (Background)
//Storyboard Layer 1 (Fail)
//Storyboard Layer 2 (Pass)
//Storyboard Layer 3 (Foreground)
//Storyboard Layer 4 (Overlay)
//Storyboard Sound Samples

[TimingPoints]
3392,845.070422535211,4,1,1,20,1,0
64237,-100,4,1,1,20,0,1
64659,-100,4,1,1,30,0,1
84518,-100,4,1,1,30,0,0
84941,-100,4,1,1,30,0,1
91279,-100,4,1,1,30,0,0
91701,-100,4,1,1,30,0,1
98039,-100,4,1,1,20,0,0
141983,-100,4,1,1,20,0,1
142194,-100,4,1,1,30,0,1
162265,-100,4,1,1,30,0,0
162687,-100,4,1,1,30,0,1
169025,-100,4,1,1,30,0,0
169448,-100,4,1,1,30,0,1
175786,-100,4,1,1,30,0,0
176208,-100,4,1,1,30,0,1
196068,-100,4,1,1,30,0,0
196490,-100,4,1,1,30,0,1
202828,-100,4,1,1,30,0,0
203110,-100,4,1,1,27,0,1
209589,-100,4,1,1,27,0,0
210011,-100,4,1,1,25,0,1
216349,-100,4,1,1,20,0,0

[HitObjects]
28,192,3392,5,0,0:0:0:0:
256,192,3392,1,0,0:0:0:0:
142,192,4237,1,0,0:0:0:0:
369,192,4237,1,0,0:0:0:0:
85,192,4870,1,0,0:0:0:0:
369,192,5082,1,0,0:0:0:0:
142,192,5082,1,0,0:0:0:0:
312,192,5293,1,0,0:0:0:0:
256,192,5504,1,0,0:0:0:0:
142,192,5927,1,0,0:0:0:0:
369,192,5927,1,0,0:0:0:0:
28,192,6349,1,0,0:0:0:0:
256,192,6561,1,0,0:0:0:0:
426,192,6772,128,0,8251:0:0:0:0:
142,192,6772,1,0,0:0:0:0:
312,192,7617,1,0,0:0:0:0:
142,192,7617,1,0,0:0:0:0:
199,192,8039,1,0,0:0:0:0:
256,192,8251,1,0,0:0:0:0:
142,192,8462,1,0,0:0:0:0:
312,192,8462,128,0,8673:0:0:0:0:
483,192,8673,128,0,8884:0:0:0:0:
199,192,8884,128,0,9096:0:0:0:0:
369,192,9307,1,0,0:0:0:0:
142,192,9307,128,0,9518:0:0:0:0:
256,192,9518,128,0,9730:0:0:0:0:
483,192,9730,1,0,0:0:0:0:
199,192,9941,128,0,10152:0:0:0:0:
85,192,10152,128,0,10997:0:0:0:0:
312,192,10152,1,0,0:0:0:0:
369,192,10997,128,0,11208:0:0:0:0:
256,192,10997,1,0,0:0:0:0:
369,192,11420,128,0,11631:0:0:0:0:
28,192,11631,1,0,0:0:0:0:
369,192,11842,128,0,12053:0:0:0:0:
256,192,11842,1,0,0:0:0:0:
142,192,12053,1,0,0:0:0:0:
142,192,12265,128,0,13110:0:0:0:0:
483,192,12476,1,0,0:0:0:0:
256,192,12687,1,0,0:0:0:0:
369,192,12687,1,0,0:0:0:0:
312,192,13110,128,0,13532:0:0:0:0:
28,192,13321,1,0,0:0:0:0:
426,192,13532,1,0,0:0:0:0:
199,192,13532,128,0,13744:0:0:0:0:
85,192,13744,1,0,0:0:0:0:
85,192,13955,128,0,14800:0:0:0:0:
426,192,14377,1,0,0:0:0:0:
199,192,14377,1,0,0:0:0:0:
312,192,14800,1,0,0:0:0:0:
256,192,15011,1,0,0:0:0:0:
199,192,15222,1,0,0:0:0:0:
426,192,15222,1,0,0:0:0:0:
312,192,15434,128,0,15645:0:0:0:0:
28,192,15645,1,0,0:0:0:0:
312,192,15856,128,0,16068:0:0:0:0:
199,192,16068,1,0,0:0:0:0:
426,192,16068,1,0,0:0:0:0:
142,192,16279,128,0,16490:0:0:0:0:
369,192,16490,1,0,0:0:0:0:
28,192,16701,128,0,16913:0:0:0:0:
142,192,16913,1,0,0:0:0:0:
312,192,16913,1,0,0:0:0:0:
256,192,17124,128,0,17335:0:0:0:0:
256,192,17546,128,0,18180:0:0:0:0:
85,192,17758,1,0,0:0:0:0:
426,192,17758,1,0,0:0:0:0:
369,192,17969,128,0,18180:0:0:0:0:
142,192,18180,128,0,19448:0:0:0:0:
312,192,18391,1,0,0:0:0:0:
483,192,18603,1,0,0:0:0:0:
256,192,18814,1,0,0:0:0:0:
426,192,19025,1,0,0:0:0:0:
369,192,19448,1,0,0:0:0:0:
199,192,19448,1,0,0:0:0:0:
312,192,19870,1,0,0:0:0:0:
256,192,20082,1,0,0:0:0:0:
199,192,20293,1,0,0:0:0:0:
28,192,20293,1,0,0:0:0:0:
483,192,20293,1,0,0:0:0:0:
199,192,21138,1,0,0:0:0:0:
28,192,21138,1,0,0:0:0:0:
426,192,21561,1,0,0:0:0:0:
312,192,21772,1,0,0:0:0:0:
28,192,21983,1,0,0:0:0:0:
199,192,21983,1,0,0:0:0:0:
256,192,22194,1,0,0:0:0:0:
312,192,22406,1,0,0:0:0:0:
85,192,22617,1,0,0:0:0:0:
199,192,22828,1,0,0:0:0:0:
28,192,22828,1,0,0:0:0:0:
426,192,23039,1,0,0:0:0:0:
142,192,23251,1,0,0:0:0:0:
426,192,23462,1,0,0:0:0:0:
256,192,23673,1,0,0:0:0:0:
85,192,23673,1,0,0:0:0:0:
369,192,24096,128,0,24307:0:0:0:0:
369,192,24518,1,0,0:0:0:0:
142,192,24518,1,0,0:0:0:0:
369,192,24730,128,0,24941:0:0:0:0:
256,192,24941,1,0,0:0:0:0:
369,192,25152,128,0,25575:0:0:0:0:
199,192,25363,1,0,0:0:0:0:
28,192,25363,1,0,0:0:0:0:
256,192,25575,128,0,25786:0:0:0:0:
312,192,25786,1,0,0:0:0:0:
256,192,25997,128,0,26420:0:0:0:0:
369,192,26208,1,0,0:0:0:0:
483,192,26208,1,0,0:0:0:0:
256,192,26631,1,0,0:0:0:0:
256,192,26842,128,0,27265:0:0:0:0:
85,192,27053,1,0,0:0:0:0:
483,192,27053,1,0,0:0:0:0:
426,192,27159,1,0,0:0:0:0:
142,192,27265,128,0,27476:0:0:0:0:
369,192,27265,1,0,0:0:0:0:
312,192,27370,1,0,0:0:0:0:
256,192,27476,1,0,0:0:0:0:
142,192,27687,128,0,27899:0:0:0:0:
369,192,27793,1,0,0:0:0:0:
312,192,27846,1,0,0:0:0:0:
256,192,27899,1,0,0:0:0:0:
426,192,28057,1,0,0:0:0:0:
142,192,28110,128,0,28638:0:0:0:0:
369,192,28110,1,0,0:0:0:0:
312,192,28163,1,0,0:0:0:0:
483,192,28321,1,0,0:0:0:0:
426,192,28374,1,0,0:0:0:0:
369,192,28427,1,0,0:0:0:0:
256,192,28532,1,0,0:0:0:0:
312,192,28638,1,0,0:0:0:0:
369,192,28744,1,0,0:0:0:0:
199,192,28849,1,0,0:0:0:0:
85,192,28955,1,0,0:0:0:0:
256,192,29166,1,0,0:0:0:0:
256,192,29377,128,0,29589:0:0:0:0:
426,192,29589,1,0,0:0:0:0:
142,192,29800,128,0,30011:0:0:0:0:
312,192,30011,1,0,0:0:0:0:
28,192,30222,128,0,30434:0:0:0:0:
199,192,30434,1,0,0:0:0:0:
426,192,30434,1,0,0:0:0:0:
312,192,30645,128,0,30856:0:0:0:0:
312,192,31068,128,0,31701:0:0:0:0:
256,192,31279,1,0,0:0:0:0:
85,192,31279,1,0,0:0:0:0:
426,192,31490,128,0,31701:0:0:0:0:
199,192,31701,128,0,32969:0:0:0:0:
369,192,31913,1,0,0:0:0:0:
256,192,32124,1,0,0:0:0:0:
142,192,32335,1,0,0:0:0:0:
483,192,32546,1,0,0:0:0:0:
369,192,32758,1,0,0:0:0:0:
256,192,32969,1,0,0:0:0:0:
85,192,32969,1,0,0:0:0:0:
142,192,33391,1,0,0:0:0:0:
199,192,33603,1,0,0:0:0:0:
256,192,33814,1,0,0:0:0:0:
483,192,33814,1,0,0:0:0:0:
85,192,34237,1,0,0:0:0:0:
256,192,34659,1,0,0:0:0:0:
483,192,34659,1,0,0:0:0:0:
199,192,34870,1,0,0:0:0:0:
142,192,35082,1,0,0:0:0:0:
312,192,35293,1,0,0:0:0:0:
256,192,35504,1,0,0:0:0:0:
426,192,35715,1,0,0:0:0:0:
369,192,35927,1,0,0:0:0:0:
256,192,36349,1,0,0:0:0:0:
28,192,36349,1,0,0:0:0:0:
426,192,36349,1,0,0:0:0:0:
199,192,36772,1,0,0:0:0:0:
369,192,36983,1,0,0:0:0:0:
312,192,37053,1,0,0:0:0:0:
256,192,37124,1,0,0:0:0:0:
199,192,37194,1,0,0:0:0:0:
426,192,37194,1,0,0:0:0:0:
85,192,37406,1,0,0:0:0:0:
369,192,37617,128,0,38039:0:0:0:0:
85,192,38039,1,0,0:0:0:0:
483,192,38039,1,0,0:0:0:0:
256,192,38039,128,0,38251:0:0:0:0:
142,192,38251,128,0,38462:0:0:0:0:
312,192,38462,1,0,0:0:0:0:
142,192,38673,128,0,38884:0:0:0:0:
199,192,38744,1,0,0:0:0:0:
312,192,38814,1,0,0:0:0:0:
369,192,38884,1,0,0:0:0:0:
483,192,38884,1,0,0:0:0:0:
142,192,39096,128,0,39307:0:0:0:0:
426,192,39307,1,0,0:0:0:0:
142,192,39518,128,0,39730:0:0:0:0:
483,192,39730,1,0,0:0:0:0:
28,192,39730,1,0,0:0:0:0:
312,192,39730,1,0,0:0:0:0:
142,192,39941,128,0,40152:0:0:0:0:
199,192,40152,1,0,0:0:0:0:
369,192,40363,1,0,0:0:0:0:
312,192,40434,1,0,0:0:0:0:
199,192,40504,1,0,0:0:0:0:
142,192,40575,1,0,0:0:0:0:
426,192,40575,128,0,40786:0:0:0:0:
85,192,40786,128,0,40997:0:0:0:0:
256,192,40997,1,0,0:0:0:0:
85,192,41208,128,0,41420:0:0:0:0:
312,192,41420,1,0,0:0:0:0:
199,192,41420,1,0,0:0:0:0:
483,192,41420,1,0,0:0:0:0:
85,192,41631,128,0,41842:0:0:0:0:
369,192,41842,1,0,0:0:0:0:
85,192,42053,128,0,42265:0:0:0:0:
199,192,42124,1,0,0:0:0:0:
256,192,42194,1,0,0:0:0:0:
426,192,42265,1,0,0:0:0:0:
312,192,42265,1,0,0:0:0:0:
85,192,42476,128,0,43110:0:0:0:0:
369,192,42687,1,0,0:0:0:0:
256,192,42899,1,0,0:0:0:0:
142,192,43110,1,0,0:0:0:0:
312,192,43110,1,0,0:0:0:0:
483,192,43110,1,0,0:0:0:0:
256,192,43532,128,0,43744:0:0:0:0:
369,192,43744,1,0,0:0:0:0:
312,192,43814,1,0,0:0:0:0:
199,192,43884,1,0,0:0:0:0:
28,192,43955,128,0,44166:0:0:0:0:
142,192,43955,1,0,0:0:0:0:
312,192,44166,128,0,44377:0:0:0:0:
199,192,44377,1,0,0:0:0:0:
312,192,44589,128,0,45222:0:0:0:0:
142,192,44800,1,0,0:0:0:0:
28,192,44800,1,0,0:0:0:0:
256,192,44800,1,0,0:0:0:0:
426,192,45011,128,0,45222:0:0:0:0:
199,192,45222,128,0,46490:0:0:0:0:
426,192,45434,1,0,0:0:0:0:
369,192,45504,1,0,0:0:0:0:
312,192,45575,1,0,0:0:0:0:
256,192,45645,1,0,0:0:0:0:
85,192,45645,1,0,0:0:0:0:
369,192,45856,1,0,0:0:0:0:
483,192,46068,1,0,0:0:0:0:
426,192,46490,1,0,0:0:0:0:
256,192,46490,1,0,0:0:0:0:
28,192,46490,1,0,0:0:0:0:
85,192,46913,1,0,0:0:0:0:
312,192,47124,1,0,0:0:0:0:
256,192,47194,1,0,0:0:0:0:
199,192,47265,1,0,0:0:0:0:
142,192,47335,1,0,0:0:0:0:
369,192,47335,1,0,0:0:0:0:
426,192,47758,1,0,0:0:0:0:
312,192,47969,1,0,0:0:0:0:
199,192,48180,1,0,0:0:0:0:
28,192,48180,1,0,0:0:0:0:
369,192,48180,1,0,0:0:0:0:
142,192,48603,1,0,0:0:0:0:
369,192,48814,1,0,0:0:0:0:
256,192,48920,1,0,0:0:0:0:
142,192,49025,1,0,0:0:0:0:
426,192,49025,1,0,0:0:0:0:
28,192,49237,1,0,0:0:0:0:
312,192,49448,1,0,0:0:0:0:
199,192,49870,1,0,0:0:0:0:
483,192,49870,1,0,0:0:0:0:
28,192,49870,1,0,0:0:0:0:
256,192,50082,1,0,0:0:0:0:
85,192,50293,1,0,0:0:0:0:
369,192,50504,1,0,0:0:0:0:
312,192,50575,1,0,0:0:0:0:
256,192,50645,1,0,0:0:0:0:
199,192,50715,1,0,0:0:0:0:
426,192,50715,1,0,0:0:0:0:
369,192,51138,128,0,51349:0:0:0:0:
256,192,51561,1,0,0:0:0:0:
85,192,51561,1,0,0:0:0:0:
369,192,51561,1,0,0:0:0:0:
369,192,51772,128,0,51983:0:0:0:0:
199,192,51983,1,0,0:0:0:0:
369,192,52194,128,0,52406:0:0:0:0:
312,192,52265,1,0,0:0:0:0:
199,192,52335,1,0,0:0:0:0:
426,192,52406,1,0,0:0:0:0:
142,192,52406,1,0,0:0:0:0:
256,192,52617,128,0,52828:0:0:0:0:
312,192,52828,1,0,0:0:0:0:
256,192,53039,128,0,53251:0:0:0:0:
426,192,53251,1,0,0:0:0:0:
85,192,53251,1,0,0:0:0:0:
256,192,53673,128,0,53884:0:0:0:0:
85,192,53884,1,0,0:0:0:0:
142,192,53955,1,0,0:0:0:0:
199,192,54025,1,0,0:0:0:0:
256,192,54096,128,0,54518:0:0:0:0:
426,192,54096,1,0,0:0:0:0:
142,192,54518,1,0,0:0:0:0:
142,192,54730,128,0,55363:0:0:0:0:
483,192,54941,1,0,0:0:0:0:
312,192,54941,1,0,0:0:0:0:
28,192,54941,1,0,0:0:0:0:
369,192,55152,128,0,55363:0:0:0:0:
256,192,55363,128,0,55786:0:0:0:0:
369,192,55575,1,0,0:0:0:0:
312,192,55645,1,0,0:0:0:0:
199,192,55715,1,0,0:0:0:0:
142,192,55786,1,0,0:0:0:0:
426,192,55786,1,0,0:0:0:0:
369,192,55997,1,0,0:0:0:0:
312,192,56068,1,0,0:0:0:0:
199,192,56138,1,0,0:0:0:0:
142,192,56208,1,0,0:0:0:0:
426,192,56631,128,0,56842:0:0:0:0:
199,192,56631,1,0,0:0:0:0:
28,192,56631,1,0,0:0:0:0:
256,192,56842,128,0,57265:0:0:0:0:
369,192,57053,1,0,0:0:0:0:
85,192,57265,128,0,57476:0:0:0:0:
199,192,57265,1,0,0:0:0:0:
312,192,57476,1,0,0:0:0:0:
483,192,57476,1,0,0:0:0:0:
142,192,57687,128,0,57899:0:0:0:0:
369,192,57899,1,0,0:0:0:0:
142,192,58110,128,0,58744:0:0:0:0:
312,192,58321,1,0,0:0:0:0:
483,192,58321,1,0,0:0:0:0:
28,192,58321,1,0,0:0:0:0:
369,192,58532,128,0,58744:0:0:0:0:
256,192,58744,128,0,60011:0:0:0:0:
426,192,58955,1,0,0:0:0:0:
312,192,59025,1,0,0:0:0:0:
199,192,59096,1,0,0:0:0:0:
85,192,59166,1,0,0:0:0:0:
483,192,59166,1,0,0:0:0:0:
369,192,59377,1,0,0:0:0:0:
142,192,59589,1,0,0:0:0:0:
312,192,60011,1,0,0:0:0:0:
426,192,60011,1,0,0:0:0:0:
28,192,60011,1,0,0:0:0:0:
369,192,60434,1,0,0:0:0:0:
142,192,60645,1,0,0:0:0:0:
199,192,60715,1,0,0:0:0:0:
256,192,60786,1,0,0:0:0:0:
312,192,60856,1,0,0:0:0:0:
85,192,60856,1,0,0:0:0:0:
369,192,61068,1,0,0:0:0:0:
312,192,61120,1,0,0:0:0:0:
256,192,61173,1,0,0:0:0:0:
199,192,61226,1,0,0:0:0:0:
142,192,61279,1,0,0:0:0:0:
312,192,61701,1,0,0:0:0:0:
426,192,61701,1,0,0:0:0:0:
28,192,61701,1,0,0:0:0:0:
256,192,62124,5,0,0:0:0:0:
369,192,62335,1,0,0:0:0:0:
312,192,62406,1,0,0:0:0:0:
199,192,62476,1,0,0:0:0:0:
142,192,62546,1,0,0:0:0:0:
28,192,62546,1,0,0:0:0:0:
312,192,62969,5,0,0:0:0:0:
426,192,62969,1,0,0:0:0:0:
426,192,63180,1,0,0:0:0:0:
312,192,63180,1,0,0:0:0:0:
426,192,63391,1,0,0:0:0:0:
312,192,63391,1,0,0:0:0:0:
256,192,63603,1,0,0:0:0:0:
85,192,63603,1,0,0:0:0:0:
142,192,63814,1,0,0:0:0:0:
312,192,63814,1,0,0:0:0:0:
369,192,64025,1,0,0:0:0:0:
199,192,64025,1,0,0:0:0:0:
256,192,64237,1,0,0:0:0:0:
426,192,64237,1,0,0:0:0:0:
28,192,64237,1,0,0:0:0:0:
483,192,64237,1,0,0:0:0:0:
85,192,64659,128,0,64870:0:0:0:0:
312,192,64659,1,0,0:0:0:0:
256,192,64870,1,0,0:0:0:0:
85,192,65082,128,0,65504:0:0:0:0:
199,192,65082,1,0,0:0:0:0:
483,192,65082,1,0,0:0:0:0:
426,192,65293,1,0,0:0:0:0:
369,192,65504,128,0,65715:0:0:0:0:
256,192,65504,1,0,0:0:0:0:
199,192,65715,1,0,0:0:0:0:
483,192,65715,1,0,0:0:0:0:
142,192,65715,128,0,66138:0:0:0:0:
256,192,65821,1,0,0:0:0:0:
312,192,65927,1,0,0:0:0:0:
28,192,65927,1,0,0:0:0:0:
199,192,66138,1,0,0:0:0:0:
426,192,66138,128,0,66349:0:0:0:0:
256,192,66349,1,0,0:0:0:0:
85,192,66561,1,0,0:0:0:0:
312,192,66772,1,0,0:0:0:0:
483,192,66772,1,0,0:0:0:0:
142,192,66772,1,0,0:0:0:0:
483,192,66983,128,0,67406:0:0:0:0:
312,192,66983,128,0,67194:0:0:0:0:
199,192,67194,1,0,0:0:0:0:
256,192,67406,1,0,0:0:0:0:
199,192,67476,1,0,0:0:0:0:
142,192,67546,1,0,0:0:0:0:
312,192,67617,1,0,0:0:0:0:
483,192,67617,1,0,0:0:0:0:
85,192,67617,1,0,0:0:0:0:
28,192,67828,128,0,68251:0:0:0:0:
199,192,67828,128,0,68039:0:0:0:0:
256,192,67899,1,0,0:0:0:0:
369,192,67969,1,0,0:0:0:0:
426,192,68039,1,0,0:0:0:0:
312,192,68251,1,0,0:0:0:0:
199,192,68462,1,0,0:0:0:0:
85,192,68462,128,0,68884:0:0:0:0:
369,192,68462,1,0,0:0:0:0:
312,192,68673,1,0,0:0:0:0:
426,192,68884,128,0,69307:0:0:0:0:
256,192,68884,1,0,0:0:0:0:
28,192,69096,1,0,0:0:0:0:
312,192,69307,1,0,0:0:0:0:
142,192,69307,1,0,0:0:0:0:
483,192,69307,1,0,0:0:0:0:
256,192,69518,1,0,0:0:0:0:
85,192,69518,1,0,0:0:0:0:
199,192,69730,1,0,0:0:0:0:
28,192,69730,1,0,0:0:0:0:
142,192,69941,1,0,0:0:0:0:
312,192,69941,1,0,0:0:0:0:
199,192,70152,1,0,0:0:0:0:
483,192,70152,1,0,0:0:0:0:
369,192,70152,128,0,70575:0:0:0:0:
256,192,70575,1,0,0:0:0:0:
85,192,70575,1,0,0:0:0:0:
142,192,70786,1,0,0:0:0:0:
312,192,70786,1,0,0:0:0:0:
199,192,70997,1,0,0:0:0:0:
483,192,70997,1,0,0:0:0:0:
369,192,70997,128,0,71420:0:0:0:0:
256,192,71420,128,0,71631:0:0:0:0:
426,192,71420,1,0,0:0:0:0:
142,192,71631,128,0,72265:0:0:0:0:
28,192,71631,1,0,0:0:0:0:
483,192,71842,1,0,0:0:0:0:
256,192,71842,1,0,0:0:0:0:
312,192,71842,1,0,0:0:0:0:
426,192,72053,1,0,0:0:0:0:
28,192,72265,128,0,72687:0:0:0:0:
369,192,72265,1,0,0:0:0:0:
199,192,72476,1,0,0:0:0:0:
312,192,72582,1,0,0:0:0:0:
142,192,72687,1,0,0:0:0:0:
426,192,72687,1,0,0:0:0:0:
256,192,72899,1,0,0:0:0:0:
199,192,73110,128,0,73321:0:0:0:0:
85,192,73110,1,0,0:0:0:0:
369,192,73321,1,0,0:0:0:0:
199,192,73532,128,0,73744:0:0:0:0:
85,192,73532,1,0,0:0:0:0:
483,192,73532,1,0,0:0:0:0:
312,192,73744,1,0,0:0:0:0:
199,192,73955,128,0,74166:0:0:0:0:
85,192,73955,1,0,0:0:0:0:
426,192,74166,128,0,74377:0:0:0:0:
312,192,74166,1,0,0:0:0:0:
256,192,74272,1,0,0:0:0:0:
199,192,74377,1,0,0:0:0:0:
28,192,74377,1,0,0:0:0:0:
369,192,74589,1,0,0:0:0:0:
85,192,74800,128,0,75011:0:0:0:0:
312,192,74800,1,0,0:0:0:0:
426,192,75011,1,0,0:0:0:0:
199,192,75011,128,0,75328:0:0:0:0:
369,192,75222,1,0,0:0:0:0:
28,192,75222,1,0,0:0:0:0:
142,192,75222,1,0,0:0:0:0:
483,192,75434,1,0,0:0:0:0:
312,192,75434,128,0,75856:0:0:0:0:
85,192,75645,1,0,0:0:0:0:
426,192,75856,128,0,76068:0:0:0:0:
199,192,75856,1,0,0:0:0:0:
142,192,75927,1,0,0:0:0:0:
85,192,75997,1,0,0:0:0:0:
256,192,76068,1,0,0:0:0:0:
28,192,76068,1,0,0:0:0:0:
369,192,76208,1,0,0:0:0:0:
142,192,76279,128,0,76490:0:0:0:0:
483,192,76349,1,0,0:0:0:0:
312,192,76490,1,0,0:0:0:0:
369,192,76631,1,0,0:0:0:0:
28,192,76701,128,0,77546:0:0:0:0:
426,192,76772,1,0,0:0:0:0:
312,192,76913,1,0,0:0:0:0:
483,192,76913,1,0,0:0:0:0:
199,192,77053,1,0,0:0:0:0:
85,192,77194,1,0,0:0:0:0:
369,192,77335,1,0,0:0:0:0:
312,192,77476,1,0,0:0:0:0:
256,192,77617,1,0,0:0:0:0:
199,192,77758,1,0,0:0:0:0:
28,192,77758,1,0,0:0:0:0:
483,192,77758,1,0,0:0:0:0:
426,192,78180,128,0,78391:0:0:0:0:
85,192,78180,128,0,78391:0:0:0:0:
312,192,78391,1,0,0:0:0:0:
85,192,78603,128,0,79237:0:0:0:0:
426,192,78603,128,0,78814:0:0:0:0:
256,192,78603,1,0,0:0:0:0:
369,192,78814,1,0,0:0:0:0:
199,192,79025,128,0,79237:0:0:0:0:
312,192,79025,1,0,0:0:0:0:
369,192,79237,1,0,0:0:0:0:
483,192,79237,128,0,80082:0:0:0:0:
312,192,79307,1,0,0:0:0:0:
256,192,79377,1,0,0:0:0:0:
199,192,79448,1,0,0:0:0:0:
28,192,79448,1,0,0:0:0:0:
312,192,79659,1,0,0:0:0:0:
142,192,79870,1,0,0:0:0:0:
369,192,79870,128,0,80082:0:0:0:0:
28,192,80082,128,0,80715:0:0:0:0:
256,192,80082,128,0,80293:0:0:0:0:
426,192,80293,1,0,0:0:0:0:
199,192,80293,1,0,0:0:0:0:
483,192,80293,1,0,0:0:0:0:
142,192,80504,128,0,80715:0:0:0:0:
312,192,80504,1,0,0:0:0:0:
369,192,80715,1,0,0:0:0:0:
199,192,80927,1,0,0:0:0:0:
256,192,80997,1,0,0:0:0:0:
312,192,81068,1,0,0:0:0:0:
483,192,81138,1,0,0:0:0:0:
85,192,81138,1,0,0:0:0:0:
369,192,81138,128,0,81561:0:0:0:0:
142,192,81279,1,0,0:0:0:0:
199,192,81420,1,0,0:0:0:0:
256,192,81561,1,0,0:0:0:0:
312,192,81701,1,0,0:0:0:0:
28,192,81772,128,0,82406:0:0:0:0:
369,192,81842,1,0,0:0:0:0:
426,192,81983,1,0,0:0:0:0:
256,192,81983,1,0,0:0:0:0:
199,192,82124,1,0,0:0:0:0:
142,192,82265,1,0,0:0:0:0:
483,192,82406,128,0,82617:0:0:0:0:
312,192,82406,1,0,0:0:0:0:
256,192,82546,1,0,0:0:0:0:
85,192,82617,128,0,83251:0:0:0:0:
199,192,82687,1,0,0:0:0:0:
142,192,82828,1,0,0:0:0:0:
312,192,82828,1,0,0:0:0:0:
426,192,82828,1,0,0:0:0:0:
256,192,83251,1,0,0:0:0:0:
312,192,83462,1,0,0:0:0:0:
28,192,83673,1,0,0:0:0:0:
369,192,83673,128,0,84096:0:0:0:0:
199,192,83673,128,0,84096:0:0:0:0:
312,192,84096,1,0,0:0:0:0:
142,192,84096,1,0,0:0:0:0:
256,192,84307,128,0,84518:0:0:0:0:
85,192,84307,128,0,84518:0:0:0:0:
312,192,84377,1,0,0:0:0:0:
369,192,84448,1,0,0:0:0:0:
426,192,84518,1,0,0:0:0:0:
199,192,84518,1,0,0:0:0:0:
28,192,84941,128,0,85152:0:0:0:0:
256,192,84941,128,0,85152:0:0:0:0:
142,192,85152,128,0,85997:0:0:0:0:
483,192,85152,1,0,0:0:0:0:
426,192,85363,1,0,0:0:0:0:
312,192,85363,1,0,0:0:0:0:
85,192,85363,1,0,0:0:0:0:
256,192,85575,1,0,0:0:0:0:
483,192,85786,128,0,85997:0:0:0:0:
199,192,85786,1,0,0:0:0:0:
28,192,85997,1,0,0:0:0:0:
369,192,85997,128,0,86208:0:0:0:0:
312,192,86068,1,0,0:0:0:0:
199,192,86138,1,0,0:0:0:0:
142,192,86208,1,0,0:0:0:0:
426,192,86208,1,0,0:0:0:0:
256,192,86349,1,0,0:0:0:0:
28,192,86420,128,0,86631:0:0:0:0:
369,192,86490,1,0,0:0:0:0:
199,192,86631,1,0,0:0:0:0:
312,192,86772,1,0,0:0:0:0:
426,192,86913,1,0,0:0:0:0:
28,192,87053,128,0,87687:0:0:0:0:
142,192,87053,128,0,87265:0:0:0:0:
256,192,87053,1,0,0:0:0:0:
369,192,87194,1,0,0:0:0:0:
483,192,87335,1,0,0:0:0:0:
256,192,87476,128,0,87687:0:0:0:0:
426,192,87476,1,0,0:0:0:0:
369,192,87687,128,0,88321:0:0:0:0:
142,192,87687,1,0,0:0:0:0:
85,192,87899,1,0,0:0:0:0:
199,192,87899,1,0,0:0:0:0:
312,192,87899,1,0,0:0:0:0:
483,192,88321,1,0,0:0:0:0:
256,192,88321,1,0,0:0:0:0:
483,192,88532,128,0,88744:0:0:0:0:
256,192,88532,128,0,88744:0:0:0:0:
85,192,88744,1,0,0:0:0:0:
369,192,88744,1,0,0:0:0:0:
142,192,88744,1,0,0:0:0:0:
28,192,88955,128,0,89377:0:0:0:0:
312,192,88955,128,0,89166:0:0:0:0:
426,192,89166,1,0,0:0:0:0:
369,192,89377,128,0,89589:0:0:0:0:
199,192,89377,1,0,0:0:0:0:
256,192,89483,1,0,0:0:0:0:
312,192,89589,1,0,0:0:0:0:
85,192,89589,1,0,0:0:0:0:
369,192,89800,128,0,90011:0:0:0:0:
142,192,89800,128,0,90011:0:0:0:0:
199,192,90011,1,0,0:0:0:0:
369,192,90222,128,0,91068:0:0:0:0:
142,192,90222,128,0,91068:0:0:0:0:
483,192,90434,1,0,0:0:0:0:
256,192,90434,1,0,0:0:0:0:
28,192,90434,1,0,0:0:0:0:
312,192,90645,1,0,0:0:0:0:
199,192,90856,1,0,0:0:0:0:
426,192,91068,1,0,0:0:0:0:
85,192,91279,1,0,0:0:0:0:
483,192,91279,1,0,0:0:0:0:
312,192,91279,1,0,0:0:0:0:
28,192,91701,128,0,91913:0:0:0:0:
256,192,91701,128,0,91913:0:0:0:0:
142,192,91913,128,0,92758:0:0:0:0:
369,192,91913,1,0,0:0:0:0:
426,192,92124,1,0,0:0:0:0:
483,192,92124,1,0,0:0:0:0:
312,192,92124,1,0,0:0:0:0:
256,192,92335,1,0,0:0:0:0:
483,192,92546,128,0,92758:0:0:0:0:
199,192,92546,1,0,0:0:0:0:
369,192,92758,128,0,92969:0:0:0:0:
28,192,92758,1,0,0:0:0:0:
312,192,92828,1,0,0:0:0:0:
256,192,92899,1,0,0:0:0:0:
199,192,92969,1,0,0:0:0:0:
85,192,92969,1,0,0:0:0:0:
28,192,93180,128,0,93391:0:0:0:0:
483,192,93391,1,0,0:0:0:0:
369,192,93603,1,0,0:0:0:0:
28,192,93814,128,0,94448:0:0:0:0:
142,192,93814,128,0,94025:0:0:0:0:
312,192,93814,1,0,0:0:0:0:
426,192,94025,1,0,0:0:0:0:
256,192,94237,128,0,94448:0:0:0:0:
483,192,94237,1,0,0:0:0:0:
369,192,94448,128,0,95082:0:0:0:0:
85,192,94448,1,0,0:0:0:0:
199,192,94518,1,0,0:0:0:0:
312,192,94589,1,0,0:0:0:0:
426,192,94659,1,0,0:0:0:0:
142,192,94659,1,0,0:0:0:0:
85,192,94800,1,0,0:0:0:0:
28,192,94941,1,0,0:0:0:0:
256,192,95082,1,0,0:0:0:0:
483,192,95082,1,0,0:0:0:0:
142,192,95222,1,0,0:0:0:0:
256,192,95293,128,0,95504:0:0:0:0:
28,192,95363,1,0,0:0:0:0:
426,192,95504,1,0,0:0:0:0:
199,192,95504,1,0,0:0:0:0:
369,192,95645,1,0,0:0:0:0:
28,192,95715,128,0,96138:0:0:0:0:
312,192,95786,1,0,0:0:0:0:
142,192,95927,1,0,0:0:0:0:
199,192,96068,1,0,0:0:0:0:
369,192,96138,128,0,96349:0:0:0:0:
256,192,96208,1,0,0:0:0:0:
312,192,96349,1,0,0:0:0:0:
85,192,96349,1,0,0:0:0:0:
369,192,96561,128,0,96772:0:0:0:0:
142,192,96561,128,0,96772:0:0:0:0:
199,192,96772,1,0,0:0:0:0:
369,192,96983,128,0,97828:0:0:0:0:
142,192,96983,128,0,97828:0:0:0:0:
483,192,97194,1,0,0:0:0:0:
256,192,97194,1,0,0:0:0:0:
28,192,97194,1,0,0:0:0:0:
312,192,97406,1,0,0:0:0:0:
199,192,97617,1,0,0:0:0:0:
426,192,97828,1,0,0:0:0:0:
312,192,97899,1,0,0:0:0:0:
199,192,97969,1,0,0:0:0:0:
85,192,98039,1,0,0:0:0:0:
483,192,98039,1,0,0:0:0:0:
199,192,98462,128,0,98673:0:0:0:0:
199,192,98884,1,0,0:0:0:0:
426,192,98884,1,0,0:0:0:0:
199,192,99096,128,0,99307:0:0:0:0:
369,192,99307,1,0,0:0:0:0:
199,192,99518,128,0,99730:0:0:0:0:
312,192,99730,1,0,0:0:0:0:
483,192,99730,1,0,0:0:0:0:
199,192,99941,128,0,100152:0:0:0:0:
85,192,100152,1,0,0:0:0:0:
256,192,100575,1,0,0:0:0:0:
426,192,100575,1,0,0:0:0:0:
312,192,100997,128,0,101420:0:0:0:0:
199,192,101420,1,0,0:0:0:0:
28,192,101420,1,0,0:0:0:0:
312,192,101631,128,0,103532:0:0:0:0:
142,192,101842,1,0,0:0:0:0:
199,192,102265,1,0,0:0:0:0:
426,192,102265,1,0,0:0:0:0:
142,192,102687,1,0,0:0:0:0:
85,192,102899,1,0,0:0:0:0:
28,192,103110,1,0,0:0:0:0:
199,192,103110,1,0,0:0:0:0:
426,192,103532,1,0,0:0:0:0:
256,192,103955,1,0,0:0:0:0:
369,192,103955,1,0,0:0:0:0:
199,192,104377,1,0,0:0:0:0:
142,192,104800,1,0,0:0:0:0:
312,192,104800,1,0,0:0:0:0:
369,192,105222,128,0,105434:0:0:0:0:
369,192,105645,1,0,0:0:0:0:
85,192,105645,1,0,0:0:0:0:
369,192,105856,128,0,106068:0:0:0:0:
199,192,106068,1,0,0:0:0:0:
369,192,106279,128,0,106913:0:0:0:0:
28,192,106490,1,0,0:0:0:0:
256,192,106490,128,0,106913:0:0:0:0:
142,192,106701,128,0,107335:0:0:0:0:
426,192,106913,1,0,0:0:0:0:
483,192,107335,1,0,0:0:0:0:
312,192,107335,1,0,0:0:0:0:
199,192,107758,1,0,0:0:0:0:
85,192,107969,128,0,108180:0:0:0:0:
426,192,108180,128,0,108391:0:0:0:0:
256,192,108180,1,0,0:0:0:0:
426,192,108603,1,0,0:0:0:0:
426,192,108814,128,0,109025:0:0:0:0:
199,192,109025,1,0,0:0:0:0:
28,192,109025,1,0,0:0:0:0:
426,192,109237,128,0,110715:0:0:0:0:
256,192,109448,1,0,0:0:0:0:
199,192,109659,1,0,0:0:0:0:
142,192,109870,1,0,0:0:0:0:
312,192,109870,1,0,0:0:0:0:
256,192,110293,1,0,0:0:0:0:
199,192,110715,1,0,0:0:0:0:
28,192,110715,1,0,0:0:0:0:
369,192,111138,1,0,0:0:0:0:
256,192,111349,1,0,0:0:0:0:
142,192,111561,1,0,0:0:0:0:
312,192,111561,1,0,0:0:0:0:
199,192,111842,1,0,0:0:0:0:
85,192,111983,128,0,112194:0:0:0:0:
85,192,112406,128,0,112617:0:0:0:0:
256,192,112406,1,0,0:0:0:0:
85,192,112828,1,0,0:0:0:0:
85,192,113039,128,0,113251:0:0:0:0:
312,192,113251,1,0,0:0:0:0:
483,192,113251,1,0,0:0:0:0:
85,192,113462,128,0,113673:0:0:0:0:
256,192,113673,1,0,0:0:0:0:
85,192,113884,128,0,114518:0:0:0:0:
199,192,114096,1,0,0:0:0:0:
426,192,114096,1,0,0:0:0:0:
369,192,114518,1,0,0:0:0:0:
28,192,114730,128,0,114941:0:0:0:0:
312,192,114941,1,0,0:0:0:0:
199,192,114941,1,0,0:0:0:0:
312,192,115152,128,0,115363:0:0:0:0:
85,192,115363,1,0,0:0:0:0:
312,192,115575,128,0,116208:0:0:0:0:
256,192,115786,1,0,0:0:0:0:
28,192,115786,1,0,0:0:0:0:
426,192,115997,128,0,116208:0:0:0:0:
199,192,116208,128,0,117476:0:0:0:0:
369,192,116420,1,0,0:0:0:0:
85,192,116631,1,0,0:0:0:0:
312,192,116631,1,0,0:0:0:0:
426,192,116842,1,0,0:0:0:0:
369,192,117053,1,0,0:0:0:0:
256,192,117476,1,0,0:0:0:0:
28,192,117476,1,0,0:0:0:0:
142,192,117899,1,0,0:0:0:0:
199,192,118110,1,0,0:0:0:0:
256,192,118321,1,0,0:0:0:0:
483,192,118321,1,0,0:0:0:0:
369,192,118744,128,0,118955:0:0:0:0:
369,192,119166,1,0,0:0:0:0:
142,192,119166,1,0,0:0:0:0:
369,192,119377,128,0,119589:0:0:0:0:
199,192,119589,1,0,0:0:0:0:
369,192,119800,128,0,120434:0:0:0:0:
85,192,120011,1,0,0:0:0:0:
256,192,120011,1,0,0:0:0:0:
312,192,120434,1,0,0:0:0:0:
142,192,120856,1,0,0:0:0:0:
369,192,120856,1,0,0:0:0:0:
142,192,121068,128,0,121490:0:0:0:0:
312,192,121279,1,0,0:0:0:0:
142,192,121701,1,0,0:0:0:0:
256,192,121701,1,0,0:0:0:0:
142,192,121913,128,0,122124:0:0:0:0:
426,192,122124,1,0,0:0:0:0:
142,192,122335,128,0,124659:0:0:0:0:
369,192,122546,1,0,0:0:0:0:
256,192,122546,1,0,0:0:0:0:
312,192,122969,1,0,0:0:0:0:
369,192,123180,1,0,0:0:0:0:
426,192,123391,1,0,0:0:0:0:
256,192,123391,1,0,0:0:0:0:
199,192,123814,1,0,0:0:0:0:
483,192,124237,1,0,0:0:0:0:
312,192,124237,1,0,0:0:0:0:
369,192,124448,128,0,124659:0:0:0:0:
256,192,124659,128,0,125363:0:0:0:0:
426,192,125082,128,0,125363:0:0:0:0:
312,192,125082,1,0,0:0:0:0:
85,192,125363,128,0,126530:0:0:0:0:
369,192,126530,1,0,0:0:0:0:
312,192,126595,1,0,0:0:0:0:
256,192,126659,1,0,0:0:0:0:
199,192,126724,1,0,0:0:0:0:
142,192,126789,1,0,0:0:0:0:
426,192,126854,1,0,0:0:0:0:
312,192,126914,1,0,0:0:0:0:
199,192,126983,1,0,0:0:0:0:
369,192,127089,1,0,0:0:0:0:
256,192,127194,1,0,0:0:0:0:
85,192,127194,1,0,0:0:0:0:
142,192,127406,1,0,0:0:0:0:
312,192,127617,1,0,0:0:0:0:
483,192,127617,1,0,0:0:0:0:
256,192,127828,1,0,0:0:0:0:
85,192,127828,1,0,0:0:0:0:
199,192,128039,1,0,0:0:0:0:
28,192,128039,1,0,0:0:0:0:
369,192,128303,1,0,0:0:0:0:
312,192,128356,1,0,0:0:0:0:
199,192,128409,1,0,0:0:0:0:
142,192,128462,1,0,0:0:0:0:
426,192,128462,1,0,0:0:0:0:
483,192,128462,1,0,0:0:0:0:
312,192,129307,1,0,0:0:0:0:
199,192,129307,1,0,0:0:0:0:
28,192,129307,1,0,0:0:0:0:
369,192,129730,1,0,0:0:0:0:
142,192,129941,1,0,0:0:0:0:
199,192,130011,1,0,0:0:0:0:
312,192,130082,1,0,0:0:0:0:
369,192,130152,1,0,0:0:0:0:
85,192,130152,1,0,0:0:0:0:
142,192,130363,1,0,0:0:0:0:
199,192,130575,1,0,0:0:0:0:
256,192,130997,1,0,0:0:0:0:
28,192,130997,1,0,0:0:0:0:
369,192,130997,1,0,0:0:0:0:
426,192,131420,128,0,134166:0:0:0:0:
142,192,131631,1,0,0:0:0:0:
199,192,131701,1,0,0:0:0:0:
256,192,131772,1,0,0:0:0:0:
312,192,131842,1,0,0:0:0:0:
28,192,131842,1,0,0:0:0:0:
85,192,132476,128,0,134800:0:0:0:0:
369,192,132687,1,0,0:0:0:0:
256,192,132687,1,0,0:0:0:0:
199,192,132687,1,0,0:0:0:0:
312,192,133321,1,0,0:0:0:0:
256,192,133391,1,0,0:0:0:0:
199,192,133462,1,0,0:0:0:0:
142,192,133532,1,0,0:0:0:0:
369,192,133532,1,0,0:0:0:0:
312,192,134166,128,0,136913:0:0:0:0:
483,192,134377,1,0,0:0:0:0:
256,192,134377,1,0,0:0:0:0:
142,192,134377,1,0,0:0:0:0:
199,192,134800,128,0,136913:0:0:0:0:
426,192,135011,1,0,0:0:0:0:
369,192,135082,1,0,0:0:0:0:
142,192,135152,1,0,0:0:0:0:
85,192,135222,1,0,0:0:0:0:
483,192,135222,1,0,0:0:0:0:
28,192,136068,1,0,0:0:0:0:
256,192,136068,1,0,0:0:0:0:
426,192,136068,1,0,0:0:0:0:
85,192,136701,1,0,0:0:0:0:
142,192,136772,1,0,0:0:0:0:
369,192,136842,1,0,0:0:0:0:
426,192,136913,1,0,0:0:0:0:
28,192,136913,1,0,0:0:0:0:
256,192,137124,1,0,0:0:0:0:
369,192,137335,1,0,0:0:0:0:
85,192,137546,128,0,139237:0:0:0:0:
256,192,137758,1,0,0:0:0:0:
483,192,137758,1,0,0:0:0:0:
142,192,137758,1,0,0:0:0:0:
426,192,138391,128,0,140293:0:0:0:0:
369,192,138462,1,0,0:0:0:0:
312,192,138532,1,0,0:0:0:0:
256,192,138603,1,0,0:0:0:0:
142,192,138603,1,0,0:0:0:0:
199,192,139025,1,0,0:0:0:0:
312,192,139237,128,0,140293:0:0:0:0:
369,192,139448,1,0,0:0:0:0:
142,192,139448,1,0,0:0:0:0:
28,192,139448,1,0,0:0:0:0:
199,192,140082,1,0,0:0:0:0:
142,192,140152,1,0,0:0:0:0:
85,192,140222,1,0,0:0:0:0:
256,192,140293,1,0,0:0:0:0:
28,192,140293,1,0,0:0:0:0:
369,192,140504,1,0,0:0:0:0:
483,192,140504,1,0,0:0:0:0:
369,192,140715,1,0,0:0:0:0:
483,192,140715,1,0,0:0:0:0:
483,192,140927,1,0,0:0:0:0:
369,192,140927,1,0,0:0:0:0:
199,192,141138,1,0,0:0:0:0:
312,192,141138,1,0,0:0:0:0:
312,192,141349,1,0,0:0:0:0:
199,192,141349,1,0,0:0:0:0:
369,192,141561,1,0,0:0:0:0:
142,192,141561,1,0,0:0:0:0:
426,192,141772,1,0,0:0:0:0:
85,192,141772,1,0,0:0:0:0:
483,192,141983,1,0,0:0:0:0:
28,192,141983,1,0,0:0:0:0:
312,192,141983,1,0,0:0:0:0:
199,192,141983,1,0,0:0:0:0:
369,192,142194,128,0,142406:0:0:0:0:
28,192,142406,128,0,142617:0:0:0:0:
256,192,142406,128,0,142617:0:0:0:0:
312,192,142617,1,0,0:0:0:0:
483,192,142828,1,0,0:0:0:0:
28,192,142828,128,0,143251:0:0:0:0:
256,192,142828,128,0,143251:0:0:0:0:
426,192,143039,1,0,0:0:0:0:
85,192,143251,128,0,143462:0:0:0:0:
312,192,143251,128,0,143462:0:0:0:0:
369,192,143462,128,0,143673:0:0:0:0:
142,192,143462,1,0,0:0:0:0:
199,192,143532,1,0,0:0:0:0:
256,192,143603,1,0,0:0:0:0:
312,192,143673,1,0,0:0:0:0:
28,192,143673,1,0,0:0:0:0:
199,192,143884,128,0,144096:0:0:0:0:
426,192,143884,128,0,144096:0:0:0:0:
85,192,144096,1,0,0:0:0:0:
142,192,144307,1,0,0:0:0:0:
369,192,144518,1,0,0:0:0:0:
483,192,144518,1,0,0:0:0:0:
28,192,144518,1,0,0:0:0:0:
256,192,144518,1,0,0:0:0:0:
483,192,144730,128,0,145152:0:0:0:0:
369,192,144730,128,0,145152:0:0:0:0:
256,192,144730,128,0,144941:0:0:0:0:
142,192,144941,1,0,0:0:0:0:
85,192,145152,1,0,0:0:0:0:
142,192,145222,1,0,0:0:0:0:
199,192,145293,1,0,0:0:0:0:
369,192,145363,1,0,0:0:0:0:
483,192,145363,1,0,0:0:0:0:
28,192,145363,1,0,0:0:0:0:
256,192,145363,1,0,0:0:0:0:
85,192,145575,128,0,146208:0:0:0:0:
312,192,145575,128,0,145786:0:0:0:0:
199,192,145575,128,0,145997:0:0:0:0:
483,192,145786,1,0,0:0:0:0:
426,192,145997,1,0,0:0:0:0:
369,192,146208,1,0,0:0:0:0:
28,192,146208,128,0,146420:0:0:0:0:
256,192,146208,128,0,146420:0:0:0:0:
199,192,146420,1,0,0:0:0:0:
483,192,146631,128,0,146842:0:0:0:0:
256,192,146631,128,0,147053:0:0:0:0:
28,192,146842,1,0,0:0:0:0:
369,192,147053,1,0,0:0:0:0:
142,192,147053,1,0,0:0:0:0:
483,192,147053,1,0,0:0:0:0:
312,192,147265,1,0,0:0:0:0:
85,192,147265,1,0,0:0:0:0:
28,192,147476,1,0,0:0:0:0:
256,192,147476,1,0,0:0:0:0:
142,192,147687,1,0,0:0:0:0:
369,192,147687,1,0,0:0:0:0:
483,192,147899,1,0,0:0:0:0:
199,192,147899,128,0,148321:0:0:0:0:
256,192,147899,1,0,0:0:0:0:
426,192,147899,128,0,148321:0:0:0:0:
85,192,148321,1,0,0:0:0:0:
312,192,148321,1,0,0:0:0:0:
369,192,148532,1,0,0:0:0:0:
142,192,148532,1,0,0:0:0:0:
256,192,148744,1,0,0:0:0:0:
483,192,148744,1,0,0:0:0:0:
426,192,148744,128,0,149377:0:0:0:0:
199,192,148744,128,0,149166:0:0:0:0:
28,192,149166,128,0,149377:0:0:0:0:
142,192,149166,1,0,0:0:0:0:
483,192,149377,1,0,0:0:0:0:
312,192,149377,128,0,149800:0:0:0:0:
28,192,149589,1,0,0:0:0:0:
142,192,149589,1,0,0:0:0:0:
199,192,149589,1,0,0:0:0:0:
369,192,149800,1,0,0:0:0:0:
85,192,150011,128,0,150434:0:0:0:0:
483,192,150011,1,0,0:0:0:0:
369,192,150222,1,0,0:0:0:0:
312,192,150293,1,0,0:0:0:0:
199,192,150363,1,0,0:0:0:0:
142,192,150434,1,0,0:0:0:0:
426,192,150434,1,0,0:0:0:0:
256,192,150645,1,0,0:0:0:0:
85,192,150856,128,0,151068:0:0:0:0:
312,192,150856,128,0,151068:0:0:0:0:
199,192,151068,1,0,0:0:0:0:
483,192,151279,1,0,0:0:0:0:
85,192,151279,128,0,151490:0:0:0:0:
312,192,151279,128,0,151490:0:0:0:0:
369,192,151490,1,0,0:0:0:0:
85,192,151701,128,0,151913:0:0:0:0:
312,192,151701,128,0,151913:0:0:0:0:
199,192,151913,1,0,0:0:0:0:
426,192,151913,128,0,152546:0:0:0:0:
28,192,152124,1,0,0:0:0:0:
312,192,152124,1,0,0:0:0:0:
256,192,152265,1,0,0:0:0:0:
199,192,152406,1,0,0:0:0:0:
369,192,152546,1,0,0:0:0:0:
142,192,152546,128,0,152758:0:0:0:0:
483,192,152758,1,0,0:0:0:0:
256,192,152758,128,0,153075:0:0:0:0:
312,192,152969,1,0,0:0:0:0:
85,192,152969,1,0,0:0:0:0:
369,192,153110,1,0,0:0:0:0:
28,192,153180,128,0,153603:0:0:0:0:
426,192,153251,1,0,0:0:0:0:
199,192,153391,1,0,0:0:0:0:
256,192,153532,1,0,0:0:0:0:
483,192,153603,128,0,153814:0:0:0:0:
312,192,153673,1,0,0:0:0:0:
142,192,153814,1,0,0:0:0:0:
369,192,153814,1,0,0:0:0:0:
85,192,154025,1,0,0:0:0:0:
256,192,154025,128,0,154237:0:0:0:0:
199,192,154237,1,0,0:0:0:0:
28,192,154448,128,0,155504:0:0:0:0:
312,192,154448,1,0,0:0:0:0:
426,192,154659,1,0,0:0:0:0:
483,192,154659,1,0,0:0:0:0:
142,192,154659,1,0,0:0:0:0:
369,192,154870,1,0,0:0:0:0:
312,192,155082,1,0,0:0:0:0:
199,192,155293,1,0,0:0:0:0:
256,192,155363,1,0,0:0:0:0:
312,192,155434,1,0,0:0:0:0:
369,192,155504,1,0,0:0:0:0:
483,192,155504,1,0,0:0:0:0:
142,192,155504,1,0,0:0:0:0:
426,192,155927,128,0,156138:0:0:0:0:
85,192,155927,128,0,156138:0:0:0:0:
312,192,156138,1,0,0:0:0:0:
85,192,156349,128,0,156983:0:0:0:0:
426,192,156349,128,0,156561:0:0:0:0:
256,192,156349,1,0,0:0:0:0:
369,192,156561,1,0,0:0:0:0:
199,192,156772,128,0,156983:0:0:0:0:
312,192,156772,1,0,0:0:0:0:
369,192,156983,1,0,0:0:0:0:
483,192,156983,128,0,157828:0:0:0:0:
312,192,157053,1,0,0:0:0:0:
256,192,157124,1,0,0:0:0:0:
199,192,157194,1,0,0:0:0:0:
28,192,157194,1,0,0:0:0:0:
312,192,157406,1,0,0:0:0:0:
142,192,157617,1,0,0:0:0:0:
369,192,157617,128,0,157828:0:0:0:0:
28,192,157828,128,0,158462:0:0:0:0:
256,192,157828,128,0,158039:0:0:0:0:
426,192,158039,1,0,0:0:0:0:
199,192,158039,1,0,0:0:0:0:
483,192,158039,1,0,0:0:0:0:
142,192,158251,128,0,158462:0:0:0:0:
312,192,158251,1,0,0:0:0:0:
369,192,158462,1,0,0:0:0:0:
199,192,158673,1,0,0:0:0:0:
256,192,158744,1,0,0:0:0:0:
312,192,158814,1,0,0:0:0:0:
483,192,158884,1,0,0:0:0:0:
85,192,158884,1,0,0:0:0:0:
369,192,158884,128,0,159307:0:0:0:0:
142,192,158884,128,0,159307:0:0:0:0:
312,192,159307,1,0,0:0:0:0:
28,192,159518,1,0,0:0:0:0:
142,192,159518,128,0,160363:0:0:0:0:
256,192,159730,1,0,0:0:0:0:
483,192,159730,1,0,0:0:0:0:
426,192,159730,1,0,0:0:0:0:
312,192,159941,1,0,0:0:0:0:
369,192,160152,128,0,160363:0:0:0:0:
426,192,160152,1,0,0:0:0:0:
28,192,160363,128,0,160997:0:0:0:0:
199,192,160363,1,0,0:0:0:0:
256,192,160434,1,0,0:0:0:0:
312,192,160504,1,0,0:0:0:0:
369,192,160575,1,0,0:0:0:0:
142,192,160575,1,0,0:0:0:0:
256,192,160715,1,0,0:0:0:0:
85,192,160856,1,0,0:0:0:0:
369,192,160997,1,0,0:0:0:0:
483,192,160997,1,0,0:0:0:0:
312,192,161138,1,0,0:0:0:0:
199,192,161138,1,0,0:0:0:0:
142,192,161279,1,0,0:0:0:0:
28,192,161279,1,0,0:0:0:0:
256,192,161420,1,0,0:0:0:0:
369,192,161420,1,0,0:0:0:0:
483,192,161420,128,0,161842:0:0:0:0:
199,192,161561,1,0,0:0:0:0:
312,192,161701,1,0,0:0:0:0:
28,192,161842,1,0,0:0:0:0:
142,192,161842,128,0,162053:0:0:0:0:
426,192,161983,1,0,0:0:0:0:
256,192,162053,128,0,162265:0:0:0:0:
85,192,162124,1,0,0:0:0:0:
483,192,162265,1,0,0:0:0:0:
28,192,162265,1,0,0:0:0:0:
312,192,162265,1,0,0:0:0:0:
199,192,162265,1,0,0:0:0:0:
85,192,162687,128,0,162899:0:0:0:0:
256,192,162687,128,0,162899:0:0:0:0:
369,192,162899,128,0,163744:0:0:0:0:
199,192,162899,1,0,0:0:0:0:
28,192,163110,1,0,0:0:0:0:
142,192,163110,1,0,0:0:0:0:
312,192,163110,1,0,0:0:0:0:
256,192,163321,1,0,0:0:0:0:
483,192,163532,128,0,163744:0:0:0:0:
85,192,163532,1,0,0:0:0:0:
312,192,163744,1,0,0:0:0:0:
28,192,163744,128,0,164377:0:0:0:0:
256,192,163814,1,0,0:0:0:0:
199,192,163884,1,0,0:0:0:0:
142,192,163955,1,0,0:0:0:0:
426,192,163955,1,0,0:0:0:0:
256,192,164166,128,0,164377:0:0:0:0:
483,192,164166,1,0,0:0:0:0:
312,192,164237,1,0,0:0:0:0:
369,192,164307,1,0,0:0:0:0:
426,192,164377,1,0,0:0:0:0:
312,192,164589,1,0,0:0:0:0:
199,192,164800,128,0,165011:0:0:0:0:
85,192,164800,128,0,165434:0:0:0:0:
483,192,164800,1,0,0:0:0:0:
369,192,165011,1,0,0:0:0:0:
312,192,165222,128,0,165434:0:0:0:0:
426,192,165222,1,0,0:0:0:0:
256,192,165434,1,0,0:0:0:0:
483,192,165434,128,0,165856:0:0:0:0:
199,192,165504,1,0,0:0:0:0:
142,192,165575,1,0,0:0:0:0:
85,192,165645,1,0,0:0:0:0:
369,192,165645,1,0,0:0:0:0:
483,192,166068,1,0,0:0:0:0:
256,192,166068,1,0,0:0:0:0:
483,192,166279,128,0,166490:0:0:0:0:
256,192,166279,128,0,166490:0:0:0:0:
85,192,166490,1,0,0:0:0:0:
369,192,166490,1,0,0:0:0:0:
142,192,166490,1,0,0:0:0:0:
28,192,166701,128,0,167124:0:0:0:0:
312,192,166701,128,0,166913:0:0:0:0:
426,192,166913,1,0,0:0:0:0:
369,192,167124,128,0,167335:0:0:0:0:
142,192,167124,1,0,0:0:0:0:
199,192,167194,1,0,0:0:0:0:
256,192,167265,1,0,0:0:0:0:
312,192,167335,1,0,0:0:0:0:
85,192,167335,1,0,0:0:0:0:
369,192,167546,128,0,167758:0:0:0:0:
142,192,167546,128,0,167758:0:0:0:0:
199,192,167758,1,0,0:0:0:0:
369,192,167969,128,0,168814:0:0:0:0:
142,192,167969,128,0,168814:0:0:0:0:
483,192,168180,1,0,0:0:0:0:
256,192,168180,1,0,0:0:0:0:
28,192,168180,1,0,0:0:0:0:
312,192,168391,1,0,0:0:0:0:
199,192,168603,1,0,0:0:0:0:
426,192,168814,1,0,0:0:0:0:
312,192,168884,1,0,0:0:0:0:
199,192,168955,1,0,0:0:0:0:
85,192,169025,1,0,0:0:0:0:
483,192,169025,1,0,0:0:0:0:
369,192,169025,1,0,0:0:0:0:
85,192,169448,128,0,169659:0:0:0:0:
256,192,169448,128,0,169659:0:0:0:0:
369,192,169659,128,0,170504:0:0:0:0:
199,192,169659,1,0,0:0:0:0:
28,192,169870,1,0,0:0:0:0:
142,192,169870,1,0,0:0:0:0:
312,192,169870,1,0,0:0:0:0:
256,192,170082,1,0,0:0:0:0:
483,192,170293,128,0,170504:0:0:0:0:
85,192,170293,1,0,0:0:0:0:
28,192,170504,128,0,171138:0:0:0:0:
256,192,170504,1,0,0:0:0:0:
199,192,170575,1,0,0:0:0:0:
142,192,170645,1,0,0:0:0:0:
85,192,170715,1,0,0:0:0:0:
483,192,170715,1,0,0:0:0:0:
426,192,170856,1,0,0:0:0:0:
199,192,170927,128,0,171138:0:0:0:0:
369,192,170997,1,0,0:0:0:0:
142,192,171138,1,0,0:0:0:0:
312,192,171138,1,0,0:0:0:0:
483,192,171138,1,0,0:0:0:0:
369,192,171279,1,0,0:0:0:0:
199,192,171279,1,0,0:0:0:0:
28,192,171420,1,0,0:0:0:0:
256,192,171420,1,0,0:0:0:0:
483,192,171561,1,0,0:0:0:0:
312,192,171561,1,0,0:0:0:0:
85,192,171561,128,0,171983:0:0:0:0:
426,192,171701,1,0,0:0:0:0:
369,192,171842,1,0,0:0:0:0:
312,192,171983,128,0,172194:0:0:0:0:
142,192,171983,1,0,0:0:0:0:
199,192,172124,1,0,0:0:0:0:
483,192,172194,128,0,172617:0:0:0:0:
256,192,172265,1,0,0:0:0:0:
85,192,172406,1,0,0:0:0:0:
312,192,172406,1,0,0:0:0:0:
483,192,172828,1,0,0:0:0:0:
256,192,172828,1,0,0:0:0:0:
483,192,173039,128,0,173251:0:0:0:0:
256,192,173039,128,0,173251:0:0:0:0:
85,192,173251,1,0,0:0:0:0:
369,192,173251,1,0,0:0:0:0:
142,192,173251,1,0,0:0:0:0:
28,192,173462,128,0,173884:0:0:0:0:
312,192,173462,128,0,173673:0:0:0:0:
426,192,173673,1,0,0:0:0:0:
369,192,173884,128,0,174096:0:0:0:0:
142,192,173884,1,0,0:0:0:0:
199,192,173955,1,0,0:0:0:0:
256,192,174025,1,0,0:0:0:0:
312,192,174096,1,0,0:0:0:0:
85,192,174096,1,0,0:0:0:0:
369,192,174307,128,0,174518:0:0:0:0:
142,192,174307,128,0,174518:0:0:0:0:
199,192,174518,1,0,0:0:0:0:
369,192,174730,128,0,175575:0:0:0:0:
142,192,174730,128,0,175575:0:0:0:0:
483,192,174941,1,0,0:0:0:0:
256,192,174941,1,0,0:0:0:0:
28,192,174941,1,0,0:0:0:0:
312,192,175152,1,0,0:0:0:0:
199,192,175363,1,0,0:0:0:0:
426,192,175575,1,0,0:0:0:0:
312,192,175645,1,0,0:0:0:0:
199,192,175715,1,0,0:0:0:0:
85,192,175786,1,0,0:0:0:0:
483,192,175786,1,0,0:0:0:0:
369,192,175786,1,0,0:0:0:0:
28,192,176208,128,0,176420:0:0:0:0:
199,192,176208,128,0,176420:0:0:0:0:
312,192,176420,1,0,0:0:0:0:
483,192,176631,1,0,0:0:0:0:
28,192,176631,128,0,177053:0:0:0:0:
199,192,176631,128,0,177053:0:0:0:0:
426,192,176842,1,0,0:0:0:0:
85,192,177053,128,0,177265:0:0:0:0:
256,192,177053,128,0,177265:0:0:0:0:
142,192,177265,128,0,177476:0:0:0:0:
426,192,177265,1,0,0:0:0:0:
312,192,177335,1,0,0:0:0:0:
199,192,177406,1,0,0:0:0:0:
85,192,177476,1,0,0:0:0:0:
483,192,177476,1,0,0:0:0:0:
199,192,177687,128,0,177899:0:0:0:0:
369,192,177687,128,0,177899:0:0:0:0:
85,192,177899,1,0,0:0:0:0:
142,192,178110,1,0,0:0:0:0:
369,192,178321,1,0,0:0:0:0:
483,192,178321,1,0,0:0:0:0:
28,192,178321,1,0,0:0:0:0:
256,192,178321,1,0,0:0:0:0:
483,192,178532,128,0,178955:0:0:0:0:
369,192,178532,128,0,178955:0:0:0:0:
256,192,178532,128,0,178744:0:0:0:0:
142,192,178744,1,0,0:0:0:0:
85,192,178955,1,0,0:0:0:0:
142,192,179025,1,0,0:0:0:0:
199,192,179096,1,0,0:0:0:0:
369,192,179166,1,0,0:0:0:0:
483,192,179166,1,0,0:0:0:0:
28,192,179166,1,0,0:0:0:0:
256,192,179166,1,0,0:0:0:0:
85,192,179377,128,0,180011:0:0:0:0:
312,192,179377,128,0,179589:0:0:0:0:
199,192,179377,128,0,179800:0:0:0:0:
483,192,179589,1,0,0:0:0:0:
426,192,179800,1,0,0:0:0:0:
369,192,180011,1,0,0:0:0:0:
28,192,180011,128,0,180222:0:0:0:0:
256,192,180011,128,0,180222:0:0:0:0:
199,192,180222,1,0,0:0:0:0:
256,192,180434,128,0,180856:0:0:0:0:
483,192,180434,128,0,180645:0:0:0:0:
28,192,180645,1,0,0:0:0:0:
369,192,180856,1,0,0:0:0:0:
483,192,180856,1,0,0:0:0:0:
199,192,180856,1,0,0:0:0:0:
312,192,181068,1,0,0:0:0:0:
142,192,181068,1,0,0:0:0:0:
256,192,181279,1,0,0:0:0:0:
85,192,181279,1,0,0:0:0:0:
142,192,181490,1,0,0:0:0:0:
312,192,181490,1,0,0:0:0:0:
483,192,181701,1,0,0:0:0:0:
199,192,181701,128,0,182124:0:0:0:0:
369,192,181701,128,0,182124:0:0:0:0:
28,192,181701,1,0,0:0:0:0:
85,192,182124,1,0,0:0:0:0:
256,192,182124,1,0,0:0:0:0:
142,192,182335,1,0,0:0:0:0:
312,192,182335,1,0,0:0:0:0:
483,192,182546,1,0,0:0:0:0:
199,192,182546,128,0,182969:0:0:0:0:
369,192,182546,128,0,183180:0:0:0:0:
28,192,182546,1,0,0:0:0:0:
85,192,182969,128,0,183180:0:0:0:0:
312,192,182969,1,0,0:0:0:0:
483,192,183180,1,0,0:0:0:0:
256,192,183180,128,0,183603:0:0:0:0:
28,192,183391,1,0,0:0:0:0:
142,192,183391,1,0,0:0:0:0:
199,192,183391,1,0,0:0:0:0:
369,192,183603,1,0,0:0:0:0:
483,192,183814,1,0,0:0:0:0:
28,192,183814,128,0,184237:0:0:0:0:
369,192,184025,1,0,0:0:0:0:
312,192,184096,1,0,0:0:0:0:
199,192,184166,1,0,0:0:0:0:
142,192,184237,1,0,0:0:0:0:
483,192,184237,1,0,0:0:0:0:
369,192,184448,1,0,0:0:0:0:
85,192,184659,128,0,184870:0:0:0:0:
256,192,184659,128,0,184870:0:0:0:0:
199,192,184870,1,0,0:0:0:0:
483,192,185082,1,0,0:0:0:0:
85,192,185082,128,0,185293:0:0:0:0:
256,192,185082,128,0,185293:0:0:0:0:
369,192,185293,1,0,0:0:0:0:
85,192,185504,128,0,185715:0:0:0:0:
256,192,185504,128,0,185715:0:0:0:0:
142,192,185715,1,0,0:0:0:0:
426,192,185715,128,0,185927:0:0:0:0:
199,192,185786,1,0,0:0:0:0:
312,192,185856,1,0,0:0:0:0:
28,192,185927,1,0,0:0:0:0:
369,192,185927,1,0,0:0:0:0:
256,192,186068,1,0,0:0:0:0:
199,192,186208,1,0,0:0:0:0:
369,192,186349,1,0,0:0:0:0:
142,192,186349,128,0,186561:0:0:0:0:
28,192,186490,1,0,0:0:0:0:
312,192,186561,128,0,186877:0:0:0:0:
85,192,186631,1,0,0:0:0:0:
142,192,186772,1,0,0:0:0:0:
483,192,186772,1,0,0:0:0:0:
426,192,186913,1,0,0:0:0:0:
28,192,186983,128,0,187406:0:0:0:0:
369,192,187053,1,0,0:0:0:0:
199,192,187194,1,0,0:0:0:0:
256,192,187335,1,0,0:0:0:0:
483,192,187406,128,0,187617:0:0:0:0:
312,192,187476,1,0,0:0:0:0:
142,192,187617,1,0,0:0:0:0:
369,192,187617,1,0,0:0:0:0:
85,192,187828,1,0,0:0:0:0:
256,192,187828,128,0,188039:0:0:0:0:
312,192,188039,1,0,0:0:0:0:
28,192,188251,128,0,189307:0:0:0:0:
199,192,188251,1,0,0:0:0:0:
426,192,188462,1,0,0:0:0:0:
483,192,188462,1,0,0:0:0:0:
85,192,188462,1,0,0:0:0:0:
256,192,188673,1,0,0:0:0:0:
369,192,188884,1,0,0:0:0:0:
199,192,189096,1,0,0:0:0:0:
256,192,189166,1,0,0:0:0:0:
312,192,189237,1,0,0:0:0:0:
369,192,189307,1,0,0:0:0:0:
483,192,189307,1,0,0:0:0:0:
142,192,189307,1,0,0:0:0:0:
426,192,189730,128,0,189941:0:0:0:0:
85,192,189730,128,0,189941:0:0:0:0:
312,192,189941,1,0,0:0:0:0:
85,192,190152,128,0,190786:0:0:0:0:
426,192,190152,128,0,190363:0:0:0:0:
256,192,190152,1,0,0:0:0:0:
369,192,190363,1,0,0:0:0:0:
199,192,190575,128,0,190786:0:0:0:0:
312,192,190575,1,0,0:0:0:0:
369,192,190786,1,0,0:0:0:0:
483,192,190786,128,0,191631:0:0:0:0:
312,192,190856,1,0,0:0:0:0:
256,192,190927,1,0,0:0:0:0:
199,192,190997,1,0,0:0:0:0:
28,192,190997,1,0,0:0:0:0:
312,192,191208,1,0,0:0:0:0:
142,192,191420,1,0,0:0:0:0:
369,192,191420,128,0,191631:0:0:0:0:
28,192,191631,128,0,192265:0:0:0:0:
256,192,191631,128,0,191842:0:0:0:0:
426,192,191842,1,0,0:0:0:0:
199,192,191842,1,0,0:0:0:0:
483,192,191842,1,0,0:0:0:0:
142,192,192053,128,0,192265:0:0:0:0:
312,192,192053,1,0,0:0:0:0:
369,192,192265,1,0,0:0:0:0:
199,192,192476,1,0,0:0:0:0:
256,192,192546,1,0,0:0:0:0:
312,192,192617,1,0,0:0:0:0:
483,192,192687,1,0,0:0:0:0:
85,192,192687,1,0,0:0:0:0:
369,192,192687,128,0,193110:0:0:0:0:
142,192,192687,128,0,193110:0:0:0:0:
312,192,193110,1,0,0:0:0:0:
256,192,193110,1,0,0:0:0:0:
199,192,193110,1,0,0:0:0:0:
142,192,193321,128,0,194166:0:0:0:0:
369,192,193321,1,0,0:0:0:0:
483,192,193532,1,0,0:0:0:0:
426,192,193532,1,0,0:0:0:0:
312,192,193744,1,0,0:0:0:0:
256,192,193744,1,0,0:0:0:0:
199,192,193744,1,0,0:0:0:0:
369,192,193955,128,0,194166:0:0:0:0:
426,192,193955,1,0,0:0:0:0:
28,192,194166,128,0,194800:0:0:0:0:
199,192,194166,1,0,0:0:0:0:
369,192,194377,1,0,0:0:0:0:
256,192,194377,1,0,0:0:0:0:
256,192,194589,1,0,0:0:0:0:
369,192,194589,1,0,0:0:0:0:
483,192,194800,1,0,0:0:0:0:
312,192,194800,1,0,0:0:0:0:
199,192,195011,1,0,0:0:0:0:
28,192,195011,1,0,0:0:0:0:
256,192,195222,1,0,0:0:0:0:
369,192,195222,1,0,0:0:0:0:
483,192,195222,128,0,195645:0:0:0:0:
312,192,195434,1,0,0:0:0:0:
199,192,195539,1,0,0:0:0:0:
28,192,195645,1,0,0:0:0:0:
142,192,195645,128,0,195856:0:0:0:0:
256,192,195856,128,0,196068:0:0:0:0:
426,192,195856,1,0,0:0:0:0:
483,192,196068,1,0,0:0:0:0:
28,192,196068,1,0,0:0:0:0:
312,192,196068,1,0,0:0:0:0:
199,192,196068,1,0,0:0:0:0:
256,192,196490,128,0,196701:0:0:0:0:
142,192,196490,128,0,196701:0:0:0:0:
369,192,196701,128,0,197546:0:0:0:0:
85,192,196701,1,0,0:0:0:0:
312,192,196913,1,0,0:0:0:0:
28,192,196913,1,0,0:0:0:0:
199,192,196913,1,0,0:0:0:0:
256,192,197124,1,0,0:0:0:0:
483,192,197335,128,0,197546:0:0:0:0:
142,192,197335,1,0,0:0:0:0:
312,192,197546,1,0,0:0:0:0:
28,192,197546,128,0,198180:0:0:0:0:
256,192,197617,1,0,0:0:0:0:
199,192,197687,1,0,0:0:0:0:
142,192,197758,1,0,0:0:0:0:
426,192,197758,1,0,0:0:0:0:
369,192,197969,1,0,0:0:0:0:
256,192,197969,128,0,198180:0:0:0:0:
199,192,198180,1,0,0:0:0:0:
312,192,198391,1,0,0:0:0:0:
483,192,198603,1,0,0:0:0:0:
199,192,198603,128,0,198814:0:0:0:0:
85,192,198603,128,0,199237:0:0:0:0:
369,192,198814,1,0,0:0:0:0:
312,192,199025,128,0,199237:0:0:0:0:
426,192,199025,1,0,0:0:0:0:
483,192,199237,128,0,199659:0:0:0:0:
142,192,199237,1,0,0:0:0:0:
199,192,199307,1,0,0:0:0:0:
256,192,199377,1,0,0:0:0:0:
312,192,199448,1,0,0:0:0:0:
28,192,199448,1,0,0:0:0:0:
85,192,199659,1,0,0:0:0:0:
142,192,199730,1,0,0:0:0:0:
199,192,199800,1,0,0:0:0:0:
483,192,199870,1,0,0:0:0:0:
256,192,199870,1,0,0:0:0:0:
483,192,200082,128,0,200293:0:0:0:0:
256,192,200082,128,0,200293:0:0:0:0:
85,192,200293,1,0,0:0:0:0:
369,192,200293,1,0,0:0:0:0:
142,192,200293,1,0,0:0:0:0:
28,192,200504,128,0,200927:0:0:0:0:
312,192,200504,128,0,200715:0:0:0:0:
426,192,200715,1,0,0:0:0:0:
369,192,200927,128,0,201138:0:0:0:0:
142,192,200927,1,0,0:0:0:0:
199,192,200997,1,0,0:0:0:0:
256,192,201068,1,0,0:0:0:0:
312,192,201138,1,0,0:0:0:0:
85,192,201138,1,0,0:0:0:0:
369,192,201349,128,0,201561:0:0:0:0:
142,192,201349,128,0,201561:0:0:0:0:
199,192,201561,1,0,0:0:0:0:
369,192,201772,128,0,202617:0:0:0:0:
142,192,201772,128,0,202617:0:0:0:0:
483,192,201983,1,0,0:0:0:0:
256,192,201983,1,0,0:0:0:0:
28,192,201983,1,0,0:0:0:0:
312,192,202194,1,0,0:0:0:0:
199,192,202406,1,0,0:0:0:0:
426,192,202617,1,0,0:0:0:0:
312,192,202687,1,0,0:0:0:0:
199,192,202758,1,0,0:0:0:0:
85,192,202828,1,0,0:0:0:0:
483,192,202828,1,0,0:0:0:0:
369,192,202828,1,0,0:0:0:0:
426,192,203110,1,0,0:0:0:0:
312,192,203110,1,0,0:0:0:0:
256,192,203251,1,0,0:0:0:0:
142,192,203251,128,0,203462:0:0:0:0:
85,192,203391,1,0,0:0:0:0:
28,192,203391,1,0,0:0:0:0:
369,192,203462,128,0,204096:0:0:0:0:
199,192,203532,1,0,0:0:0:0:
312,192,203532,1,0,0:0:0:0:
28,192,203673,1,0,0:0:0:0:
426,192,203673,1,0,0:0:0:0:
256,192,203814,1,0,0:0:0:0:
199,192,203955,1,0,0:0:0:0:
483,192,204096,128,0,204307:0:0:0:0:
142,192,204096,1,0,0:0:0:0:
312,192,204307,1,0,0:0:0:0:
28,192,204307,128,0,204730:0:0:0:0:
142,192,204518,1,0,0:0:0:0:
426,192,204518,1,0,0:0:0:0:
369,192,204730,1,0,0:0:0:0:
256,192,204730,128,0,204941:0:0:0:0:
199,192,204941,1,0,0:0:0:0:
312,192,205152,1,0,0:0:0:0:
483,192,205363,1,0,0:0:0:0:
199,192,205363,128,0,205575:0:0:0:0:
85,192,205363,128,0,205786:0:0:0:0:
369,192,205575,1,0,0:0:0:0:
312,192,205786,128,0,205997:0:0:0:0:
426,192,205786,1,0,0:0:0:0:
483,192,205997,128,0,206420:0:0:0:0:
142,192,205997,1,0,0:0:0:0:
199,192,206068,1,0,0:0:0:0:
256,192,206138,1,0,0:0:0:0:
369,192,206208,1,0,0:0:0:0:
28,192,206208,1,0,0:0:0:0:
85,192,206420,1,0,0:0:0:0:
142,192,206490,1,0,0:0:0:0:
199,192,206561,1,0,0:0:0:0:
483,192,206631,1,0,0:0:0:0:
256,192,206631,1,0,0:0:0:0:
483,192,206842,128,0,207053:0:0:0:0:
256,192,206842,128,0,207053:0:0:0:0:
85,192,207053,1,0,0:0:0:0:
369,192,207053,1,0,0:0:0:0:
142,192,207053,1,0,0:0:0:0:
28,192,207265,128,0,207687:0:0:0:0:
312,192,207265,128,0,207476:0:0:0:0:
426,192,207476,1,0,0:0:0:0:
369,192,207687,128,0,207899:0:0:0:0:
142,192,207687,1,0,0:0:0:0:
199,192,207758,1,0,0:0:0:0:
256,192,207828,1,0,0:0:0:0:
312,192,207899,1,0,0:0:0:0:
85,192,207899,1,0,0:0:0:0:
369,192,208110,128,0,208321:0:0:0:0:
142,192,208110,128,0,208321:0:0:0:0:
199,192,208321,1,0,0:0:0:0:
369,192,208532,128,0,209377:0:0:0:0:
142,192,208532,128,0,209377:0:0:0:0:
483,192,208744,1,0,0:0:0:0:
256,192,208744,1,0,0:0:0:0:
28,192,208744,1,0,0:0:0:0:
312,192,208955,1,0,0:0:0:0:
199,192,209166,1,0,0:0:0:0:
426,192,209377,1,0,0:0:0:0:
256,192,209483,1,0,0:0:0:0:
85,192,209589,1,0,0:0:0:0:
483,192,209589,1,0,0:0:0:0:
369,192,209589,1,0,0:0:0:0:
142,192,210011,128,0,210222:0:0:0:0:
256,192,210011,1,0,0:0:0:0:
85,192,210222,1,0,0:0:0:0:
369,192,210222,128,0,210856:0:0:0:0:
28,192,210434,1,0,0:0:0:0:
312,192,210434,1,0,0:0:0:0:
199,192,210434,1,0,0:0:0:0:
256,192,210645,1,0,0:0:0:0:
483,192,210856,128,0,211068:0:0:0:0:
142,192,210856,1,0,0:0:0:0:
312,192,211068,1,0,0:0:0:0:
28,192,211068,128,0,211490:0:0:0:0:
426,192,211279,1,0,0:0:0:0:
199,192,211279,1,0,0:0:0:0:
256,192,211490,128,0,211701:0:0:0:0:
369,192,211490,1,0,0:0:0:0:
142,192,211701,1,0,0:0:0:0:
312,192,211913,1,0,0:0:0:0:
483,192,212124,1,0,0:0:0:0:
199,192,212124,1,0,0:0:0:0:
85,192,212124,128,0,212546:0:0:0:0:
369,192,212335,1,0,0:0:0:0:
312,192,212546,128,0,212758:0:0:0:0:
142,192,212546,1,0,0:0:0:0:
483,192,212758,128,0,213180:0:0:0:0:
256,192,212758,1,0,0:0:0:0:
369,192,212969,1,0,0:0:0:0:
85,192,212969,1,0,0:0:0:0:
256,192,213391,1,0,0:0:0:0:
483,192,213391,1,0,0:0:0:0:
483,192,213603,128,0,213814:0:0:0:0:
256,192,213603,1,0,0:0:0:0:
142,192,213814,1,0,0:0:0:0:
369,192,213814,1,0,0:0:0:0:
85,192,213814,1,0,0:0:0:0:
28,192,214025,128,0,214448:0:0:0:0:
312,192,214025,1,0,0:0:0:0:
426,192,214237,1,0,0:0:0:0:
142,192,214448,1,0,0:0:0:0:
369,192,214448,128,0,214659:0:0:0:0:
199,192,214518,1,0,0:0:0:0:
256,192,214589,1,0,0:0:0:0:
85,192,214659,1,0,0:0:0:0:
312,192,214659,1,0,0:0:0:0:
369,192,214870,128,0,215082:0:0:0:0:
142,192,214870,1,0,0:0:0:0:
199,192,215082,1,0,0:0:0:0:
369,192,215293,128,0,216138:0:0:0:0:
142,192,215293,1,0,0:0:0:0:
28,192,215504,1,0,0:0:0:0:
256,192,215504,1,0,0:0:0:0:
483,192,215504,1,0,0:0:0:0:
312,192,215715,1,0,0:0:0:0:
199,192,215927,1,0,0:0:0:0:
426,192,216138,1,0,0:0:0:0:
312,192,216208,1,0,0:0:0:0:
199,192,216279,1,0,0:0:0:0:
483,192,216349,1,0,0:0:0:0:
85,192,216349,1,0,0:0:0:0:
28,192,216349,1,0,0:0:0:0:
369,192,216349,1,0,0:0:0:0:
