osu file format v14

[General]
AudioFilename: audio.mp3
AudioLeadIn: 0
PreviewTime: 46259
Countdown: 0
SampleSet: Soft
StackLeniency: 0.6
Mode: 0
LetterboxInBreaks: 0
WidescreenStoryboard: 0

[Editor]
DistanceSpacing: 1.2
BeatDivisor: 4
GridSize: 8
TimelineZoom: 0.9765614

[Metadata]
Title:Hope
TitleUnicode:Hope
Artist:John Frusciante
ArtistUnicode:John Frusciante
Creator:Rin Desu
Version:Easy
Source:
Tags:Red Hot Chili Peppers RHCP Curtains Guitar
BeatmapID:1546534
BeatmapSetID:733057

[Difficulty]
HPDrainRate:2.2
CircleSize:3.3
OverallDifficulty:2
ApproachRate:3
SliderMultiplier:1.4
SliderTickRate:1

[Events]
//Background and Video events
0,0,"john-frusciante.jpg",0,0
//Break Periods
2,43372,46780
//Storyboard Layer 0 (Background)
//Storyboard Layer 1 (Fail)
//Storyboard Layer 2 (Pass)
//Storyboard Layer 3 (Foreground)
//Storyboard Sound Samples

[TimingPoints]
1591,855.785825334113,4,2,2,18,1,0
3302,837.193726628342,4,2,2,18,1,0
4139,847.792912451252,4,2,2,18,1,0
4986,813.791045585862,4,2,2,18,1,0
6613,842.377188425737,4,2,2,18,1,0
7454,811.787149409425,4,2,2,18,1,0
9889,853.387950162144,4,2,2,18,1,0
10742,826.993053258353,4,2,2,18,1,0
11568,810.98615916955,4,2,2,18,1,0
13595,869.99391004263,4,2,2,18,1,0
14029,841.786270465929,4,2,2,18,1,0
14870,820.389411507329,4,2,2,18,1,0
16510,847.792912451252,4,2,2,18,1,0
18205,828.191643546317,4,2,2,18,1,0
21517,839.783335899338,4,2,2,18,1,0
23196,884.786102959609,4,2,2,18,1,0
24080,779.787897691828,4,2,2,18,1,0
24859,839.783335899338,4,2,2,18,1,0
26538,851.389894001958,4,2,2,18,1,0
29517,807.787067329052,4,2,2,18,1,0
31132,831.785288490864,4,2,2,18,1,0
31547,834.387906937935,4,2,2,18,1,0
33215,829.783703048072,4,2,2,18,1,0
34459,805.790950967621,4,2,2,18,1,0
37279,819.784123514141,4,2,2,18,1,0
38098,855.785825334113,4,2,2,18,1,0
40665,832.986255726781,4,2,2,18,1,0
43580,901.794571196681,4,2,2,18,1,0
44030,833.784966857048,4,2,2,18,1,0
46948,848.392296597947,4,2,2,18,1,0
49493,813.39388598929,4,2,2,18,1,0
52339,839.783335899338,4,2,2,18,1,0
53178,873.794891212536,4,2,2,18,1,0
54488,843.786915677561,4,2,2,18,1,0
56175,844.784861455283,4,2,2,18,1,0
58286,821.985368660438,4,2,2,18,1,0
61573,829.783703048072,4,2,2,18,1,0
63232,831.785288490864,4,2,2,18,1,0
64895,847.792912451252,4,2,2,18,1,0
66590,873.794891212536,4,2,2,18,1,0
68337,787.784094639129,4,2,2,18,1,0
69518,843.383655224762,4,2,2,18,1,0
72891,819.784123514141,4,2,2,18,1,0
73300,-94.3396226415094,4,2,2,18,0,0
73710,725.78596571871,4,2,2,18,1,0
74072,783.791198024846,4,2,2,18,1,0
75639,833.414359729418,4,2,2,18,1,0
77305,773.784191588966,4,2,2,18,1,0
78465,819.784123514141,4,2,2,18,1,0
80104,959.785008158173,4,2,2,18,1,0
80583,847.792912451252,4,2,2,18,1,0
81430,821.186614658181,4,2,2,18,1,0
82251,765.784737910173,4,2,2,18,1,0
82633,823.791086580443,4,2,2,18,1,0
84280,833.194467588735,4,2,2,18,1,0
86362,823.791086580443,4,2,2,18,1,0
88009,795.787630807592,4,2,2,18,1,0
91987,839.783335899338,4,2,2,18,1,0
92826,897.786955155542,4,2,2,18,1,0
93723,827.791727601336,4,2,2,18,1,0
94550,835.794283167103,4,2,2,18,1,0
95803,831.785288490864,4,2,2,18,1,0
97882,901.794571196681,4,2,2,18,1,0
99685,815.793767335618,4,2,2,18,1,0
102948,897.786955155542,4,2,2,18,1,0
104743,955.794504181601,4,2,2,18,1,0
105698,1085.79597893556,4,2,2,18,1,0

[Colours]
Combo1 : 255,121,121
Combo2 : 184,255,113
Combo3 : 255,183,111

[HitObjects]
17,177,1591,6,0,L|110:166,1,70,2|0,0:0|0:0,0:0:0:0:
153,119,2446,1,8,0:0:0:0:
231,148,2874,1,0,0:0:0:0:
306,106,3302,2,0,P|370:82|427:127,1,140
304,249,4986,6,0,L|217:243,1,70,2|0,0:0|0:0,0:0:0:0:
217,326,5799,2,0,L|147:330,1,70,8|0,0:0|0:0,0:0:0:0:
69,356,6613,2,0,P|75:285|133:247,1,140
289,291,8265,6,0,L|358:286,1,70,2|0,0:0|0:0,0:0:0:0:
440,305,9077,1,8,0:0:0:0:
491,235,9483,1,0,0:0:0:0:
482,153,9889,2,0,P|425:112|330:115,1,140
190,146,11568,6,0,L|181:215,1,70,2|0,0:0|0:0,0:0:0:0:
214,292,12378,2,0,P|176:298|140:288,1,70,8|0,0:0|0:0,0:0:0:0:
63,271,13189,2,0,L|71:340,1,70
4,183,14449,1,0,0:0:0:0:
83,148,14870,6,0,L|176:145,1,70,2|0,0:0|0:0,0:0:0:0:
236,146,15690,1,8,0:0:0:0:
281,216,16100,1,0,0:0:0:0:
353,178,16510,2,0,P|393:111|367:52,1,140,0|0,0:0|0:0,0:0:0:0:
306,6,17781,1,0,0:0:0:0:
234,52,18205,6,0,P|200:62|165:59,1,70,2|0,0:0|0:0,0:0:0:0:
90,21,19033,2,0,P|80:56|97:107,1,70,8|0,0:0|0:0,0:0:0:0:
146,146,19861,2,0,P|208:171|228:235,1,140
384,305,21517,6,0,P|354:302|296:310,1,70,2|0,2:0|0:0,0:0:0:0:
237,341,22356,1,8,0:0:0:0:
224,257,22776,1,0,0:0:0:0:
159,210,23196,2,0,P|129:207|71:215,1,70,0|0,0:0|0:0,0:0:0:0:
33,283,24080,1,0,0:0:0:0:
0,207,24469,1,0,0:0:0:0:
4,128,24859,6,0,P|20:81|46:52,1,70,2|0,0:0|0:0,0:0:0:0:
113,86,25698,2,0,P|152:89|210:75,1,70,8|0,0:0|0:0,0:0:0:0:
263,67,26538,2,0,P|271:100|290:129,1,70,4|0,0:0|0:0,0:0:0:0:
432,246,29517,5,0,0:0:0:0:
377,309,29920,6,0,B|352:328|311:332|311:332|276:319|249:290,1,140,2|10,0:0|0:0,0:0:0:0:
172,280,31132,1,0,0:0:0:0:
225,215,31547,2,0,B|221:183|238:146|238:146|266:122|305:113,1,140,2|10,0:0|0:0,0:0:0:0:
355,52,32798,1,0,0:0:0:0:
384,131,33215,6,0,B|412:143|436:176|436:176|443:213|431:251,1,140,2|10,0:0|0:0,0:0:0:0:
371,305,34459,1,0,0:0:0:0:
293,273,34861,2,0,P|226:257|131:276,1,140,2|8,0:0|0:0,0:0:0:0:
67,123,36473,6,0,L|76:205,1,70,0|0,0:0|0:0,0:0:0:0:
27,261,37279,1,8,0:0:0:0:
90,315,37688,1,0,0:0:0:0:
156,265,38098,2,0,P|206:178|294:153,1,140,0|8,0:0|0:0,0:0:0:0:
295,221,39381,1,0,0:0:0:0:
375,198,39809,6,0,P|414:196|468:212,1,70,0|0,0:0|0:0,0:0:0:0:
491,275,40665,1,8,0:0:0:0:
426,328,41081,1,0,0:0:0:0:
354,283,41497,6,0,B|318:296|318:296|287:283|287:283|224:307|224:307|161:283|161:283|116:276|64:296,1,280,2|0,0:0|0:0,0:0:0:0:
289,60,48220,6,0,L|301:142,1,70,4|0,0:0|0:0,0:0:0:0:
315,211,49068,1,8,0:0:0:0:
392,252,49493,1,0,0:0:0:0:
457,199,49899,2,0,P|457:121|350:83,1,140,2|0,0:0|0:0,0:0:0:0:
335,110,51119,1,0,0:0:0:0:
266,60,51526,6,0,P|236:56|188:56,1,70,4|0,0:0|0:0,0:0:0:0:
117,40,52339,2,0,P|116:76|150:121,1,70,8|0,0:0|0:0,0:0:0:0:
182,172,53178,2,0,P|182:206|165:236,1,70,2|0,0:0|0:0,0:0:0:0:
101,292,54051,1,0,0:0:0:0:
20,259,54488,1,0,0:0:0:0:
10,175,54909,6,0,P|9:138|24:108,1,70,4|0,0:0|0:0,0:0:0:0:
95,158,55753,1,8,0:0:0:0:
169,115,56175,1,0,0:0:0:0:
224,56,56597,2,0,P|163:33|98:73,1,140,2|0,0:0|0:0,0:0:0:0:
33,120,57864,1,0,0:0:0:0:
66,198,58286,6,0,P|66:235|54:293,1,70,4|0,0:0|0:0,0:0:0:0:
5,329,59107,2,0,P|33:347|86:349,1,70,8|0,0:0|0:0,0:0:0:0:
137,303,59929,2,0,P|206:259|304:277,1,140,2|8,0:0|0:0,0:0:0:0:
342,285,61162,1,2,0:0:0:0:
419,253,61573,6,0,P|448:217|453:180,1,70,4|0,0:0|0:0,0:0:0:0:
411,121,62402,1,8,0:0:0:0:
442,43,62817,1,0,0:0:0:0:
367,10,63232,2,0,P|325:0|271:10,2,70,2|0|8,0:0|0:0|0:0,0:0:0:0:
442,43,64479,1,0,0:0:0:0:
376,92,64895,6,0,P|373:126|380:160,1,70,4|0,0:0|0:0,0:0:0:0:
453,202,65742,2,4,P|455:236|448:270,1,70,8|0,0:0|0:0,0:0:0:0:
368,287,66590,2,0,P|294:289|219:257,1,140,2|8,0:0|0:0,0:0:0:0:
162,220,67900,1,0,0:0:0:0:
142,128,68337,6,0,P|107:144|79:184,1,70,4|0,0:0|0:0,0:0:0:0:
78,251,69124,1,8,0:0:0:0:
15,297,69518,1,0,0:0:0:0:
60,368,69939,2,0,P|146:373|237:359,1,140,2|8,0:0|0:0,0:0:0:0:
270,322,71204,5,0,0:0:0:0:
195,283,71626,2,0,P|213:255|257:237,1,70,2|0,0:0|0:0,0:0:0:0:
326,216,72469,1,8,0:0:0:0:
264,154,72891,1,0,0:0:0:0:
301,77,73300,2,0,P|233:73|183:130,1,140,2|8,0:0|0:0,0:0:0:0:
159,202,74463,1,0,0:0:0:0:
152,286,74855,6,0,B|177:312|177:312|213:323,1,70,2|0,0:0|0:0,0:0:0:0:
286,287,75639,2,0,B|296:252|296:252|287:215,1,70,10|0,0:0|0:0,0:0:0:0:
218,172,76472,2,0,P|180:179|144:217,1,70,2|0,0:0|0:0,0:0:0:0:
154,287,77305,2,0,P|179:316|230:328,1,70,10|0,0:0|0:0,0:0:0:0:
285,289,78078,6,0,B|295:254|295:254|286:217,1,70,2|0,0:0|0:0,0:0:0:0:
220,170,78874,2,0,B|184:178|184:178|157:205,1,70,10|0,0:0|0:0,0:0:0:0:
120,275,79694,2,0,B|153:298|196:280,1,70,2|0,0:0|0:0,0:0:0:0:
278,272,80583,1,8,0:0:0:0:
340,332,81006,1,0,0:0:0:0:
400,267,81430,6,0,P|412:237|403:180,1,70,2|0,0:0|0:0,0:0:0:0:
399,117,82251,1,8,0:0:0:0:
314,121,82633,1,0,0:0:0:0:
256,58,83044,2,0,B|188:43|188:43|99:60,1,140,4|8,0:0|0:0,0:0:0:0:
37,74,84280,1,0,0:0:0:0:
67,151,84696,6,0,L|134:167,1,70,2|0,0:0|0:0,0:0:0:0:
216,150,85529,2,0,P|217:185|202:216,1,70,8|0,0:0|0:0,0:0:0:0:
126,249,86362,2,0,P|202:300|284:230,1,210,2|0,0:0|0:0,0:0:0:0:
317,157,88009,6,0,B|342:183|342:183|378:194,1,70,2|0,0:0|0:0,0:0:0:0:
451,158,88804,2,0,B|461:123|461:123|452:86,1,70,10|0,0:0|0:0,0:0:0:0:
384,45,89600,2,0,P|346:52|310:90,1,70,2|0,0:0|0:0,0:0:0:0:
319,158,90396,2,0,P|344:187|395:199,1,70,10|0,0:0|0:0,0:0:0:0:
447,158,91192,6,0,B|457:123|457:123|448:86,1,70,2|0,0:0|0:0,0:0:0:0:
382,41,91987,2,0,B|346:49|346:49|319:76,1,70,10|0,0:0|0:0,0:0:0:0:
278,137,92826,2,0,P|206:172|121:135,1,140,2|8,0:0|0:0,0:0:0:0:
78,118,94136,1,0,0:0:0:0:
28,184,94550,6,0,P|33:218|49:249,1,70,4|0,0:0|0:0,0:0:0:0:
101,314,95385,1,8,0:0:0:0:
184,302,95803,1,0,0:0:0:0:
234,235,96218,2,0,P|267:243|296:262,1,70,2|0,0:0|0:0,0:0:0:0:
313,345,97050,2,0,P|352:327|374:290,1,70,8|0,0:0|0:0,0:0:0:0:
377,228,97882,6,0,P|359:198|329:181,1,70,2|0,0:0|0:0,0:0:0:0:
245,182,98783,2,0,P|210:184|175:181,1,70,8|0,0:0|0:0,0:0:0:0:
85,175,99685,2,0,B|60:100|132:58|132:58|167:71|167:71|195:50|195:50|312:107|398:-16,1,420,6|0,0:0|0:0,0:0:0:0:
256,192,102540,12,8,106783,0:0:0:0:
