osu file format v14

[General]
AudioFilename: audio.mp3
AudioLeadIn: 0
PreviewTime: -1
Countdown: 0
SampleSet: None
StackLeniency: 0.7
Mode: 0
LetterboxInBreaks: 0
WidescreenStoryboard: 0

[Editor]
DistanceSpacing: 2
BeatDivisor: 4
GridSize: 4
TimelineZoom: 1

[Metadata]
Title:Take Me Home, Country Roads - Greekgodx cover
TitleUnicode:Take Me Home, Country Roads - Greekgodx cover
Artist:John Denver
ArtistUnicode:John Denver
Creator:Tuffiii
Version:Take me home
Source:Greekgodx
Tags:
BeatmapID:1731938
BeatmapSetID:826408

[Difficulty]
HPDrainRate:7
CircleSize:4
OverallDifficulty:8
ApproachRate:9
SliderMultiplier:1.2
SliderTickRate:1

[Events]
//Background and Video events
0,0,"Screenshot_3.png",0,0
//Break Periods
2,55594,60466
2,117698,123484
2,153735,174155
//Storyboard Layer 0 (Background)
//Storyboard Layer 1 (Fail)
//Storyboard Layer 2 (Pass)
//Storyboard Layer 3 (Foreground)
//Storyboard Sound Samples

[TimingPoints]
5731,365.853658536585,4,1,0,100,1,0
35365,-66.6666666666667,4,1,0,100,0,1
55578,-100,4,1,0,100,0,0
84755,-66.6666666666667,4,1,0,100,0,1
106615,-100,4,1,0,100,0,0
130587,-66.6666666666667,4,1,0,100,0,1

[HitObjects]
91,242,12316,5,0,0:0:0:0:
229,205,12499,1,0,0:0:0:0:
332,158,12682,2,0,P|287:292|171:257,1,270
150,187,14145,1,0,0:0:0:0:
290,156,14511,2,0,P|376:216|333:306,1,210
103,62,15517,1,0,0:0:0:0:
357,118,15883,1,0,0:0:0:0:
185,243,16249,2,0,P|266:293|365:204,1,240
222,74,17529,5,0,0:0:0:0:
200,192,17987,1,0,0:0:0:0:
110,238,18352,2,0,P|56:199|66:94,1,180
375,64,19267,1,0,0:0:0:0:
402,118,19359,1,0,0:0:0:0:
397,179,19450,1,0,0:0:0:0:
346,226,19541,1,0,0:0:0:0:
260,108,20273,2,0,P|335:234|154:243,1,390
105,193,21828,2,0,B|45:120|45:120|185:69,1,240
256,192,22834,12,0,24938,0:0:0:0:
70,66,25852,5,0,0:0:0:0:
346,188,26218,2,0,L|238:262,2,120
258,151,27316,1,0,0:0:0:0:
76,246,27682,1,0,0:0:0:0:
58,54,28139,2,0,L|281:217,1,270
391,45,29328,1,0,0:0:0:0:
236,227,29877,2,0,P|217:66|190:71,2,240
213,286,31707,1,0,0:0:0:0:
162,312,31798,1,0,0:0:0:0:
107,288,31889,1,0,0:0:0:0:
72,249,31980,2,0,P|40:183|247:163,1,390
216,270,33810,5,0,0:0:0:0:
172,74,33993,1,0,0:0:0:0:
343,251,34176,1,0,0:0:0:0:
91,139,34359,1,0,0:0:0:0:
212,143,34541,2,0,L|358:152,1,120
290,162,35365,6,0,B|209:257|155:167|159:93|199:30|382:54|441:112|425:170|376:248|288:381|116:327|100:241|116:143|146:42,2,810.000030899049
63,245,39023,1,0,0:0:0:0:
115,122,39389,2,0,P|226:36|178:318,1,720.000027465821
128,294,40944,1,0,0:0:0:0:
99,259,41035,1,0,0:0:0:0:
70,224,41126,1,0,0:0:0:0:
81,148,41584,2,0,L|274:112,1,180.000006866455
383,137,42316,2,0,B|392:268|286:302|108:230,2,360.000013732911
306,142,44511,5,0,0:0:0:0:
74,94,44694,1,0,0:0:0:0:
136,274,44877,2,0,P|288:333|166:59,1,720.000027465821
153,88,47346,5,0,0:0:0:0:
255,297,47529,1,0,0:0:0:0:
301,66,48078,1,0,0:0:0:0:
387,44,48444,2,0,L|30:333,1,450.000017166138
47,264,49450,1,0,0:0:0:0:
56,200,49541,1,0,0:0:0:0:
107,149,49632,1,0,0:0:0:0:
217,128,50365,5,0,0:0:0:0:
418,211,50548,1,0,0:0:0:0:
407,142,51096,1,0,0:0:0:0:
340,101,51187,1,0,0:0:0:0:
244,110,51278,1,0,0:0:0:0:
163,163,51370,1,0,0:0:0:0:
161,236,51462,2,0,P|293:275|398:200,1,270.000010299683
74,75,52560,1,0,0:0:0:0:
114,101,52651,1,0,0:0:0:0:
164,127,52743,1,0,0:0:0:0:
198,29,53291,6,0,P|109:77|199:154,1,225.000008583069
259,326,54023,2,0,L|271:114,1,180.000006866455
330,148,54572,2,0,P|410:175|324:233,1,225.000008583069
304,272,55212,2,0,L|408:351,1,90.0000034332277
273,290,61066,5,0,0:0:0:0:
176,199,61432,1,0,0:0:0:0:
183,97,61523,2,0,P|268:38|427:136,1,300
419,207,62530,1,0,0:0:0:0:
391,234,62621,1,0,0:0:0:0:
356,251,62712,1,0,0:0:0:0:
317,253,62804,1,0,0:0:0:0:
241,228,63261,5,0,0:0:0:0:
96,67,63444,1,0,0:0:0:0:
371,148,63627,1,0,0:0:0:0:
92,198,63810,1,0,0:0:0:0:
199,180,63901,2,0,L|283:148,1,90
332,109,64268,1,0,0:0:0:0:
385,162,64359,1,0,0:0:0:0:
388,238,64450,1,0,0:0:0:0:
339,295,64542,1,0,0:0:0:0:
264,305,64633,1,0,0:0:0:0:
183,275,64724,2,0,L|120:153,3,120
229,78,66462,5,0,0:0:0:0:
403,154,66828,1,0,0:0:0:0:
184,265,67285,1,0,0:0:0:0:
134,250,67376,1,0,0:0:0:0:
105,208,67467,1,0,0:0:0:0:
98,156,67559,1,0,0:0:0:0:
126,111,67651,2,0,L|384:187,1,240
102,272,68840,5,0,0:0:0:0:
351,81,69115,1,0,0:0:0:0:
197,48,69480,1,0,0:0:0:0:
389,113,69755,1,0,0:0:0:0:
432,153,69938,1,0,0:0:0:0:
454,199,70029,1,0,0:0:0:0:
449,251,70120,1,0,0:0:0:0:
419,293,70212,1,0,0:0:0:0:
358,303,70304,2,0,L|156:111,1,270
256,192,71401,12,0,73047,0:0:0:0:
383,110,73962,5,0,0:0:0:0:
174,228,74511,2,0,P|122:204|133:122,2,150
240,244,76066,1,0,0:0:0:0:
292,266,76157,1,0,0:0:0:0:
349,256,76248,1,0,0:0:0:0:
391,217,76340,1,0,0:0:0:0:
405,161,76431,1,0,0:0:0:0:
133,132,76706,1,0,0:0:0:0:
79,64,77072,6,0,L|442:63,1,360
399,118,78901,1,0,0:0:0:0:
417,251,79083,1,0,0:0:0:0:
300,318,79266,1,0,0:0:0:0:
209,261,79450,2,0,L|88:163,2,150
104,125,81005,1,0,0:0:0:0:
122,87,81096,1,0,0:0:0:0:
157,68,81188,1,0,0:0:0:0:
457,54,81554,5,0,0:0:0:0:
280,290,81737,1,0,0:0:0:0:
304,26,81920,5,0,0:0:0:0:
105,245,82102,1,0,0:0:0:0:
391,182,82285,5,0,0:0:0:0:
61,154,82468,1,0,0:0:0:0:
136,161,82651,2,0,L|229:162,1,90
256,192,83109,12,0,84572,0:0:0:0:
218,227,84846,5,0,0:0:0:0:
296,251,84937,1,0,0:0:0:0:
371,217,85028,1,0,0:0:0:0:
368,147,85121,2,0,P|310:77|158:176,1,270.000010299683
132,260,85852,1,0,0:0:0:0:
368,164,85944,1,0,0:0:0:0:
77,51,86584,2,0,P|98:123|173:172,1,135.000005149841
216,218,87041,5,0,0:0:0:0:
270,255,87132,1,0,0:0:0:0:
337,256,87223,1,0,0:0:0:0:
393,220,87315,1,0,0:0:0:0:
419,159,87406,1,0,0:0:0:0:
330,96,87499,2,0,P|253:70|383:232,1,675.000025749207
374,217,89054,1,0,0:0:0:0:
369,164,89145,1,0,0:0:0:0:
311,162,89785,5,0,0:0:0:0:
71,64,89968,1,0,0:0:0:0:
185,27,90151,5,0,0:0:0:0:
235,279,90334,1,0,0:0:0:0:
86,234,90517,5,0,0:0:0:0:
352,45,90700,2,0,B|-213:290|45:406|215:248,1,675.000025749207
406,90,92529,1,0,0:0:0:0:
336,64,92987,1,0,0:0:0:0:
247,63,93078,1,0,0:0:0:0:
171,109,93169,1,0,0:0:0:0:
131,189,93261,1,0,0:0:0:0:
140,277,93352,1,0,0:0:0:0:
176,301,93444,2,0,P|298:317|318:55,1,450.000017166138
245,72,94450,2,0,B|144:127|144:127|214:214,1,225.000008583069
233,246,94999,5,0,0:0:0:0:
300,248,95090,1,0,0:0:0:0:
354,205,95182,1,0,0:0:0:0:
330,57,95365,5,0,0:0:0:0:
92,224,95548,1,0,0:0:0:0:
437,115,95730,5,0,0:0:0:0:
76,130,95913,1,0,0:0:0:0:
316,224,96005,2,0,P|401:245|376:126,1,225.000008583069
331,122,96645,2,0,L|36:256,2,315.000012016297
314,104,98291,5,0,0:0:0:0:
253,61,98382,1,0,0:0:0:0:
179,50,98473,1,0,0:0:0:0:
109,75,98565,1,0,0:0:0:0:
59,129,98656,1,0,0:0:0:0:
38,201,98748,1,0,0:0:0:0:
61,273,98839,1,0,0:0:0:0:
104,332,99023,2,0,L|264:216,4,180.000006866455
284,271,100670,2,0,P|409:308|438:146,1,315.000012016297
94,242,101676,5,0,0:0:0:0:
281,54,101859,1,0,0:0:0:0:
276,252,102133,2,0,P|222:203|268:88,2,180.000006866455
431,39,103230,1,0,0:0:0:0:
256,192,103413,12,0,104328,0:0:0:0:
200,205,104420,6,0,L|111:146,1,90.0000034332277
256,192,104785,12,0,106340,0:0:0:0:
92,216,108901,6,0,L|258:113,1,180
309,108,109541,1,0,0:0:0:0:
371,125,109632,1,0,0:0:0:0:
419,171,109723,1,0,0:0:0:0:
421,237,109815,1,0,0:0:0:0:
404,298,109906,1,0,0:0:0:0:
344,329,109998,1,0,0:0:0:0:
276,328,110089,1,0,0:0:0:0:
82,135,110365,1,0,0:0:0:0:
149,142,110730,2,0,P|312:135|239:332,1,420
74,112,112377,5,0,0:0:0:0:
393,244,112560,1,0,0:0:0:0:
142,64,112926,2,0,L|399:143,1,240
365,169,114023,1,0,0:0:0:0:
372,221,114114,1,0,0:0:0:0:
361,269,114205,1,0,0:0:0:0:
328,298,114297,1,0,0:0:0:0:
281,292,114388,1,0,0:0:0:0:
242,270,114480,1,0,0:0:0:0:
199,229,114571,1,0,0:0:0:0:
163,179,114663,6,0,L|434:57,2,270
421,145,116676,1,0,0:0:0:0:
413,251,117041,2,0,L|259:335,1,150
156,247,124084,6,0,L|259:181,1,120
125,304,125730,5,0,0:0:0:0:
103,265,125821,1,0,0:0:0:0:
95,231,125912,1,0,0:0:0:0:
87,192,126004,1,0,0:0:0:0:
97,147,126095,1,0,0:0:0:0:
118,127,126187,1,0,0:0:0:0:
155,98,126278,1,0,0:0:0:0:
191,85,126370,1,0,0:0:0:0:
222,76,126461,1,0,0:0:0:0:
266,73,126553,1,0,0:0:0:0:
312,74,126644,1,0,0:0:0:0:
354,88,126736,1,0,0:0:0:0:
359,37,127743,5,0,0:0:0:0:
391,72,127834,1,0,0:0:0:0:
412,116,127925,1,0,0:0:0:0:
420,163,128017,1,0,0:0:0:0:
413,211,128108,1,0,0:0:0:0:
394,255,128200,1,0,0:0:0:0:
363,292,128291,1,0,0:0:0:0:
322,318,128383,1,0,0:0:0:0:
263,345,128474,1,0,0:0:0:0:
192,342,128565,1,0,0:0:0:0:
136,300,128657,1,0,0:0:0:0:
99,237,128748,1,0,0:0:0:0:
82,169,128840,1,0,0:0:0:0:
115,98,128931,1,0,0:0:0:0:
185,61,129023,1,0,0:0:0:0:
268,105,129115,1,0,0:0:0:0:
298,204,129206,1,0,0:0:0:0:
227,280,129298,1,0,0:0:0:0:
101,266,129389,1,0,0:0:0:0:
64,200,129480,6,0,P|85:112|185:63,1,180
198,29,130669,6,0,P|109:77|199:154,1,225.000008583069
259,326,131401,2,0,L|271:114,1,180.000006866455
330,148,132041,2,0,P|410:175|324:233,1,225.000008583069
304,272,132773,2,0,L|408:351,1,90.0000034332277
211,192,133596,2,0,L|121:134,3,90.0000034332277
95,126,134328,1,0,0:0:0:0:
41,174,134419,1,0,0:0:0:0:
27,244,134510,1,0,0:0:0:0:
58,309,134602,1,0,0:0:0:0:
122,343,134693,1,0,0:0:0:0:
193,331,134785,1,0,0:0:0:0:
249,306,134877,6,0,L|492:104,2,315.000012016297
38,92,136523,1,0,0:0:0:0:
357,183,136706,1,0,0:0:0:0:
81,269,136889,1,0,0:0:0:0:
334,88,137255,1,0,0:0:0:0:
266,53,137346,1,0,0:0:0:0:
194,45,137437,1,0,0:0:0:0:
129,79,137528,1,0,0:0:0:0:
94,142,137620,1,0,0:0:0:0:
120,205,137712,2,0,P|253:238|366:148,1,270.000010299683
106,77,138627,5,0,0:0:0:0:
253,202,139267,2,0,L|351:263,3,90.0000034332277
243,177,139908,1,0,0:0:0:0:
171,134,139999,1,0,0:0:0:0:
90,151,140090,1,0,0:0:0:0:
41,217,140182,1,0,0:0:0:0:
49,299,140273,1,0,0:0:0:0:
101,339,140365,2,0,P|204:353|380:207,1,315.000012016297
74,78,141920,1,0,0:0:0:0:
98,146,142194,2,0,B|168:279|168:279|273:135,1,315.000012016297
316,127,143109,5,0,0:0:0:0:
366,155,143200,1,0,0:0:0:0:
393,207,143291,1,0,0:0:0:0:
389,265,143383,1,0,0:0:0:0:
355,312,143474,1,0,0:0:0:0:
287,318,143566,2,0,L|10:106,2,315.000012016297
407,94,145121,5,0,0:0:0:0:
146,286,145304,1,0,0:0:0:0:
242,64,145487,1,0,0:0:0:0:
286,296,145670,5,0,0:0:0:0:
36,154,145852,1,0,0:0:0:0:
408,147,146035,1,0,0:0:0:0:
79,64,146218,2,0,L|410:256,2,360.000013732911
394,216,148413,1,0,0:0:0:0:
58,156,148596,1,0,0:0:0:0:
378,98,148779,2,0,L|176:208,1,225.000008583069
116,152,149877,2,0,L|118:320,1,135.000005149841
34,110,150334,2,0,L|247:112,1,180.000006866455
356,284,151340,5,0,0:0:0:0:
84,78,151523,1,0,0:0:0:0:
196,89,151706,2,0,P|352:119|420:228,1,270.000010299683
256,192,152438,12,0,153535,0:0:0:0:
256,192,174755,12,0,191036,0:0:0:0:
