osu file format v14

[General]
AudioFilename: audio.mp3
AudioLeadIn: 0
PreviewTime: 790
Countdown: 1
SampleSet: Normal
StackLeniency: 0.7
Mode: 0
LetterboxInBreaks: 0
WidescreenStoryboard: 1

[Editor]
Bookmarks: 790,990,1390,1590,1790,2390,2590,2790,2990,3190,11131,11327,11719,11915,12111,12503,12699,12895,13091,13287,13483,13876,14856,21327,22895
DistanceSpacing: 0.8
BeatDivisor: 2
GridSize: 16
TimelineZoom: 1

[Metadata]
Title:Entre Vous [mss S.xiv]
TitleUnicode:Entre Vous [mss S.xiv]
Artist:Johannes Legrant
ArtistUnicode:Johannes Legrant
Creator:-NikoNiko-
Version:Normal
Source:
Tags:
BeatmapID:2003910
BeatmapSetID:957186

[Difficulty]
HPDrainRate:4
CircleSize:3.5
OverallDifficulty:4
ApproachRate:5
SliderMultiplier:1
SliderTickRate:1

[Events]
//Background and Video events
0,0,"wallpaper-1354557.jpg",0,0
//Break Periods
//Storyboard Layer 0 (Background)
//Storyboard Layer 1 (Fail)
//Storyboard Layer 2 (Pass)
//Storyboard Layer 3 (Foreground)
//Storyboard Sound Samples

[TimingPoints]
790,400.006862745098,4,1,0,100,1,0
6990,381.246139427995,4,1,0,100,1,0
11131,392.156862745098,4,1,0,100,1,0
24540,400.006862745098,4,1,0,100,1,0
31842,372.506862745097,4,1,0,100,1,0
33180,476.190476190476,4,1,0,100,1,0
33656,352.941176470588,4,1,0,100,1,0
36382,348.600493705947,4,1,0,100,1,0

[Colours]
Combo1 : 255,215,0
Combo2 : 255,255,255

[HitObjects]
345,99,790,6,0,P|266:105|210:132,1,100
178,184,1590,2,0,P|144:246|147:290,1,100
223,334,2390,5,2,0:0:0:0:
281,252,2790,1,2,0:0:0:0:
263,153,3190,1,2,0:0:0:0:
174,106,3590,1,2,0:0:0:0:
75,122,3990,6,0,P|56:175|114:232,1,100,4|0,0:0|0:0,0:0:0:0:
166,248,4790,1,0,0:0:0:0:
230,171,5190,1,0,0:0:0:0:
295,95,5590,2,0,P|366:121|371:155,1,100,4|0,0:0|0:0,0:0:0:0:
344,233,6390,1,4,0:0:0:0:
182,237,6990,2,0,L|191:178,2,50,8|0|8,0:0|0:0|0:0,0:0:0:0:
143,269,7561,1,0,0:0:0:0:
98,292,7752,1,0,0:0:0:0:
50,306,7942,1,2,0:0:0:0:
9,214,8324,5,2,0:0:0:0:
60,128,8705,1,8,0:0:0:0:
104,104,8896,1,0,0:0:0:0:
152,92,9086,1,0,0:0:0:0:
201,97,9277,1,0,0:0:0:0:
249,110,9468,2,0,B|271:183|184:216|265:378,1,250,6|0,0:0|0:0,0:0:0:0:
396,242,11131,6,0,P|391:180|356:150,1,100,8|0,0:0|0:0,0:0:0:0:
293,223,11915,2,0,L|293:298,1,50
220,341,12503,1,8,0:0:0:0:
175,317,12699,1,0,0:0:0:0:
141,279,12895,1,0,0:0:0:0:
122,232,13091,1,0,0:0:0:0:
109,183,13287,1,0,0:0:0:0:
114,133,13483,1,6,0:0:0:0:
201,181,13876,2,0,P|213:253|261:273,1,100
379,290,14856,5,8,0:0:0:0:
389,241,15052,1,0,0:0:0:0:
384,191,15248,1,0,0:0:0:0:
353,151,15444,1,0,0:0:0:0:
308,128,15640,1,0,0:0:0:0:
258,135,15836,1,6,0:0:0:0:
315,216,16229,1,2,0:0:0:0:
228,265,16621,1,6,0:0:0:0:
125,155,17209,5,8,0:0:0:0:
141,107,17405,1,0,0:0:0:0:
180,76,17601,1,0,0:0:0:0:
228,63,17797,1,0,0:0:0:0:
275,77,17993,1,0,0:0:0:0:
314,107,18189,1,6,0:0:0:0:
228,157,18581,6,0,P|171:172|147:184,1,50,8|0,0:0|0:0,0:0:0:0:
131,182,18974,1,0,0:0:0:0:
90,211,19170,1,0,0:0:0:0:
67,255,19366,1,0,0:0:0:0:
67,304,19562,1,0,0:0:0:0:
94,345,19758,2,0,B|182:369|229:235|378:301,1,300,6|0,0:0|0:0,0:0:0:0:
417,209,21327,5,8,0:0:0:0:
395,164,21523,1,0,0:0:0:0:
354,134,21719,1,0,0:0:0:0:
306,118,21915,1,0,0:0:0:0:
256,116,22111,1,0,0:0:0:0:
207,128,22307,1,0,0:0:0:0:
163,152,22503,1,0,0:0:0:0:
126,186,22699,1,0,0:0:0:0:
102,230,22895,2,0,B|164:363|377:287,1,300,6|0,0:0|0:0,0:0:0:0:
379,174,24540,5,2,0:0:0:0:
290,127,24940,1,2,0:0:0:0:
311,224,25340,1,2,0:0:0:0:
217,187,25740,1,2,0:0:0:0:
234,285,26140,1,8,0:0:0:0:
184,278,26340,1,0,0:0:0:0:
142,250,26540,1,0,0:0:0:0:
115,207,26740,1,0,0:0:0:0:
106,157,26940,1,6,0:0:0:0:
200,189,27340,1,2,0:0:0:0:
273,257,27740,5,8,0:0:0:0:
320,242,27940,1,0,0:0:0:0:
346,199,28140,1,0,0:0:0:0:
354,149,28340,1,0,0:0:0:0:
340,100,28540,1,6,0:0:0:0:
190,113,29140,5,8,0:0:0:0:
151,145,29340,1,0,0:0:0:0:
124,187,29540,1,0,0:0:0:0:
126,236,29740,1,0,0:0:0:0:
142,283,29940,1,0,0:0:0:0:
173,321,30140,1,6,0:0:0:0:
211,228,30540,1,2,0:0:0:0:
273,306,30940,5,2,0:0:0:0:
308,212,31340,1,2,0:0:0:0:
366,293,31842,2,0,P|398:255|406:224,4,50,2|0|2|0|2,0:0|0:0|0:0|0:0|0:0,0:0:0:0:
397,156,33180,6,0,L|354:105,2,50
408,194,33832,1,0,0:0:0:0:
402,233,34008,1,0,0:0:0:0:
376,263,34185,1,0,0:0:0:0:
338,276,34361,1,0,0:0:0:0:
297,275,34538,1,0,0:0:0:0:
259,261,34714,1,0,0:0:0:0:
223,241,34891,2,0,B|263:174|160:118|341:40,1,250
311,323,36382,5,2,0:0:0:0:
268,233,36730,1,2,0:0:0:0:
403,170,37253,5,2,0:0:0:0:
362,79,37602,1,2,0:0:0:0:
204,202,38299,5,2,0:0:0:0:
151,115,38647,1,2,0:0:0:0:
169,315,39345,5,2,0:0:0:0:
256,192,39693,12,0,41611,0:0:0:0:
