osu file format v14

[General]
AudioFilename: audio.mp3
AudioLeadIn: 0
PreviewTime: 790
Countdown: 1
SampleSet: Normal
StackLeniency: 0.7
Mode: 0
LetterboxInBreaks: 0
WidescreenStoryboard: 0

[Editor]
Bookmarks: 790,990,1390,1590,1790,2390,2590,2790,2990,3190,11131,11327,11719,11915,12111,12503,12699,12895,13091,13287,13483,13876,14856,21327,22895
DistanceSpacing: 3.2
BeatDivisor: 2
GridSize: 16
TimelineZoom: 1

[Metadata]
Title:Entre Vous [mss S.xiv]
TitleUnicode:Entre Vous [mss S.xiv]
Artist:Johannes Legrant
ArtistUnicode:Johannes Legrant
Creator:-NikoNiko-
Version:Insane
Source:
Tags:
BeatmapID:2003909
BeatmapSetID:957186

[Difficulty]
HPDrainRate:7
CircleSize:4
OverallDifficulty:6
ApproachRate:8
SliderMultiplier:1.4
SliderTickRate:1

[Events]
//Background and Video events
0,0,"wallpaper-1354557.jpg",0,0
//Break Periods
//Storyboard Layer 0 (Background)
//Storyboard Layer 1 (Fail)
//Storyboard Layer 2 (Pass)
//Storyboard Layer 3 (Foreground)
//Storyboard Sound Samples

[TimingPoints]
790,400.006862745098,4,1,0,100,1,0
6990,381.246139427995,4,1,0,100,1,0
11131,392.156862745098,4,1,0,100,1,0
24540,400.006862745098,4,1,0,100,1,0
31842,372.506862745097,4,1,0,100,1,0
33180,476.190476190476,4,1,0,100,1,0
33656,352.941176470588,4,1,0,100,1,0
36382,348.600493705947,4,1,0,100,1,0

[HitObjects]
193,269,790,5,2,0:0:0:0:
309,321,990,1,8,0:0:0:0:
96,111,1390,5,2,0:0:0:0:
201,148,1590,1,0,0:0:0:0:
296,89,1790,2,0,P|351:147|359:189,1,70,8|0,0:0|0:0,0:0:0:0:
280,227,2190,1,8,0:0:0:0:
234,330,2390,1,0,0:0:0:0:
337,249,2590,1,0,0:0:0:0:
178,309,2790,1,0,0:0:0:0:
373,331,2990,1,0,0:0:0:0:
142,227,3190,1,6,0:0:0:0:
327,100,3590,5,2,0:0:0:0:
197,282,3990,5,2,0:0:0:0:
106,182,4590,5,0,0:0:0:0:
106,77,4790,1,0,0:0:0:0:
196,129,4990,1,0,0:0:0:0:
31,157,5190,1,0,0:0:0:0:
163,26,5390,1,0,0:0:0:0:
210,203,5590,1,6,0:0:0:0:
36,330,5990,5,2,0:0:0:0:
255,283,6390,5,2,0:0:0:0:
181,124,6990,5,8,0:0:0:0:
225,226,7180,1,0,0:0:0:0:
205,91,7371,1,0,0:0:0:0:
200,258,7561,1,0,0:0:0:0:
259,63,7752,1,0,0:0:0:0:
146,286,7943,1,6,0:0:0:0:
374,252,8324,5,0,0:0:0:0:
184,100,8705,5,8,0:0:0:0:
83,149,8896,1,0,0:0:0:0:
222,135,9086,1,0,0:0:0:0:
61,200,9277,1,0,0:0:0:0:
257,173,9468,2,0,B|331:173|363:122|438:101|437:31|370:-5|294:32|292:98|362:121|406:177|514:174,1,420,6|0,0:0|0:0,0:0:0:0:
125,293,11131,5,2,0:0:0:0:
179,195,11327,1,0,0:0:0:0:
364,319,11719,1,2,0:0:0:0:
426,226,11915,1,0,0:0:0:0:
481,323,12111,2,0,P|430:320|401:268,1,70
332,235,12503,1,8,0:0:0:0:
368,129,12699,1,0,0:0:0:0:
451,204,12895,1,0,0:0:0:0:
242,121,13091,1,0,0:0:0:0:
449,37,13287,1,0,0:0:0:0:
418,258,13483,1,6,0:0:0:0:
168,316,13876,5,2,0:0:0:0:
147,80,14268,5,2,0:0:0:0:
373,255,14856,5,8,0:0:0:0:
214,96,15052,1,0,0:0:0:0:
145,309,15248,1,0,0:0:0:0:
224,230,15444,1,0,0:0:0:0:
116,198,15640,1,0,0:0:0:0:
145,309,15836,1,6,0:0:0:0:
278,128,16229,5,2,0:0:0:0:
351,339,16621,5,2,0:0:0:0:
148,70,17209,5,8,0:0:0:0:
250,115,17405,1,0,0:0:0:0:
200,215,17601,1,0,0:0:0:0:
171,23,17797,1,0,0:0:0:0:
274,140,17993,1,0,0:0:0:0:
152,236,18189,1,6,0:0:0:0:
359,320,18581,5,2,0:0:0:0:
321,98,18974,5,8,0:0:0:0:
270,198,19170,1,0,0:0:0:0:
418,127,19366,1,0,0:0:0:0:
194,155,19562,1,0,0:0:0:0:
364,52,19758,2,0,B|258:37|275:298|110:200,1,280,6|0,0:0|0:0,0:0:0:0:
427,71,21327,5,8,0:0:0:0:
386,291,21523,1,0,0:0:0:0:
343,71,21719,5,0,0:0:0:0:
268,282,21915,1,0,0:0:0:0:
257,58,22111,5,0,0:0:0:0:
150,254,22307,1,0,0:0:0:0:
167,30,22503,5,0,0:0:0:0:
31,207,22699,1,0,0:0:0:0:
12,35,22895,2,0,B|161:54|229:238|446:199,1,420,6|0,0:0|0:0,0:0:0:0:
361,279,24540,5,2,0:0:0:0:
198,125,24940,5,2,0:0:0:0:
412,61,25340,5,2,0:0:0:0:
283,244,25740,5,2,0:0:0:0:
157,58,26140,5,8,0:0:0:0:
107,158,26340,1,0,0:0:0:0:
54,66,26540,1,0,0:0:0:0:
205,163,26740,1,0,0:0:0:0:
42,245,26940,1,6,0:0:0:0:
218,290,27340,5,2,0:0:0:0:
263,124,27740,5,8,0:0:0:0:
160,168,27940,1,0,0:0:0:0:
248,236,28140,1,0,0:0:0:0:
165,74,28340,1,0,0:0:0:0:
360,105,28540,1,6,0:0:0:0:
103,320,29140,5,2,0:0:0:0:
188,247,29340,1,4,0:0:0:0:
387,325,29740,5,2,0:0:0:0:
274,131,30140,5,2,0:0:0:0:
118,292,30540,5,2,0:0:0:0:
321,197,30940,5,2,0:0:0:0:
97,191,31340,5,2,0:0:0:0:
389,220,31840,5,8,0:0:0:0:
263,34,32028,1,0,0:0:0:0:
191,247,32214,2,0,P|165:294|170:317,1,70
391,294,32587,2,0,P|405:220|383:205,1,70,6|0,0:0|0:0,0:0:0:0:
223,248,33180,5,8,0:0:0:0:
223,136,33418,1,0,0:0:0:0:
320,192,33656,5,0,0:0:0:0:
126,303,33832,1,0,0:0:0:0:
126,80,34009,1,0,0:0:0:0:
307,246,34185,1,0,0:0:0:0:
85,265,34361,1,0,0:0:0:0:
179,63,34538,1,0,0:0:0:0:
273,290,34714,1,0,0:0:0:0:
335,115,34891,2,0,B|269:145|234:171|167:200|107:171|70:152|-7:118,1,350,6|0,0:0|0:0,0:0:0:0:
286,107,36382,5,8,0:0:0:0:
184,306,36730,1,8,0:0:0:0:
126,143,37253,5,8,0:0:0:0:
322,251,37602,1,8,0:0:0:0:
253,64,38299,5,8,0:0:0:0:
130,251,38647,1,8,0:0:0:0:
256,192,39170,1,8,0:0:0:0:
256,192,39693,12,0,41611,0:0:0:0:
