osu file format v14

[General]
AudioFilename: audio.mp3
AudioLeadIn: 0
PreviewTime: 790
Countdown: 1
SampleSet: Normal
StackLeniency: 0.7
Mode: 0
LetterboxInBreaks: 0
WidescreenStoryboard: 1

[Editor]
Bookmarks: 790,990,1390,1590,1790,2390,2590,2790,2990,3190,11131,11327,11719,11915,12111,12503,12699,12895,13091,13287,13483,13876,14856,21327,22895
DistanceSpacing: 1
BeatDivisor: 2
GridSize: 16
TimelineZoom: 1

[Metadata]
Title:Entre Vous [mss S.xiv]
TitleUnicode:Entre Vous [mss S.xiv]
Artist:Johannes Legrant
ArtistUnicode:Johannes Legrant
Creator:-NikoNiko-
Version:Easy
Source:
Tags:
BeatmapID:2003908
BeatmapSetID:957186

[Difficulty]
HPDrainRate:3
CircleSize:3
OverallDifficulty:2
ApproachRate:3
SliderMultiplier:0.8
SliderTickRate:1

[Events]
//Background and Video events
0,0,"wallpaper-1354557.jpg",0,0
//Break Periods
//Storyboard Layer 0 (Background)
//Storyboard Layer 1 (Fail)
//Storyboard Layer 2 (Pass)
//Storyboard Layer 3 (Foreground)
//Storyboard Sound Samples

[TimingPoints]
790,400.006862745098,4,1,0,100,1,0
6990,381.246139427995,4,1,0,100,1,0
11131,392.156862745098,4,1,0,100,1,0
24540,400.006862745098,4,1,0,100,1,0
33656,352.941176470588,4,1,0,100,1,0
36382,348.600493705947,4,1,0,100,1,0

[Colours]
Combo1 : 255,215,0
Combo2 : 255,255,255

[HitObjects]
328,280,790,6,0,P|266:279|159:214,2,160,8|0|8,0:0|0:0|0:0,0:0:0:0:
392,232,2790,1,2,0:0:0:0:
381,152,3190,1,2,0:0:0:0:
238,79,3990,6,0,P|219:132|246:171,1,80,8|0,0:0|0:0,0:0:0:0:
264,221,4790,1,0,0:0:0:0:
307,288,5190,1,0,0:0:0:0:
383,312,5590,2,0,P|454:286|459:252,1,80,8|0,0:0|0:0,0:0:0:0:
452,208,6390,1,6,0:0:0:0:
331,172,6990,6,0,L|340:113,2,50,8|0|8,0:0|0:0|0:0,0:0:0:0:
255,238,7943,5,8,0:0:0:0:
178,259,8324,1,0,0:0:0:0:
123,200,8705,1,0,0:0:0:0:
138,121,9086,1,0,0:0:0:0:
208,83,9468,2,0,B|274:119|325:41|466:154,1,250,6|0,0:0|0:0,0:0:0:0:
447,234,11131,6,0,P|422:267|355:297,1,80,8|0,0:0|0:0,0:0:0:0:
311,300,11915,2,0,P|237:291|223:278,1,80,8|0,0:0|0:0,0:0:0:0:
176,234,12699,1,0,0:0:0:0:
144,160,13091,1,0,0:0:0:0:
156,80,13483,1,0,0:0:0:0:
220,32,13876,2,0,P|291:44|310:72,1,80,6|0,0:0|0:0,0:0:0:0:
297,206,15052,5,8,0:0:0:0:
228,247,15444,1,0,0:0:0:0:
149,230,15836,1,0,0:0:0:0:
99,166,16229,1,0,0:0:0:0:
106,86,16621,1,6,0:0:0:0:
261,48,17405,5,8,0:0:0:0:
312,108,17797,1,0,0:0:0:0:
309,187,18189,1,0,0:0:0:0:
278,260,18581,2,0,P|226:261|182:234,1,80
142,194,19366,1,0,0:0:0:0:
133,114,19758,2,0,B|204:170|300:65|411:184,1,300,6|0,0:0|0:0,0:0:0:0:
401,283,21719,1,8,0:0:0:0:
329,318,22111,1,0,0:0:0:0:
269,264,22503,1,0,0:0:0:0:
223,198,22895,2,0,B|285:65|512:157,1,320,6|0,0:0|0:0,0:0:0:0:
472,243,24940,5,8,0:0:0:0:
407,290,25340,1,0,0:0:0:0:
327,297,25740,1,0,0:0:0:0:
256,258,26140,1,0,0:0:0:0:
199,314,26540,1,0,0:0:0:0:
119,323,26940,1,0,0:0:0:0:
60,268,27340,1,0,0:0:0:0:
51,188,27740,6,0,P|86:172|112:137,1,80,6|0,0:0|0:0,0:0:0:0:
100,57,28540,2,0,P|51:80|17:118,1,80,6|0,0:0|0:0,0:0:0:0:
8,173,29340,1,8,0:0:0:0:
43,244,29740,1,0,0:0:0:0:
112,283,30140,1,0,0:0:0:0:
188,259,30540,1,0,0:0:0:0:
235,194,30940,1,0,0:0:0:0:
254,116,31340,1,0,0:0:0:0:
239,37,31740,2,0,P|193:17|171:18,4,40
308,134,33140,6,0,L|268:125,2,40,8|8|0,0:0|0:0|0:0,0:0:0:0:
367,186,33832,1,8,0:0:0:0:
386,263,34185,1,0,0:0:0:0:
339,328,34538,1,0,0:0:0:0:
264,357,34891,2,0,B|173:318|198:217|118:140,1,240,6|0,0:0|0:0,0:0:0:0:
234,178,36382,5,2,0:0:0:0:
204,104,36730,1,2,0:0:0:0:
312,156,37253,5,2,0:0:0:0:
288,78,37602,1,2,0:0:0:0:
162,176,38299,5,2,0:0:0:0:
88,208,38647,1,2,0:0:0:0:
16,352,39345,5,2,0:0:0:0:
256,192,39693,12,0,41611,0:0:0:0:
