osu file format v14

[General]
AudioFilename: audio.mp3
AudioLeadIn: 0
PreviewTime: 977
Countdown: 0
SampleSet: Soft
StackLeniency: 0.7
Mode: 0
LetterboxInBreaks: 0
WidescreenStoryboard: 1

[Editor]
Bookmarks: 29586
DistanceSpacing: 1.4
BeatDivisor: 6
GridSize: 4
TimelineZoom: 3.199999

[Metadata]
Title:Waltz, Op. 39 No. 15 (Music Box Version)
TitleUnicode:Waltz, Op. 39 No. 15 (Music Box Version)
Artist:Johannes Brahms
ArtistUnicode:Johannes Brahms
Creator:Aranel
Version:the end
Source:Five Nights at Freddy's 3
Tags:Orkay video game instrumental springtrap bonnie chica foxy freddy fnaf sounddogs Musical Jewelry Box: Long Play, Heavy Clicking Of Winder, Close To Stop; Musical Themes & Anthems classical bad ending happiest day theme
BeatmapID:2874169
BeatmapSetID:1392040

[Difficulty]
HPDrainRate:5
CircleSize:10
OverallDifficulty:7
ApproachRate:7.2
SliderMultiplier:0.800000005960464
SliderTickRate:1

[Events]
//Background and Video events
0,0,"bg.png",0,0
//Break Periods
//Storyboard Layer 0 (Background)
//Storyboard Layer 1 (Fail)
//Storyboard Layer 2 (Pass)
//Storyboard Layer 3 (Foreground)
//Storyboard Layer 4 (Overlay)
//Storyboard Sound Samples

[TimingPoints]
1137,400,4,2,2,60,1,0
1537,535.714285714286,4,2,3,60,1,0
1804,512.820512820513,4,2,4,60,1,0
2573,634.920634920635,4,2,2,60,1,0
2890,566.037735849057,4,2,2,60,1,0
3173,714.285714285714,4,2,3,60,1,0
3530,567.375886524823,4,2,5,60,1,0
3813,612.244897959184,4,2,4,60,1,0
4119,566.037735849056,4,2,3,60,1,0
4685,-100,4,2,6,60,0,0
5203,-100,4,2,3,60,0,0
5251,609.137055837563,4,2,2,60,1,0
7687,750,4,2,2,60,1,0
8020,-100,4,2,2,30,0,0
8437,638.297872340425,4,2,7,60,1,0
9075,555.555555555555,4,2,2,60,1,0
9352,731.70731707317,4,2,2,60,1,0
10083,612.244897959183,4,2,7,60,1,0
10389,731.707317073171,4,2,7,60,1,0
10754,566.037735849057,4,2,2,60,1,0
11034,509.337860780985,4,2,8,60,1,0
11543,-100,4,2,2,60,0,0
12052,597.014925373134,4,2,9,60,1,0
12649,754.716981132075,4,2,2,60,1,0
13403,594.059405940594,4,2,7,60,1,0
13700,487.80487804878,4,2,7,60,1,0
14187,560.747663551402,4,2,3,60,1,0
14467,563.380281690141,4,2,4,60,1,0
15312,693.64161849711,4,2,2,60,1,0
15658,645.16129032258,4,2,2,60,1,0
15980,670.391061452514,4,2,3,60,1,0
16315,424.778761061947,4,2,4,60,1,0
17164,666.666666666667,4,2,2,60,1,0
17497,419.58041958042,4,2,2,60,1,0
17916,-125,4,2,3,60,0,0
18336,597.014925373134,4,2,5,60,1,0
18634,-100,4,2,4,60,0,0
18933,613.496932515337,4,2,3,60,1,0
18933,-100,4,2,3,60,0,0
19546,555.555555555555,4,2,6,60,1,0
20101,689.655172413792,4,2,3,60,1,0
20790,659.340659340659,4,2,10,60,1,0
21449,576.923076923077,4,2,2,60,1,0
21737,740.74074074074,4,2,2,60,1,0
22477,612.244897959184,4,2,7,60,1,0
22783,762.388818297332,4,2,7,60,1,0
23164,560.747663551402,4,2,2,60,1,0
23444,454.545454545454,4,2,2,60,1,0
23444,-125,4,2,2,60,0,0
23898,642.398286937902,4,2,2,60,1,0
24219,612.244897959184,4,2,7,60,1,0
24525,727.272727272727,4,2,7,60,1,0
24888,638.297872340426,4,2,2,60,1,0
25207,550.45871559633,4,2,8,60,1,0
25757,-100,4,2,2,60,0,0
26307,609.137055837563,4,2,9,60,1,0
26916,808.625336927224,4,2,2,60,1,0
27724,645.16129032258,4,2,7,60,1,0
28046,799.999999999999,4,2,7,60,1,0
28046,-66.6666666666667,4,2,7,60,0,0
28446,599.999999999999,4,2,3,60,1,0
28746,-100,4,2,4,60,0,0
29645,731.707317073169,4,2,2,60,1,0
30010,-100,4,2,2,60,0,0
30376,594.059405940594,4,2,3,60,1,0
30673,930.232558139532,4,2,4,60,1,0
31603,808.625336927224,4,2,2,60,1,0
32007,750,4,2,2,60,1,0
32382,952.380952380949,4,2,3,60,1,0
32382,-50,4,2,3,60,0,0
32858,736.196319018405,4,2,5,60,1,0
33226,-100,4,2,4,60,0,0
33594,685.714285714286,4,2,3,60,1,0
34279,697.674418604651,4,2,6,60,1,0
34933,-100,4,2,3,60,0,0
34976,721.587492483464,4,2,2,60,1,0
37862,905.660377358491,4,2,2,60,1,0
38365,-100,4,2,1,5,0,0
38767,810.810810810811,4,2,7,60,1,0
39172,833.333333333333,4,2,7,60,1,0
39588,625,4,2,2,60,1,0
39692,-100,4,2,7,60,0,0
39900,-100,4,2,2,60,0,0

[Colours]
Combo1 : 79,79,0
Combo2 : 87,68,51
Combo3 : 85,0,0
Combo4 : 152,148,61
Combo5 : 95,87,123

[HitObjects]
12,11,1137,5,2,0:2:0:0:
98,33,1537,1,2,0:2:0:0:
133,15,1804,1,2,0:2:0:0:
133,15,2573,6,0,P|147:28|164:40,1,40.0000002980232,2|2,0:2|0:2,0:0:0:0:
195,51,3173,1,2,0:2:0:0:
242,32,3530,1,2,0:2:0:0:
264,57,3813,1,2,0:2:0:0:
295,47,4119,1,2,0:2:0:0:
357,85,4685,1,2,0:2:0:0:
375,157,5203,1,2,0:2:0:0:
375,157,5251,1,2,0:2:0:0:
406,370,6875,5,2,0:2:0:0:
481,240,7687,6,0,L|475:279,1,35.5555558204651,2|2,0:2|0:2,0:0:0:0:
439,302,8437,1,2,0:2:0:0:
407,273,8756,1,2,0:2:0:0:
366,257,9075,2,0,P|342:257|319:263,1,40.0000002980232,2|2,0:2|0:2,0:0:0:0:
326,260,10083,6,0,P|304:261|279:254,1,40.0000002980232,2|2,0:2|0:2,0:0:0:0:
245,235,10754,1,2,0:2:0:0:
203,254,11034,1,2,0:2:0:0:
173,340,11543,1,2,0:2:0:0:
92,298,12052,1,2,0:2:0:0:
77,208,12649,1,2,0:2:0:0:
182,128,13403,21,2,0:2:0:0:
221,146,13700,2,0,P|259:149|299:138,1,80.0000005960464,2|2,0:2|0:2,0:0:0:0:
330,116,14467,1,2,0:2:0:0:
330,116,15312,1,2,0:2:0:0:
373,136,15658,1,2,0:2:0:0:
416,157,15980,2,0,L|409:111,1,40.0000002980232,2|2,0:2|0:2,0:0:0:0:
410,117,17164,5,2,0:2:0:0:
454,98,17497,1,2,0:2:0:0:
497,77,17916,2,0,L|485:144,1,64.0000004768371,2|2,0:2|0:2,0:0:0:0:
498,184,18634,1,2,0:2:0:0:
456,172,18933,1,2,0:2:0:0:
368,200,19546,1,2,0:2:0:0:
342,293,20101,1,2,0:2:0:0:
485,384,20790,6,0,P|459:378|407:371,1,80.0000005960464,2|2,0:2|0:2,0:0:0:0:
364,372,21737,1,2,0:2:0:0:
240,333,22477,5,2,0:2:0:0:
205,354,22783,2,0,P|186:352|166:354,1,40.0000002980232,2|2,0:2|0:2,0:0:0:0:
128,382,23444,2,0,B|94:386|95:368|58:374,1,64.0000004768371,2|2,0:2|0:2,0:0:0:0:
22,382,24219,21,2,0:2:0:0:
40,338,24525,1,2,0:2:0:0:
85,326,24888,1,2,0:2:0:0:
123,348,25207,1,2,0:2:0:0:
176,279,25757,1,2,0:2:0:0:
145,197,26307,1,2,0:2:0:0:
55,178,26916,1,2,0:2:0:0:
33,10,27724,5,2,0:2:0:0:
69,0,28046,2,0,P|99:1|127:13,1,60.0000027358533,2|2,0:2|0:2,0:0:0:0:
152,42,28746,1,2,0:2:0:0:
152,42,29645,1,2,0:2:0:0:
192,62,30010,1,2,0:2:0:0:
232,82,30376,2,0,L|243:33,1,40.0000002980232,2|2,0:2|0:2,0:0:0:0:
241,43,31603,5,2,0:2:0:0:
281,23,32007,1,2,0:2:0:0:
321,3,32382,2,0,L|341:86,1,80.0000005960464,2|2,0:2|0:2,0:0:0:0:
333,134,33226,1,2,0:2:0:0:
376,118,33594,1,2,0:2:0:0:
463,172,34279,1,2,0:2:0:0:
474,283,34933,1,2,0:2:0:0:
474,283,34976,1,2,0:2:0:0:
0,116,36900,5,2,0:2:0:0:
106,192,37862,6,0,L|113:146,1,44.4444447755813,2|0,0:2|0:2,0:0:0:0:
151,116,38767,1,2,0:2:0:0:
182,163,39172,1,2,0:2:0:0:
213,210,39588,2,0,L|211:223,2,13.3333334326744,2|2|2,0:2|0:2|0:2,0:0:0:0:
213,210,39900,1,2,0:2:0:0:
