osu file format v14

[General]
AudioFilename: audio.mp3
AudioLeadIn: 0
PreviewTime: 977
Countdown: 0
SampleSet: Soft
StackLeniency: 0.7
Mode: 0
LetterboxInBreaks: 0
WidescreenStoryboard: 1

[Editor]
DistanceSpacing: 1.4
BeatDivisor: 6
GridSize: 4
TimelineZoom: 3.299999

[Metadata]
Title:Waltz, Op. 39 No. 15 (Music Box Version)
TitleUnicode:Waltz, Op. 39 No. 15 (Music Box Version)
Artist:Johannes Brahms
ArtistUnicode:Johannes Brahms
Creator:Aranel
Version:hard
Source:Five Nights at Freddy's 3
Tags:Orkay video game instrumental springtrap bonnie chica foxy freddy fnaf sounddogs Musical Jewelry Box: Long Play, Heavy Clicking Of Winder, Close To Stop; Musical Themes & Anthems classical bad ending happiest day theme
BeatmapID:2875469
BeatmapSetID:1392040

[Difficulty]
HPDrainRate:4
CircleSize:8
OverallDifficulty:5.5
ApproachRate:6.5
SliderMultiplier:0.800000005960464
SliderTickRate:1

[Events]
//Background and Video events
0,0,"bg.png",0,0
//Break Periods
//Storyboard Layer 0 (Background)
//Storyboard Layer 1 (Fail)
//Storyboard Layer 2 (Pass)
//Storyboard Layer 3 (Foreground)
//Storyboard Layer 4 (Overlay)
//Storyboard Sound Samples

[TimingPoints]
1137,400,4,2,2,60,1,0
1537,535.714285714286,4,2,3,60,1,0
1804,512.820512820513,4,2,4,60,1,0
2573,634.920634920635,4,2,2,60,1,0
2890,566.037735849057,4,2,2,60,1,0
3173,714.285714285714,4,2,3,60,1,0
3530,567.375886524823,4,2,5,60,1,0
3813,612.244897959184,4,2,4,60,1,0
4119,566.037735849056,4,2,3,60,1,0
4685,-100,4,2,6,60,0,0
5203,-100,4,2,3,60,0,0
5251,609.137055837563,4,2,2,60,1,0
7687,750,4,2,2,60,1,0
7687,-76.9230769230769,4,2,2,60,0,0
8020,-100,4,2,2,30,0,0
8437,638.297872340425,4,2,7,60,1,0
9075,555.555555555555,4,2,2,60,1,0
9352,731.70731707317,4,2,2,60,1,0
10083,612.244897959183,4,2,7,60,1,0
10389,731.707317073171,4,2,7,60,1,0
10754,566.037735849057,4,2,2,60,1,0
11034,509.337860780985,4,2,8,60,1,0
11543,-100,4,2,2,60,0,0
12052,597.014925373134,4,2,9,60,1,0
12649,754.716981132075,4,2,2,60,1,0
13403,594.059405940594,4,2,7,60,1,0
13700,487.80487804878,4,2,7,60,1,0
14187,560.747663551402,4,2,3,60,1,0
14467,563.380281690141,4,2,4,60,1,0
15312,693.64161849711,4,2,2,60,1,0
15658,645.16129032258,4,2,2,60,1,0
15980,670.391061452514,4,2,3,60,1,0
16315,424.778761061947,4,2,4,60,1,0
17164,666.666666666667,4,2,2,60,1,0
17497,419.58041958042,4,2,2,60,1,0
17916,-125,4,2,3,60,0,0
18336,597.014925373134,4,2,5,60,1,0
18634,-100,4,2,4,60,0,0
18933,613.496932515337,4,2,3,60,1,0
18933,-100,4,2,3,60,0,0
19546,555.555555555555,4,2,6,60,1,0
20101,689.655172413792,4,2,3,60,1,0
20790,659.340659340659,4,2,10,60,1,0
20790,-76.9230769230769,4,2,10,60,0,0
21449,576.923076923077,4,2,2,60,1,0
21737,740.74074074074,4,2,2,60,1,0
22477,612.244897959184,4,2,7,60,1,0
22783,762.388818297332,4,2,7,60,1,0
23164,560.747663551402,4,2,2,60,1,0
23444,454.545454545454,4,2,2,60,1,0
23444,-125,4,2,2,60,0,0
23898,642.398286937902,4,2,2,60,1,0
24219,612.244897959184,4,2,7,60,1,0
24525,727.272727272727,4,2,7,60,1,0
24888,638.297872340426,4,2,2,60,1,0
25207,550.45871559633,4,2,8,60,1,0
25757,-100,4,2,2,60,0,0
26307,609.137055837563,4,2,9,60,1,0
26916,808.625336927224,4,2,2,60,1,0
27724,645.16129032258,4,2,7,60,1,0
28046,799.999999999999,4,2,7,60,1,0
28446,599.999999999999,4,2,3,60,1,0
28746,-100,4,2,4,60,0,0
29645,731.707317073169,4,2,2,60,1,0
30011,-100,4,2,2,60,0,0
30376,594.059405940594,4,2,3,60,1,0
30673,930.232558139532,4,2,4,60,1,0
31603,808.625336927224,4,2,2,60,1,0
32007,750,4,2,2,60,1,0
32382,952.380952380949,4,2,3,60,1,0
32382,-50,4,2,3,60,0,0
32858,736.196319018405,4,2,5,60,1,0
33227,-100,4,2,4,60,0,0
33594,685.714285714286,4,2,3,60,1,0
34279,697.674418604651,4,2,6,60,1,0
34933,-100,4,2,3,60,0,0
34943,-100,4,2,3,60,0,0
34976,721.587492483464,4,2,2,60,1,0
37862,905.660377358491,4,2,2,60,1,0
37862,-66.6666666666667,4,2,2,60,0,0
38362,-100,4,2,2,60,0,0
38365,-100,4,2,1,5,0,0
38767,810.810810810811,4,2,7,60,1,0
39172,833.333333333333,4,2,7,60,1,0
39172,-100,4,2,7,60,0,0
39588,625,4,2,2,60,1,0
39692,-100,4,2,7,60,0,0
39900,-100,4,2,2,60,0,0

[Colours]
Combo1 : 79,79,0
Combo2 : 87,68,51
Combo3 : 85,0,0
Combo4 : 152,148,61
Combo5 : 95,87,123

[HitObjects]
408,55,1137,5,2,0:2:0:0:
467,27,1537,1,2,0:2:0:0:
509,39,1804,1,2,0:2:0:0:
509,39,2573,6,0,P|507:58|504:78,1,40.0000002980232,2|2,0:2|0:2,0:0:0:0:
473,117,3173,1,2,0:2:0:0:
503,164,3530,2,0,P|501:183|498:203,1,40.0000002980232,2|2,0:2|0:2,0:0:0:0:
475,244,4119,1,2,0:2:0:0:
402,293,4685,1,2,0:2:0:0:
317,244,5251,1,2,0:2:0:0:
231,19,6875,5,2,0:2:0:0:
133,128,7687,6,0,P|127:107|125:81,1,46.2222204507192,2|2,0:2|0:2,0:0:0:0:
56,56,8437,1,2,0:2:0:0:
22,92,8756,1,2,0:2:0:0:
42,134,9075,2,0,P|47:161|45:181,1,40.0000002980232,2|2,0:2|0:2,0:0:0:0:
46,173,10083,6,0,P|41:200|43:220,1,40.0000002980232,2|2,0:2|0:2,0:0:0:0:
54,262,10754,1,2,0:2:0:0:
93,293,11034,2,0,P|132:290|172:293,1,80.0000005960464,2|2,0:2|0:2,0:0:0:0:
257,242,12052,1,2,0:2:0:0:
196,160,12649,1,2,0:2:0:0:
18,365,13403,5,2,0:2:0:0:
53,332,13700,2,0,P|89:326|139:331,1,80.0000005960464,2|2,0:2|0:2,0:0:0:0:
168,358,14466,1,2,0:2:0:0:
168,358,15312,1,2,0:2:0:0:
208,330,15658,1,2,0:2:0:0:
252,353,15980,2,0,P|269:360|291:361,1,40.0000002980232,2|2,0:2|0:2,0:0:0:0:
494,312,17164,5,2,0:2:0:0:
472,357,17497,1,2,0:2:0:0:
401,362,17916,2,0,B|375:358|375:358|368:349|368:349|342:345,1,64.0000004768371,2|2,0:2|0:2,0:0:0:0:
300,316,18634,1,2,0:2:0:0:
342,293,18933,1,2,0:2:0:0:
384,212,19546,1,2,0:2:0:0:
342,131,20101,1,2,0:2:0:0:
500,24,20790,6,0,P|448:33|397:38,1,103.999996014118,2|2,0:2|0:2,0:0:0:0:
353,21,21737,1,2,0:2:0:0:
259,105,22477,1,2,0:2:0:0:
227,72,22783,2,0,P|202:65|175:67,1,40.0000002980232,2|2,0:2|0:2,0:0:0:0:
140,37,23444,2,0,P|111:53|91:82,1,64.0000004768371,2|2,0:2|0:2,0:0:0:0:
53,106,24219,6,0,P|59:128|63:150,1,40.0000002980232,2|2,0:2|0:2,0:0:0:0:
41,185,24888,1,2,0:2:0:0:
68,221,25207,1,2,0:2:0:0:
53,298,25757,1,2,0:2:0:0:
133,346,26307,1,2,0:2:0:0:
214,286,26916,1,2,0:2:0:0:
327,169,27724,5,2,0:2:0:0:
304,131,28046,2,0,P|304:106|297:80,1,40.0000002980232,2|2,0:2|0:2,0:0:0:0:
275,54,28746,1,2,0:2:0:0:
275,54,29646,1,2,0:2:0:0:
306,14,30011,1,2,0:2:0:0:
356,25,30377,2,0,P|370:46|376:66,1,40.0000002980232,2|2,0:2|0:2,0:0:0:0:
299,227,31603,5,2,0:2:0:0:
341,197,32007,1,2,0:2:0:0:
391,220,32382,2,0,B|432:226|428:205|474:212,1,80.0000005960464,2|2,0:2|0:2,0:0:0:0:
504,256,33226,1,2,0:2:0:0:
469,295,33594,1,2,0:2:0:0:
354,277,34279,1,2,0:2:0:0:
286,372,34976,1,2,0:2:0:0:
68,382,36900,5,2,0:2:0:0:
130,204,37862,6,0,L|139:277,1,66.6666697065036,2|0,0:2|0:2,0:0:0:0:
186,304,38767,1,2,0:2:0:0:
222,263,39172,1,2,0:2:0:0:
258,222,39588,2,0,L|255:203,2,13.3333334326744,2|2|2,0:2|0:2|0:2,0:0:0:0:
258,222,39900,1,2,0:2:0:0:
