osu file format v14

[General]
AudioFilename: audio.mp3
AudioLeadIn: 0
PreviewTime: 31461
Countdown: 0
SampleSet: Soft
StackLeniency: 0.8
Mode: 0
LetterboxInBreaks: 0
WidescreenStoryboard: 0

[Editor]
Bookmarks: 31592
DistanceSpacing: 1.3
BeatDivisor: 4
GridSize: 4
TimelineZoom: 0.9

[Metadata]
Title:Prelude in C Minor, BWV 934
TitleUnicode:Prelude in C Minor, BWV 934
Artist:Johann Sebastian Bach
ArtistUnicode:Johann Sebastian Bach
Creator:Lollipop314
Version:Hard
Source:
Tags:
BeatmapID:1494398
BeatmapSetID:706806

[Difficulty]
HPDrainRate:5
CircleSize:3.8
OverallDifficulty:6
ApproachRate:7.5
SliderMultiplier:1.3
SliderTickRate:1

[Events]
//Background and Video events
0,0,"gbgggb.jpg",0,0
//Break Periods
//Storyboard Layer 0 (Background)
//Storyboard Layer 1 (Fail)
//Storyboard Layer 2 (Pass)
//Storyboard Layer 3 (Foreground)
//Storyboard Sound Samples

[TimingPoints]
14,526.315789473684,3,2,0,30,1,0

[Colours]
Combo1 : 128,0,64
Combo2 : 255,128,192
Combo3 : 255,128,255
Combo4 : 128,128,192
Combo5 : 255,0,255
Combo6 : 255,0,128

[HitObjects]
88,216,14,6,2,L|114:136,1,65
177,101,540,2,2,L|201:173,1,65
276,116,1066,2,2,L|296:204,1,65
374,179,1592,6,2,B|369:234,2,32.5
385,300,2119,1,0,0:0:0:0:
305,271,2382,1,0,0:0:0:0:
226,238,2645,1,0,0:0:0:0:
147,205,2908,1,0,0:0:0:0:
80,152,3171,6,2,B|109:83|109:83,1,65
188,106,3698,2,2,L|240:65,1,65
317,35,4224,2,2,L|386:92,1,65
393,147,4750,6,2,L|402:204,2,32.5
324,242,5277,1,0,0:0:0:0:
274,310,5540,1,0,0:0:0:0:
204,261,5803,1,0,0:0:0:0:
148,324,6066,1,0,0:0:0:0:
87,166,6329,6,2,L|68:243,1,65
130,315,6856,2,2,L|145:251,1,65
218,209,7382,2,2,L|237:288,1,65
280,110,7908,6,0,L|289:193,1,65
364,86,8435,2,0,L|377:176,1,65
478,100,8961,2,0,L|462:167,1,65
416,270,9487,6,2,L|365:321,1,65
269,290,10013,2,2,L|314:244,1,65
351,146,10540,2,2,L|382:221,1,65
253,132,11066,6,0,L|235:200,1,65
156,109,11592,2,0,L|146:194,1,65
42,122,12119,2,0,L|74:203,1,65
137,274,12645,5,0,0:0:0:0:
211,313,12908,1,0,0:0:0:0:
211,228,13171,1,0,0:0:0:0:
284,270,13435,1,0,0:0:0:0:
284,185,13698,1,0,0:0:0:0:
359,222,13961,1,0,0:0:0:0:
437,191,14224,6,2,L|409:126,1,65
329,48,14750,2,2,L|306:124,1,65
210,47,15277,2,2,L|226:138,1,65
134,136,15803,5,0,0:0:0:0:
63,193,16066,1,0,0:0:0:0:
59,283,16329,1,0,0:0:0:0:
136,331,16592,1,0,0:0:0:0:
188,256,16856,2,0,L|249:321,1,65
302,349,17382,6,2,L|314:281,1,65
300,192,17908,2,2,L|360:224,1,65
428,172,18435,2,2,L|444:240,1,65
416,316,18961,5,0,0:0:0:0:
340,280,19224,1,0,0:0:0:0:
272,232,19487,1,0,0:0:0:0:
204,280,19750,1,0,0:0:0:0:
132,324,20013,2,0,L|80:244,1,65
128,192,20540,6,2,L|152:128,1,65
220,176,21066,2,2,L|240:108,1,65
308,160,21592,2,2,L|312:92,1,65
382,47,22119,5,0,0:0:0:0:
440,107,22382,1,0,0:0:0:0:
433,191,22645,2,2,L|400:247,1,65
319,222,23171,2,2,L|286:278,1,65
212,324,23698,5,4,0:0:0:0:
84,212,24224,1,0,0:0:0:0:
180,72,24750,2,4,P|240:40|300:76,1,130
236,224,25803,5,0,0:0:0:0:
396,172,26329,2,4,P|427:240|377:281,1,130,6|4,0:0|0:0,0:0:0:0:
236,336,27382,5,0,0:0:0:0:
108,228,27908,2,4,P|152:176|217:172,1,130
192,256,28698,5,0,0:0:0:0:
276,272,28961,2,0,L|304:340,1,65
384,320,29487,2,0,L|360:256,1,65
327,181,30013,5,0,0:0:0:0:
255,225,30277,1,0,0:0:0:0:
179,261,30540,1,0,0:0:0:0:
143,337,30803,2,0,L|95:289,1,65
72,161,31592,6,2,L|82:91,1,65
148,45,32119,2,2,L|160:113,1,65
235,73,32645,2,2,L|247:141,1,65
328,116,33171,6,2,L|339:202,1,65
401,234,33698,1,0,0:0:0:0:
326,274,33961,1,0,0:0:0:0:
331,189,34224,1,0,0:0:0:0:
265,135,34487,1,0,0:0:0:0:
180,130,34750,6,2,L|166:201,1,65
153,277,35277,1,0,0:0:0:0:
40,180,35540,6,2,L|94:227,1,65
153,277,36067,1,0,0:0:0:0:
193,181,36329,6,0,L|233:247,1,65
298,281,36856,1,0,0:0:0:0:
357,220,37119,1,0,0:0:0:0:
420,164,37382,2,0,L|450:248,1,65
449,309,37908,6,2,B|372:267,1,65
309,298,38435,2,2,B|232:256,1,65
169,284,38961,2,2,B|92:242,1,65
167,135,39487,6,0,L|187:206,1,65
266,175,40013,1,0,0:0:0:0:
286,257,40277,1,0,0:0:0:0:
388,275,40540,2,0,L|370:212,1,65
391,130,41066,6,2,L|325:150,1,65
244,138,41592,2,2,B|287:65,1,65
201,43,42119,2,2,L|156:118,1,65
141,201,42645,5,0,0:0:0:0:
221,175,42908,1,0,0:0:0:0:
288,124,43171,1,0,0:0:0:0:
315,204,43435,1,0,0:0:0:0:
349,281,43698,2,0,L|400:232,1,65
452,148,44224,6,2,L|478:223,1,65
369,144,44750,2,2,L|369:222,1,65
286,146,45277,2,2,L|260:221,1,65
214,275,45803,6,0,L|178:200,1,65
101,217,46329,2,0,L|116:138,1,65
122,68,46856,2,0,L|197:110,1,65
208,178,47382,5,0,0:0:0:0:
266,117,47645,1,0,0:0:0:0:
333,167,47908,1,0,0:0:0:0:
385,100,48171,1,0,0:0:0:0:
450,154,48435,1,0,0:0:0:0:
450,238,48698,1,0,0:0:0:0:
438,321,48961,6,6,L|352:280,1,65,6|2,0:0|0:0,0:0:0:0:
297,314,49487,2,2,L|278:244,1,65
209,205,50013,2,2,L|184:288,1,65
120,315,50540,6,0,L|91:234,1,65
118,171,51066,1,0,0:0:0:0:
167,102,51329,1,0,0:0:0:0:
237,54,51592,2,0,L|262:138,1,65
250,200,52119,5,4,0:0:0:0:
328,168,52382,1,4,0:0:0:0:
397,119,52645,2,0,L|419:207,1,65,4|0,0:0|0:0,0:0:0:0:
409,266,53171,2,0,L|388:334,1,65
305,340,53698,6,2,L|240:309,1,65
162,322,54224,2,2,L|105:277,1,65
120,197,54750,2,2,L|190:228,1,65
244,278,55277,5,4,0:0:0:0:
284,203,55540,1,4,0:0:0:0:
328,130,55803,2,0,L|378:192,1,65,4|0,0:0|0:0,0:0:0:0:
429,238,56329,1,0,0:0:0:0:
412,320,56592,1,0,0:0:0:0:
328,336,56856,6,2,L|275:266,1,65
234,219,57382,2,2,L|201:296,1,65
135,203,57908,2,2,L|123:285,1,65
111,350,58435,5,0,0:0:0:0:
194,339,58698,1,0,0:0:0:0:
267,298,58961,1,0,0:0:0:0:
328,239,59224,1,0,0:0:0:0:
403,277,59487,2,0,L|417:195,1,65
418,128,60013,6,2,L|339:148,1,65,6|2,0:0|0:0,0:0:0:0:
332,62,60540,2,2,L|274:120,1,65,6|2,0:0|0:0,0:0:0:0:
234,174,61066,2,2,L|184:109,1,65,6|2,0:0|0:0,0:0:0:0:
137,59,61592,5,4,0:0:0:0:
84,126,61856,1,0,0:0:0:0:
65,208,62119,1,0,0:0:0:0:
116,275,62382,2,4,L|174:243,1,65
