osu file format v14

[General]
AudioFilename: audio.mp3
AudioLeadIn: 0
PreviewTime: -1
Countdown: 1
SampleSet: Normal
StackLeniency: 0.7
Mode: 0
LetterboxInBreaks: 0
WidescreenStoryboard: 1

[Editor]
DistanceSpacing: 1.4
BeatDivisor: 4
GridSize: 4
TimelineZoom: 1

[Metadata]
Title:Canon
TitleUnicode:Canon
Artist:Johan Pachelbel
ArtistUnicode:Johan Pachelbel
Creator:Zooshy
Version:Master
Source:
Tags:
BeatmapID:1932183
BeatmapSetID:924977

[Difficulty]
HPDrainRate:5
CircleSize:4
OverallDifficulty:5
ApproachRate:10
SliderMultiplier:1.4
SliderTickRate:1

[Events]
//Background and Video events
//Break Periods
//Storyboard Layer 0 (Background)
//Storyboard Layer 1 (Fail)
//Storyboard Layer 2 (Pass)
//Storyboard Layer 3 (Foreground)
//Storyboard Sound Samples

[TimingPoints]
8882.82862181209,415.800415800416,4,1,0,100,1,0

[HitObjects]
56,281,7219,6,0,L|268:88,1,280
280,32,8467,1,0,0:0:0:0:
361,66,8882,2,0,L|440:342,1,280
180,334,10130,1,0,0:0:0:0:
78,281,10546,2,0,L|300:108,1,280
309,28,11793,1,0,0:0:0:0:
396,44,12209,2,0,L|225:286,1,280
189,340,13456,1,0,0:0:0:0:
174,264,13872,2,0,B|39:13|39:17,1,280
93,31,15119,1,0,0:0:0:0:
177,23,15535,2,0,L|227:300,1,280
249,344,16783,1,0,0:0:0:0:
305,285,17198,2,0,B|449:26|447:28,1,280
424,46,18446,1,0,0:0:0:0:
459,112,18862,2,0,L|264:328,1,280
210,328,20525,2,0,B|206:44|206:45,1,280
46,343,21772,1,0,0:0:0:0:
329,40,22188,2,0,B|334:323|336:319,1,280
42,38,23435,1,0,0:0:0:0:
447,317,23851,2,0,L|451:27,1,280
452,338,25099,1,0,0:0:0:0:
50,35,25514,2,0,L|49:321,1,280
477,29,26762,1,0,0:0:0:0:
162,311,27178,2,0,L|165:32,1,280
45,338,28425,1,0,0:0:0:0:
272,37,28841,2,0,L|268:342,1,280
51,32,30088,1,0,0:0:0:0:
380,324,30504,2,0,L|382:34,1,280
53,335,31751,1,0,0:0:0:0:
454,39,32167,2,0,L|455:328,1,280
66,342,33830,6,0,B|65:51|66:55,1,280
77,337,35078,1,0,0:0:0:0:
461,48,35494,2,0,L|462:328,1,280
459,39,36741,1,0,0:0:0:0:
258,331,37157,2,0,L|258:43,1,280
457,336,38404,1,0,0:0:0:0:
65,33,38820,2,0,L|64:328,1,280
58,314,40067,1,0,0:0:0:0:
466,327,40483,2,0,L|307:89,1,280
457,44,41731,1,0,0:0:0:0:
196,97,42146,2,0,L|48:343,1,280
67,58,43394,1,0,0:0:0:0:
263,340,43810,2,0,L|258:60,1,280
449,52,45057,1,0,0:0:0:0:
70,40,45473,2,0,L|65:327,1,280
213,52,47136,5,0,0:0:0:0:
345,90,47552,1,0,0:0:0:0:
409,174,47968,1,0,0:0:0:0:
203,330,48799,1,0,0:0:0:0:
75,187,49215,1,0,0:0:0:0:
187,77,49631,1,0,0:0:0:0:
431,266,50462,1,0,0:0:0:0:
270,324,50878,1,0,0:0:0:0:
81,233,51294,1,0,0:0:0:0:
225,39,52126,1,0,0:0:0:0:
406,153,52541,1,0,0:0:0:0:
257,313,52957,1,0,0:0:0:0:
76,207,53789,1,0,0:0:0:0:
258,45,54205,1,0,0:0:0:0:
443,215,54620,1,0,0:0:0:0:
354,192,55452,1,0,0:0:0:0:
207,180,55868,1,0,0:0:0:0:
60,148,56284,1,0,0:0:0:0:
185,80,57115,1,0,0:0:0:0:
161,263,57531,1,0,0:0:0:0:
435,175,57947,1,0,0:0:0:0:
244,291,58778,1,0,0:0:0:0:
252,29,59194,1,0,0:0:0:0:
251,149,59610,1,0,0:0:0:0:
82,164,60026,1,0,0:0:0:0:
102,284,60442,5,0,0:0:0:0:
164,61,60857,1,0,0:0:0:0:
226,269,61273,1,0,0:0:0:0:
282,66,61689,1,0,0:0:0:0:
330,278,62105,1,0,0:0:0:0:
373,73,62521,1,0,0:0:0:0:
438,272,62936,1,0,0:0:0:0:
251,261,63768,5,0,0:0:0:0:
253,49,64184,1,0,0:0:0:0:
68,177,64600,1,0,0:0:0:0:
253,265,65431,1,0,0:0:0:0:
465,169,65847,1,0,0:0:0:0:
260,53,66263,1,0,0:0:0:0:
267,153,66679,1,0,0:0:0:0:
267,283,67094,1,0,0:0:0:0:
51,183,67510,1,0,0:0:0:0:
139,52,67926,1,0,0:0:0:0:
261,55,68342,1,0,0:0:0:0:
373,67,68758,1,0,0:0:0:0:
427,163,69173,1,0,0:0:0:0:
445,265,69589,1,0,0:0:0:0:
358,318,70005,1,0,0:0:0:0:
252,321,70421,1,0,0:0:0:0:
254,181,70837,5,0,0:0:0:0:
74,183,71252,1,0,0:0:0:0:
80,326,72084,5,0,0:0:0:0:
252,333,72500,1,0,0:0:0:0:
448,334,72916,1,0,0:0:0:0:
445,215,73331,1,0,0:0:0:0:
259,183,73747,5,0,0:0:0:0:
61,187,74163,1,0,0:0:0:0:
57,39,74579,1,0,0:0:0:0:
249,32,74995,1,0,0:0:0:0:
254,190,75410,5,0,0:0:0:0:
469,188,75826,1,0,0:0:0:0:
465,38,76242,1,0,0:0:0:0:
260,29,76658,1,0,0:0:0:0:
256,190,77074,5,0,0:0:0:0:
52,37,77489,1,0,0:0:0:0:
475,342,77905,1,0,0:0:0:0:
79,326,78321,1,0,0:0:0:0:
256,193,78737,5,0,0:0:0:0:
454,41,79153,1,0,0:0:0:0:
67,42,79568,1,0,0:0:0:0:
441,342,79984,1,0,0:0:0:0:
254,193,80400,5,0,0:0:0:0:
82,36,80816,1,0,0:0:0:0:
86,326,81232,1,0,0:0:0:0:
465,352,81647,1,0,0:0:0:0:
460,35,82063,1,0,0:0:0:0:
256,35,82479,1,0,0:0:0:0:
253,187,82895,1,0,0:0:0:0:
257,323,83311,1,0,0:0:0:0:
258,192,83726,5,0,0:0:0:0:
368,190,84142,1,0,0:0:0:0:
475,192,84558,1,0,0:0:0:0:
472,337,84974,1,0,0:0:0:0:
263,347,85390,1,0,0:0:0:0:
44,37,85805,1,0,0:0:0:0:
251,41,86013,1,0,0:0:0:0:
474,36,86221,1,0,0:0:0:0:
51,341,86637,1,0,0:0:0:0:
254,189,87053,5,0,0:0:0:0:
89,182,87884,1,0,0:0:0:0:
139,102,88092,1,0,0:0:0:0:
188,33,88300,1,0,0:0:0:0:
194,174,88508,1,0,0:0:0:0:
176,310,88716,1,0,0:0:0:0:
313,165,89340,1,0,0:0:0:0:
254,192,89548,5,0,0:0:0:0:
257,42,89756,1,0,0:0:0:0:
265,332,89963,1,0,0:0:0:0:
463,195,90171,1,0,0:0:0:0:
58,187,90379,1,0,0:0:0:0:
257,192,90795,5,0,0:0:0:0:
390,39,91003,1,0,0:0:0:0:
468,194,91211,1,0,0:0:0:0:
264,324,91627,1,0,0:0:0:0:
43,172,91835,1,0,0:0:0:0:
270,35,92042,1,0,0:0:0:0:
256,191,92458,5,0,0:0:0:0:
352,40,92666,1,0,0:0:0:0:
460,195,92874,1,0,0:0:0:0:
265,324,93082,5,0,0:0:0:0:
256,191,93290,1,0,0:0:0:0:
260,66,93498,1,0,0:0:0:0:
416,68,93706,1,0,0:0:0:0:
261,188,93914,5,0,0:0:0:0:
64,183,94121,1,0,0:0:0:0:
66,39,94329,1,0,0:0:0:0:
258,25,94537,1,0,0:0:0:0:
260,195,94745,5,0,0:0:0:0:
475,196,94953,1,0,0:0:0:0:
464,32,95161,1,0,0:0:0:0:
262,31,95369,1,0,0:0:0:0:
260,195,95785,5,0,0:0:0:0:
54,187,96200,1,0,0:0:0:0:
167,33,96616,1,0,0:0:0:0:
172,187,96824,5,0,0:0:0:0:
167,303,97032,1,0,0:0:0:0:
270,189,97240,1,0,0:0:0:0:
460,193,97448,5,0,0:0:0:0:
382,29,97656,1,0,0:0:0:0:
253,188,97864,1,0,0:0:0:0:
251,29,98072,5,0,0:0:0:0:
40,186,98279,1,0,0:0:0:0:
256,332,98487,1,0,0:0:0:0:
259,187,98695,5,0,0:0:0:0:
441,183,98903,1,0,0:0:0:0:
357,38,99111,1,0,0:0:0:0:
262,180,99527,1,0,0:0:0:0:
86,180,99735,1,0,0:0:0:0:
172,51,99943,1,0,0:0:0:0:
253,193,100358,5,0,0:0:0:0:
431,40,101190,1,0,0:0:0:0:
431,189,101398,1,0,0:0:0:0:
433,325,101606,1,0,0:0:0:0:
258,196,101814,1,0,0:0:0:0:
63,333,102022,1,0,0:0:0:0:
142,214,102437,5,0,0:0:0:0:
256,84,102645,1,0,0:0:0:0:
362,196,102853,1,0,0:0:0:0:
252,323,103061,5,0,0:0:0:0:
121,267,103269,1,0,0:0:0:0:
58,175,103477,1,0,0:0:0:0:
85,101,103685,5,0,0:0:0:0:
155,60,103893,1,0,0:0:0:0:
221,43,104101,1,0,0:0:0:0:
339,46,104309,1,0,0:0:0:0:
399,169,104516,1,0,0:0:0:0:
269,285,104932,5,0,0:0:0:0:
265,149,105140,1,0,0:0:0:0:
274,43,105348,1,0,0:0:0:0:
371,144,105556,1,0,0:0:0:0:
134,158,105764,1,0,0:0:0:0:
121,308,105972,1,0,0:0:0:0:
253,189,106388,5,0,0:0:0:0:
254,77,106595,1,0,0:0:0:0:
355,132,106803,1,0,0:0:0:0:
153,138,107011,1,0,0:0:0:0:
257,299,107427,5,0,0:0:0:0:
378,302,107635,1,0,0:0:0:0:
144,297,107843,1,0,0:0:0:0:
259,38,108051,5,0,0:0:0:0:
151,46,108259,1,0,0:0:0:0:
377,46,108467,1,0,0:0:0:0:
259,188,108674,5,0,0:0:0:0:
142,190,108882,1,0,0:0:0:0:
369,189,109090,1,0,0:0:0:0:
261,342,109298,1,0,0:0:0:0:
47,46,109506,1,0,0:0:0:0:
459,41,109714,1,0,0:0:0:0:
254,46,109922,5,0,0:0:0:0:
63,332,110130,1,0,0:0:0:0:
452,344,110338,1,0,0:0:0:0:
256,334,110546,5,0,0:0:0:0:
254,192,110753,1,0,0:0:0:0:
254,35,110961,1,0,0:0:0:0:
52,187,111169,1,0,0:0:0:0:
468,198,111377,1,0,0:0:0:0:
254,192,111585,5,0,0:0:0:0:
249,29,111793,1,0,0:0:0:0:
253,331,112001,1,0,0:0:0:0:
475,280,112209,1,0,0:0:0:0:
475,189,112417,1,0,0:0:0:0:
369,188,112625,1,0,0:0:0:0:
253,189,112832,1,0,0:0:0:0:
154,190,113040,1,0,0:0:0:0:
36,192,113248,1,0,0:0:0:0:
146,70,113456,1,0,0:0:0:0:
87,121,113664,1,0,0:0:0:0:
97,329,113872,5,0,0:0:0:0:
185,48,114184,1,0,0:0:0:0:
252,329,114392,1,0,0:0:0:0:
333,333,114600,1,0,0:0:0:0:
435,330,115015,5,0,0:0:0:0:
371,50,115223,1,0,0:0:0:0:
297,50,115431,1,0,0:0:0:0:
213,48,115639,1,0,0:0:0:0:
138,47,115847,1,0,0:0:0:0:
66,52,116055,1,0,0:0:0:0:
70,131,116263,1,0,0:0:0:0:
128,194,116471,1,0,0:0:0:0:
91,318,116679,5,0,0:0:0:0:
163,42,116886,1,0,0:0:0:0:
240,326,117094,1,0,0:0:0:0:
319,328,117510,5,0,0:0:0:0:
397,40,117718,1,0,0:0:0:0:
468,335,117926,1,0,0:0:0:0:
44,193,118342,5,0,0:0:0:0:
91,132,118550,1,0,0:0:0:0:
149,81,118758,1,0,0:0:0:0:
217,49,118965,1,0,0:0:0:0:
286,45,119173,1,0,0:0:0:0:
355,66,119381,1,0,0:0:0:0:
416,117,119589,1,0,0:0:0:0:
457,183,119797,1,0,0:0:0:0:
66,311,120005,5,0,0:0:0:0:
143,41,120213,1,0,0:0:0:0:
191,313,120421,1,0,0:0:0:0:
300,28,120837,5,0,0:0:0:0:
386,328,121044,1,0,0:0:0:0:
461,43,121252,1,0,0:0:0:0:
69,227,121668,5,0,0:0:0:0:
109,294,121876,1,0,0:0:0:0:
157,344,122084,1,0,0:0:0:0:
231,351,122292,1,0,0:0:0:0:
305,351,122500,1,0,0:0:0:0:
369,305,122708,1,0,0:0:0:0:
412,246,122916,1,0,0:0:0:0:
448,185,123123,1,0,0:0:0:0:
258,190,123331,5,0,0:0:0:0:
258,28,123539,1,0,0:0:0:0:
257,104,123747,1,0,0:0:0:0:
258,251,124163,5,0,0:0:0:0:
257,339,124371,1,0,0:0:0:0:
256,174,124579,1,0,0:0:0:0:
56,176,124995,5,0,0:0:0:0:
101,107,125202,1,0,0:0:0:0:
166,64,125410,1,0,0:0:0:0:
234,53,125618,1,0,0:0:0:0:
322,64,125826,1,0,0:0:0:0:
384,110,126034,1,0,0:0:0:0:
436,173,126242,1,0,0:0:0:0:
454,257,126450,1,0,0:0:0:0:
85,184,126658,5,0,0:0:0:0:
247,37,126866,1,0,0:0:0:0:
321,55,126970,1,0,0:0:0:0:
258,193,127074,6,0,L|182:275,1,105
32,176,127593,1,0,0:0:0:0:
254,29,127801,1,0,0:0:0:0:
452,198,128009,1,0,0:0:0:0:
256,341,128321,5,0,0:0:0:0:
253,188,128529,1,0,0:0:0:0:
255,261,128737,1,0,0:0:0:0:
253,112,128945,1,0,0:0:0:0:
119,107,129153,1,0,0:0:0:0:
117,263,129360,1,0,0:0:0:0:
120,182,129568,1,0,0:0:0:0:
120,343,129776,1,0,0:0:0:0:
251,32,129984,5,0,0:0:0:0:
252,188,130192,1,0,0:0:0:0:
256,330,130400,1,0,0:0:0:0:
82,186,130816,5,0,0:0:0:0:
156,116,131024,1,0,0:0:0:0:
252,96,131232,1,0,0:0:0:0:
60,312,131647,5,0,0:0:0:0:
128,44,131855,1,0,0:0:0:0:
167,262,132063,1,0,0:0:0:0:
229,101,132271,1,0,0:0:0:0:
279,244,132479,1,0,0:0:0:0:
322,147,132687,1,0,0:0:0:0:
392,236,132895,1,0,0:0:0:0:
434,151,133103,1,0,0:0:0:0:
254,191,133311,5,0,0:0:0:0:
37,194,133519,1,0,0:0:0:0:
475,193,133726,1,0,0:0:0:0:
254,191,134142,5,0,0:0:0:0:
252,23,134350,1,0,0:0:0:0:
255,335,134558,1,0,0:0:0:0:
40,345,134974,5,0,0:0:0:0:
41,38,135182,1,0,0:0:0:0:
469,38,135390,1,0,0:0:0:0:
457,340,135598,1,0,0:0:0:0:
109,285,135805,1,0,0:0:0:0:
109,83,136013,1,0,0:0:0:0:
420,81,136221,1,0,0:0:0:0:
414,278,136429,1,0,0:0:0:0:
253,190,136637,5,0,0:0:0:0:
253,106,136845,1,0,0:0:0:0:
252,33,137053,1,0,0:0:0:0:
64,194,137469,5,0,0:0:0:0:
469,201,137677,1,0,0:0:0:0:
254,190,137884,1,0,0:0:0:0:
36,191,138300,5,0,0:0:0:0:
93,139,138508,1,0,0:0:0:0:
152,203,138716,1,0,0:0:0:0:
200,141,138924,1,0,0:0:0:0:
248,204,139132,1,0,0:0:0:0:
301,138,139444,1,0,0:0:0:0:
366,210,139652,1,0,0:0:0:0:
414,140,139859,1,0,0:0:0:0:
247,37,140275,1,0,0:0:0:0:
321,55,140379,1,0,0:0:0:0:
258,193,140483,6,0,L|182:275,1,105
32,176,141002,1,0,0:0:0:0:
254,29,141210,1,0,0:0:0:0:
452,198,141418,1,0,0:0:0:0:
256,341,141730,5,0,0:0:0:0:
253,188,141938,1,0,0:0:0:0:
255,261,142146,1,0,0:0:0:0:
253,112,142354,1,0,0:0:0:0:
119,107,142562,1,0,0:0:0:0:
117,263,142769,1,0,0:0:0:0:
120,182,142977,1,0,0:0:0:0:
120,343,143185,1,0,0:0:0:0:
251,32,143393,5,0,0:0:0:0:
252,188,143601,1,0,0:0:0:0:
256,330,143809,1,0,0:0:0:0:
82,186,144225,5,0,0:0:0:0:
156,116,144433,1,0,0:0:0:0:
252,96,144641,1,0,0:0:0:0:
60,312,145056,5,0,0:0:0:0:
128,44,145264,1,0,0:0:0:0:
167,262,145472,1,0,0:0:0:0:
229,101,145680,1,0,0:0:0:0:
279,244,145888,1,0,0:0:0:0:
322,147,146096,1,0,0:0:0:0:
392,236,146304,1,0,0:0:0:0:
434,151,146512,1,0,0:0:0:0:
254,191,146720,5,0,0:0:0:0:
37,194,146928,1,0,0:0:0:0:
475,193,147135,1,0,0:0:0:0:
254,191,147551,5,0,0:0:0:0:
252,23,147759,1,0,0:0:0:0:
255,335,147967,1,0,0:0:0:0:
40,345,148383,5,0,0:0:0:0:
41,38,148591,1,0,0:0:0:0:
469,38,148799,1,0,0:0:0:0:
457,340,149007,1,0,0:0:0:0:
109,285,149214,1,0,0:0:0:0:
109,83,149422,1,0,0:0:0:0:
420,81,149630,1,0,0:0:0:0:
414,278,149838,1,0,0:0:0:0:
253,190,150046,5,0,0:0:0:0:
253,106,150254,1,0,0:0:0:0:
252,33,150462,1,0,0:0:0:0:
64,194,150878,5,0,0:0:0:0:
469,201,151086,1,0,0:0:0:0:
254,190,151293,1,0,0:0:0:0:
36,191,151709,5,0,0:0:0:0:
93,139,151917,1,0,0:0:0:0:
152,203,152125,1,0,0:0:0:0:
200,141,152333,1,0,0:0:0:0:
248,204,152541,1,0,0:0:0:0:
306,134,152749,1,0,0:0:0:0:
370,209,152957,1,0,0:0:0:0:
413,136,153165,1,0,0:0:0:0:
247,37,153581,1,0,0:0:0:0:
321,55,153685,1,0,0:0:0:0:
258,193,153789,6,0,L|182:275,1,105
32,176,154308,1,0,0:0:0:0:
254,29,154516,1,0,0:0:0:0:
452,198,154724,1,0,0:0:0:0:
256,341,155036,5,0,0:0:0:0:
253,188,155244,1,0,0:0:0:0:
255,261,155452,1,0,0:0:0:0:
253,112,155660,1,0,0:0:0:0:
119,107,155868,1,0,0:0:0:0:
117,263,156075,1,0,0:0:0:0:
120,182,156283,1,0,0:0:0:0:
120,343,156491,1,0,0:0:0:0:
251,32,156699,5,0,0:0:0:0:
252,188,156907,1,0,0:0:0:0:
256,330,157115,1,0,0:0:0:0:
82,186,157531,5,0,0:0:0:0:
156,116,157739,1,0,0:0:0:0:
252,96,157947,1,0,0:0:0:0:
60,312,158362,5,0,0:0:0:0:
128,44,158570,1,0,0:0:0:0:
167,262,158778,1,0,0:0:0:0:
229,101,158986,1,0,0:0:0:0:
279,244,159194,1,0,0:0:0:0:
322,147,159402,1,0,0:0:0:0:
392,236,159610,1,0,0:0:0:0:
434,151,159818,1,0,0:0:0:0:
254,191,160026,5,0,0:0:0:0:
37,194,160234,1,0,0:0:0:0:
475,193,160441,1,0,0:0:0:0:
254,191,160857,5,0,0:0:0:0:
252,23,161065,1,0,0:0:0:0:
255,335,161273,1,0,0:0:0:0:
40,345,161689,5,0,0:0:0:0:
41,38,161897,1,0,0:0:0:0:
469,38,162105,1,0,0:0:0:0:
457,340,162313,1,0,0:0:0:0:
109,285,162520,1,0,0:0:0:0:
109,83,162728,1,0,0:0:0:0:
420,81,162936,1,0,0:0:0:0:
414,278,163144,1,0,0:0:0:0:
253,190,163352,5,0,0:0:0:0:
253,106,163560,1,0,0:0:0:0:
252,33,163768,1,0,0:0:0:0:
64,194,164184,5,0,0:0:0:0:
469,201,164392,1,0,0:0:0:0:
254,190,164599,1,0,0:0:0:0:
36,191,165015,5,0,0:0:0:0:
93,139,165223,1,0,0:0:0:0:
152,203,165431,1,0,0:0:0:0:
200,141,165639,1,0,0:0:0:0:
248,204,165847,1,0,0:0:0:0:
306,134,166055,1,0,0:0:0:0:
370,209,166263,1,0,0:0:0:0:
413,136,166471,1,0,0:0:0:0:
258,193,166679,1,0,0:0:0:0:
260,67,166886,1,0,0:0:0:0:
37,349,167094,5,0,0:0:0:0:
36,220,167510,1,0,0:0:0:0:
220,216,167926,1,0,0:0:0:0:
218,351,168342,1,0,0:0:0:0:
298,346,168758,5,0,0:0:0:0:
481,347,169173,1,0,0:0:0:0:
478,232,169589,1,0,0:0:0:0:
292,227,170005,1,0,0:0:0:0:
292,151,170421,5,0,0:0:0:0:
466,148,170837,1,0,0:0:0:0:
469,38,171252,1,0,0:0:0:0:
293,31,171668,1,0,0:0:0:0:
217,152,172084,5,0,0:0:0:0:
214,38,172500,1,0,0:0:0:0:
49,37,172916,1,0,0:0:0:0:
51,153,173331,1,0,0:0:0:0:
256,346,173747,5,0,0:0:0:0:
486,192,174163,1,0,0:0:0:0:
256,34,174579,1,0,0:0:0:0:
39,192,174995,1,0,0:0:0:0:
114,301,175410,5,0,0:0:0:0:
405,302,175826,1,0,0:0:0:0:
398,72,176242,1,0,0:0:0:0:
108,71,176658,1,0,0:0:0:0:
139,307,177074,5,0,0:0:0:0:
394,70,177489,1,0,0:0:0:0:
152,67,177905,1,0,0:0:0:0:
390,288,178321,1,0,0:0:0:0:
40,189,178737,5,0,0:0:0:0:
480,190,179153,1,0,0:0:0:0:
256,33,179568,1,0,0:0:0:0:
257,337,179984,1,0,0:0:0:0:
250,194,180400,5,0,0:0:0:0:
45,193,180816,5,0,0:0:0:0:
139,39,181024,1,0,0:0:0:0:
145,335,181232,1,0,0:0:0:0:
219,187,181647,1,0,0:0:0:0:
117,189,182063,5,0,0:0:0:0:
297,192,182479,5,0,0:0:0:0:
390,35,182687,1,0,0:0:0:0:
400,319,182895,1,0,0:0:0:0:
473,189,183311,1,0,0:0:0:0:
389,192,183726,5,0,0:0:0:0:
258,348,184038,5,0,0:0:0:0:
257,271,184246,1,0,0:0:0:0:
257,128,184454,1,0,0:0:0:0:
253,48,184662,1,0,0:0:0:0:
480,197,184974,5,0,0:0:0:0:
37,194,185390,1,0,0:0:0:0:
57,336,185701,5,0,0:0:0:0:
480,34,185909,1,0,0:0:0:0:
119,283,186117,1,0,0:0:0:0:
420,84,186325,1,0,0:0:0:0:
42,35,186637,5,0,0:0:0:0:
470,341,187053,1,0,0:0:0:0:
36,167,187365,5,0,0:0:0:0:
86,98,187573,1,0,0:0:0:0:
157,49,187780,1,0,0:0:0:0:
249,40,187988,1,0,0:0:0:0:
256,191,188300,5,0,0:0:0:0:
254,342,188716,1,0,0:0:0:0:
475,209,189028,5,0,0:0:0:0:
447,280,189236,1,0,0:0:0:0:
397,335,189444,1,0,0:0:0:0:
317,350,189652,1,0,0:0:0:0:
256,192,189963,5,0,0:0:0:0:
253,29,190379,1,0,0:0:0:0:
29,215,190691,5,0,0:0:0:0:
54,291,190899,1,0,0:0:0:0:
108,343,191107,1,0,0:0:0:0:
193,343,191315,1,0,0:0:0:0:
253,192,191627,5,0,0:0:0:0:
255,103,191835,1,0,0:0:0:0:
255,21,192042,1,0,0:0:0:0:
321,29,192354,5,0,0:0:0:0:
395,59,192562,1,0,0:0:0:0:
448,108,192770,1,0,0:0:0:0:
474,181,192978,1,0,0:0:0:0:
254,191,193290,5,0,0:0:0:0:
254,343,193706,1,0,0:0:0:0:
45,193,194121,5,0,0:0:0:0:
139,39,194329,1,0,0:0:0:0:
145,335,194537,1,0,0:0:0:0:
219,187,194952,1,0,0:0:0:0:
117,189,195368,5,0,0:0:0:0:
297,192,195784,5,0,0:0:0:0:
390,35,195992,1,0,0:0:0:0:
400,319,196200,1,0,0:0:0:0:
473,189,196616,1,0,0:0:0:0:
389,192,197031,5,0,0:0:0:0:
258,348,197343,5,0,0:0:0:0:
257,271,197551,1,0,0:0:0:0:
257,128,197759,1,0,0:0:0:0:
253,48,197967,1,0,0:0:0:0:
480,197,198279,5,0,0:0:0:0:
37,194,198695,1,0,0:0:0:0:
57,336,199006,5,0,0:0:0:0:
480,34,199214,1,0,0:0:0:0:
119,283,199422,1,0,0:0:0:0:
420,84,199630,1,0,0:0:0:0:
42,35,199942,5,0,0:0:0:0:
470,341,200358,1,0,0:0:0:0:
36,167,200670,5,0,0:0:0:0:
86,98,200878,1,0,0:0:0:0:
157,49,201085,1,0,0:0:0:0:
249,40,201293,1,0,0:0:0:0:
256,191,201605,5,0,0:0:0:0:
254,342,202021,1,0,0:0:0:0:
475,209,202333,5,0,0:0:0:0:
447,280,202541,1,0,0:0:0:0:
397,335,202749,1,0,0:0:0:0:
317,350,202957,1,0,0:0:0:0:
256,192,203268,5,0,0:0:0:0:
253,29,203684,1,0,0:0:0:0:
29,215,203996,5,0,0:0:0:0:
54,291,204204,1,0,0:0:0:0:
108,343,204412,1,0,0:0:0:0:
193,343,204620,1,0,0:0:0:0:
253,192,204932,5,0,0:0:0:0:
255,103,205140,1,0,0:0:0:0:
255,21,205347,1,0,0:0:0:0:
321,29,205659,5,0,0:0:0:0:
395,59,205867,1,0,0:0:0:0:
448,108,206075,1,0,0:0:0:0:
474,181,206283,1,0,0:0:0:0:
254,191,206595,5,0,0:0:0:0:
254,343,207011,1,0,0:0:0:0:
45,193,207427,5,0,0:0:0:0:
139,39,207635,1,0,0:0:0:0:
145,335,207843,1,0,0:0:0:0:
219,187,208258,1,0,0:0:0:0:
117,189,208674,5,0,0:0:0:0:
297,192,209090,5,0,0:0:0:0:
390,35,209298,1,0,0:0:0:0:
400,319,209506,1,0,0:0:0:0:
473,189,209922,1,0,0:0:0:0:
389,192,210337,5,0,0:0:0:0:
258,348,210649,5,0,0:0:0:0:
257,271,210857,1,0,0:0:0:0:
257,128,211065,1,0,0:0:0:0:
253,48,211273,1,0,0:0:0:0:
480,197,211585,5,0,0:0:0:0:
37,194,212001,1,0,0:0:0:0:
57,336,212312,5,0,0:0:0:0:
480,34,212520,1,0,0:0:0:0:
119,283,212728,1,0,0:0:0:0:
420,84,212936,1,0,0:0:0:0:
42,35,213248,5,0,0:0:0:0:
470,341,213664,1,0,0:0:0:0:
36,167,213976,5,0,0:0:0:0:
86,98,214184,1,0,0:0:0:0:
157,49,214391,1,0,0:0:0:0:
249,40,214599,1,0,0:0:0:0:
256,191,214911,5,0,0:0:0:0:
254,342,215327,1,0,0:0:0:0:
475,209,215639,5,0,0:0:0:0:
447,280,215847,1,0,0:0:0:0:
397,335,216055,1,0,0:0:0:0:
317,350,216263,1,0,0:0:0:0:
256,192,216574,5,0,0:0:0:0:
253,29,216990,1,0,0:0:0:0:
29,215,217302,5,0,0:0:0:0:
54,291,217510,1,0,0:0:0:0:
108,343,217718,1,0,0:0:0:0:
193,343,217926,1,0,0:0:0:0:
253,192,218238,5,0,0:0:0:0:
255,103,218446,1,0,0:0:0:0:
255,21,218653,1,0,0:0:0:0:
321,29,218965,5,0,0:0:0:0:
395,59,219173,1,0,0:0:0:0:
448,108,219381,1,0,0:0:0:0:
474,181,219589,1,0,0:0:0:0:
254,191,219901,5,0,0:0:0:0:
254,343,220317,1,0,0:0:0:0:
45,193,220733,5,0,0:0:0:0:
139,39,220941,1,0,0:0:0:0:
145,335,221149,1,0,0:0:0:0:
219,187,221564,1,0,0:0:0:0:
117,189,221980,5,0,0:0:0:0:
297,192,222396,5,0,0:0:0:0:
390,35,222604,1,0,0:0:0:0:
400,319,222812,1,0,0:0:0:0:
473,189,223228,1,0,0:0:0:0:
389,192,223643,5,0,0:0:0:0:
258,348,223955,5,0,0:0:0:0:
257,271,224163,1,0,0:0:0:0:
257,128,224371,1,0,0:0:0:0:
253,48,224579,1,0,0:0:0:0:
480,197,224891,5,0,0:0:0:0:
37,194,225307,1,0,0:0:0:0:
57,336,225618,5,0,0:0:0:0:
480,34,225826,1,0,0:0:0:0:
119,283,226034,1,0,0:0:0:0:
420,84,226242,1,0,0:0:0:0:
42,35,226554,5,0,0:0:0:0:
470,341,226970,1,0,0:0:0:0:
36,167,227282,5,0,0:0:0:0:
86,98,227490,1,0,0:0:0:0:
157,49,227697,1,0,0:0:0:0:
249,40,227905,1,0,0:0:0:0:
256,191,228217,5,0,0:0:0:0:
254,342,228633,1,0,0:0:0:0:
475,209,228945,5,0,0:0:0:0:
447,280,229153,1,0,0:0:0:0:
397,335,229361,1,0,0:0:0:0:
317,350,229569,1,0,0:0:0:0:
256,192,229880,5,0,0:0:0:0:
253,29,230296,1,0,0:0:0:0:
29,215,230608,5,0,0:0:0:0:
54,291,230816,1,0,0:0:0:0:
108,343,231024,1,0,0:0:0:0:
193,343,231232,1,0,0:0:0:0:
253,192,231544,5,0,0:0:0:0:
255,103,231752,1,0,0:0:0:0:
255,21,231959,1,0,0:0:0:0:
321,29,232271,5,0,0:0:0:0:
395,59,232479,1,0,0:0:0:0:
448,108,232687,1,0,0:0:0:0:
474,181,232895,1,0,0:0:0:0:
254,191,233207,5,0,0:0:0:0:
254,343,233623,1,0,0:0:0:0:
45,193,234039,5,0,0:0:0:0:
139,39,234247,1,0,0:0:0:0:
145,335,234455,1,0,0:0:0:0:
219,187,234870,1,0,0:0:0:0:
117,189,235286,5,0,0:0:0:0:
297,192,235702,5,0,0:0:0:0:
390,35,235910,1,0,0:0:0:0:
400,319,236118,1,0,0:0:0:0:
473,189,236534,1,0,0:0:0:0:
389,192,236949,5,0,0:0:0:0:
258,348,237261,5,0,0:0:0:0:
257,271,237469,1,0,0:0:0:0:
257,128,237677,1,0,0:0:0:0:
253,48,237885,1,0,0:0:0:0:
480,197,238197,5,0,0:0:0:0:
37,194,238613,1,0,0:0:0:0:
57,336,238924,5,0,0:0:0:0:
480,34,239132,1,0,0:0:0:0:
119,283,239340,1,0,0:0:0:0:
420,84,239548,1,0,0:0:0:0:
42,35,239860,5,0,0:0:0:0:
470,341,240276,1,0,0:0:0:0:
36,167,240588,5,0,0:0:0:0:
86,98,240796,1,0,0:0:0:0:
157,49,241003,1,0,0:0:0:0:
249,40,241211,1,0,0:0:0:0:
256,191,241523,5,0,0:0:0:0:
254,342,241939,1,0,0:0:0:0:
475,209,242251,5,0,0:0:0:0:
447,280,242459,1,0,0:0:0:0:
397,335,242667,1,0,0:0:0:0:
317,350,242875,1,0,0:0:0:0:
256,192,243186,5,0,0:0:0:0:
253,29,243602,1,0,0:0:0:0:
29,215,243914,5,0,0:0:0:0:
54,291,244122,1,0,0:0:0:0:
108,343,244330,1,0,0:0:0:0:
193,343,244538,1,0,0:0:0:0:
253,192,244850,5,0,0:0:0:0:
255,103,245058,1,0,0:0:0:0:
255,21,245265,1,0,0:0:0:0:
321,29,245577,5,0,0:0:0:0:
395,59,245785,1,0,0:0:0:0:
448,108,245993,1,0,0:0:0:0:
474,181,246201,1,0,0:0:0:0:
254,191,246513,5,0,0:0:0:0:
254,343,246929,1,0,0:0:0:0:
45,193,247344,5,0,0:0:0:0:
139,39,247552,1,0,0:0:0:0:
145,335,247760,1,0,0:0:0:0:
219,187,248175,1,0,0:0:0:0:
117,189,248591,5,0,0:0:0:0:
297,192,249007,5,0,0:0:0:0:
390,35,249215,1,0,0:0:0:0:
400,319,249423,1,0,0:0:0:0:
473,189,249839,1,0,0:0:0:0:
389,192,250254,5,0,0:0:0:0:
258,348,250566,5,0,0:0:0:0:
257,271,250774,1,0,0:0:0:0:
257,128,250982,1,0,0:0:0:0:
253,48,251190,1,0,0:0:0:0:
480,197,251502,5,0,0:0:0:0:
37,194,251918,1,0,0:0:0:0:
57,336,252229,5,0,0:0:0:0:
480,34,252437,1,0,0:0:0:0:
119,283,252645,1,0,0:0:0:0:
420,84,252853,1,0,0:0:0:0:
42,35,253165,5,0,0:0:0:0:
470,341,253581,1,0,0:0:0:0:
36,167,253893,5,0,0:0:0:0:
86,98,254101,1,0,0:0:0:0:
157,49,254308,1,0,0:0:0:0:
249,40,254516,1,0,0:0:0:0:
256,191,254828,5,0,0:0:0:0:
254,342,255244,1,0,0:0:0:0:
475,209,255556,5,0,0:0:0:0:
447,280,255764,1,0,0:0:0:0:
397,335,255972,1,0,0:0:0:0:
317,350,256180,1,0,0:0:0:0:
256,192,256491,5,0,0:0:0:0:
253,29,256907,1,0,0:0:0:0:
29,215,257219,5,0,0:0:0:0:
54,291,257427,1,0,0:0:0:0:
108,343,257635,1,0,0:0:0:0:
193,343,257843,1,0,0:0:0:0:
253,192,258155,5,0,0:0:0:0:
255,103,258363,1,0,0:0:0:0:
255,21,258570,1,0,0:0:0:0:
321,29,258882,5,0,0:0:0:0:
395,59,259090,1,0,0:0:0:0:
448,108,259298,1,0,0:0:0:0:
474,181,259506,1,0,0:0:0:0:
254,191,259818,5,0,0:0:0:0:
254,343,260234,1,0,0:0:0:0:
45,193,260650,5,0,0:0:0:0:
139,39,260858,1,0,0:0:0:0:
145,335,261066,1,0,0:0:0:0:
219,187,261481,1,0,0:0:0:0:
117,189,261897,5,0,0:0:0:0:
297,192,262313,5,0,0:0:0:0:
390,35,262521,1,0,0:0:0:0:
400,319,262729,1,0,0:0:0:0:
473,189,263145,1,0,0:0:0:0:
389,192,263560,5,0,0:0:0:0:
258,348,263872,5,0,0:0:0:0:
257,271,264080,1,0,0:0:0:0:
257,128,264288,1,0,0:0:0:0:
253,48,264496,1,0,0:0:0:0:
480,197,264808,5,0,0:0:0:0:
37,194,265224,1,0,0:0:0:0:
57,336,265535,5,0,0:0:0:0:
480,34,265743,1,0,0:0:0:0:
119,283,265951,1,0,0:0:0:0:
420,84,266159,1,0,0:0:0:0:
42,35,266471,5,0,0:0:0:0:
470,341,266887,1,0,0:0:0:0:
36,167,267199,5,0,0:0:0:0:
86,98,267407,1,0,0:0:0:0:
157,49,267614,1,0,0:0:0:0:
249,40,267822,1,0,0:0:0:0:
256,191,268134,5,0,0:0:0:0:
254,342,268550,1,0,0:0:0:0:
475,209,268862,5,0,0:0:0:0:
447,280,269070,1,0,0:0:0:0:
397,335,269278,1,0,0:0:0:0:
317,350,269486,1,0,0:0:0:0:
256,192,269797,5,0,0:0:0:0:
253,29,270213,1,0,0:0:0:0:
29,215,270525,5,0,0:0:0:0:
54,291,270733,1,0,0:0:0:0:
108,343,270941,1,0,0:0:0:0:
193,343,271149,1,0,0:0:0:0:
253,192,271461,5,0,0:0:0:0:
255,103,271669,1,0,0:0:0:0:
255,21,271876,1,0,0:0:0:0:
321,29,272188,5,0,0:0:0:0:
395,59,272396,1,0,0:0:0:0:
448,108,272604,1,0,0:0:0:0:
474,181,272812,1,0,0:0:0:0:
254,191,273124,5,0,0:0:0:0:
254,343,273540,1,0,0:0:0:0:
45,193,273955,5,0,0:0:0:0:
139,39,274163,1,0,0:0:0:0:
145,335,274371,1,0,0:0:0:0:
219,187,274786,1,0,0:0:0:0:
117,189,275202,5,0,0:0:0:0:
297,192,275618,5,0,0:0:0:0:
390,35,275826,1,0,0:0:0:0:
400,319,276034,1,0,0:0:0:0:
473,189,276450,1,0,0:0:0:0:
389,192,276865,5,0,0:0:0:0:
258,348,277177,5,0,0:0:0:0:
257,271,277385,1,0,0:0:0:0:
257,128,277593,1,0,0:0:0:0:
253,48,277801,1,0,0:0:0:0:
480,197,278113,5,0,0:0:0:0:
37,194,278529,1,0,0:0:0:0:
57,336,278840,5,0,0:0:0:0:
480,34,279048,1,0,0:0:0:0:
119,283,279256,1,0,0:0:0:0:
420,84,279464,1,0,0:0:0:0:
42,35,279776,5,0,0:0:0:0:
470,341,280192,1,0,0:0:0:0:
36,167,280504,5,0,0:0:0:0:
86,98,280712,1,0,0:0:0:0:
157,49,280919,1,0,0:0:0:0:
249,40,281127,1,0,0:0:0:0:
256,191,281439,5,0,0:0:0:0:
254,342,281855,1,0,0:0:0:0:
475,209,282167,5,0,0:0:0:0:
447,280,282375,1,0,0:0:0:0:
397,335,282583,1,0,0:0:0:0:
317,350,282791,1,0,0:0:0:0:
256,192,283102,5,0,0:0:0:0:
253,29,283518,1,0,0:0:0:0:
29,215,283830,5,0,0:0:0:0:
54,291,284038,1,0,0:0:0:0:
108,343,284246,1,0,0:0:0:0:
193,343,284454,1,0,0:0:0:0:
253,192,284766,5,0,0:0:0:0:
255,103,284974,1,0,0:0:0:0:
255,21,285181,1,0,0:0:0:0:
321,29,285493,5,0,0:0:0:0:
395,59,285701,1,0,0:0:0:0:
448,108,285909,1,0,0:0:0:0:
474,181,286117,1,0,0:0:0:0:
254,191,286429,5,0,0:0:0:0:
254,343,286845,1,0,0:0:0:0:
35,253,287157,5,0,0:0:0:0:
54,217,287261,1,0,0:0:0:0:
68,178,287365,1,0,0:0:0:0:
86,141,287469,1,0,0:0:0:0:
113,115,287573,1,0,0:0:0:0:
145,88,287677,1,0,0:0:0:0:
177,69,287780,1,0,0:0:0:0:
211,49,287884,1,0,0:0:0:0:
247,37,287988,1,0,0:0:0:0:
282,35,288092,1,0,0:0:0:0:
318,39,288196,1,0,0:0:0:0:
352,49,288300,1,0,0:0:0:0:
384,70,288404,1,0,0:0:0:0:
414,91,288508,1,0,0:0:0:0:
439,115,288612,1,0,0:0:0:0:
462,144,288716,1,0,0:0:0:0:
466,224,288820,5,0,0:0:0:0:
441,254,288924,1,0,0:0:0:0:
416,280,289028,1,0,0:0:0:0:
389,303,289132,1,0,0:0:0:0:
359,329,289236,1,0,0:0:0:0:
321,347,289340,1,0,0:0:0:0:
282,352,289444,1,0,0:0:0:0:
242,352,289548,1,0,0:0:0:0:
201,342,289652,1,0,0:0:0:0:
161,325,289756,1,0,0:0:0:0:
127,303,289859,1,0,0:0:0:0:
101,271,289963,1,0,0:0:0:0:
82,236,290067,1,0,0:0:0:0:
67,195,290171,1,0,0:0:0:0:
59,154,290275,1,0,0:0:0:0:
55,114,290379,1,0,0:0:0:0:
97,37,290483,5,0,0:0:0:0:
106,77,290587,1,0,0:0:0:0:
115,114,290691,1,0,0:0:0:0:
126,152,290795,1,0,0:0:0:0:
137,192,290899,1,0,0:0:0:0:
146,228,291003,1,0,0:0:0:0:
159,266,291107,1,0,0:0:0:0:
174,306,291211,1,0,0:0:0:0:
203,272,291315,1,0,0:0:0:0:
225,241,291419,1,0,0:0:0:0:
245,209,291523,1,0,0:0:0:0:
265,176,291627,1,0,0:0:0:0:
283,142,291731,1,0,0:0:0:0:
298,104,291835,1,0,0:0:0:0:
315,66,291938,1,0,0:0:0:0:
332,31,292042,1,0,0:0:0:0:
471,41,292146,5,0,0:0:0:0:
437,59,292250,1,0,0:0:0:0:
407,80,292354,1,0,0:0:0:0:
376,100,292458,1,0,0:0:0:0:
345,119,292562,1,0,0:0:0:0:
312,140,292666,1,0,0:0:0:0:
277,163,292770,1,0,0:0:0:0:
242,184,292874,1,0,0:0:0:0:
265,215,292978,1,0,0:0:0:0:
294,243,293082,1,0,0:0:0:0:
319,271,293186,1,0,0:0:0:0:
343,301,293290,1,0,0:0:0:0:
375,334,293394,1,0,0:0:0:0:
408,352,293498,1,0,0:0:0:0:
446,353,293602,1,0,0:0:0:0:
468,313,293706,1,0,0:0:0:0:
480,240,293810,5,0,0:0:0:0:
442,221,293914,1,0,0:0:0:0:
407,198,294017,1,0,0:0:0:0:
368,175,294121,1,0,0:0:0:0:
333,154,294225,1,0,0:0:0:0:
299,131,294329,1,0,0:0:0:0:
264,110,294433,1,0,0:0:0:0:
228,89,294537,1,0,0:0:0:0:
191,73,294641,1,0,0:0:0:0:
150,76,294745,1,0,0:0:0:0:
118,92,294849,1,0,0:0:0:0:
87,121,294953,1,0,0:0:0:0:
74,162,295057,1,0,0:0:0:0:
71,204,295161,1,0,0:0:0:0:
71,250,295265,1,0,0:0:0:0:
76,292,295369,1,0,0:0:0:0:
96,350,295473,5,0,0:0:0:0:
127,329,295577,1,0,0:0:0:0:
156,306,295681,1,0,0:0:0:0:
187,284,295785,1,0,0:0:0:0:
218,260,295889,1,0,0:0:0:0:
245,234,295993,1,0,0:0:0:0:
271,205,296096,1,0,0:0:0:0:
299,181,296200,1,0,0:0:0:0:
325,155,296304,1,0,0:0:0:0:
353,132,296408,1,0,0:0:0:0:
374,96,296512,1,0,0:0:0:0:
366,56,296616,1,0,0:0:0:0:
329,35,296720,1,0,0:0:0:0:
289,31,296824,1,0,0:0:0:0:
247,37,296928,1,0,0:0:0:0:
217,63,297032,1,0,0:0:0:0:
173,119,297136,5,0,0:0:0:0:
145,151,297240,1,0,0:0:0:0:
115,187,297344,1,0,0:0:0:0:
89,223,297448,1,0,0:0:0:0:
68,257,297552,1,0,0:0:0:0:
53,294,297656,1,0,0:0:0:0:
59,338,297760,1,0,0:0:0:0:
97,360,297864,1,0,0:0:0:0:
139,356,297968,1,0,0:0:0:0:
178,338,298072,1,0,0:0:0:0:
215,312,298175,1,0,0:0:0:0:
241,277,298279,1,0,0:0:0:0:
252,239,298383,1,0,0:0:0:0:
254,194,298487,1,0,0:0:0:0:
240,152,298591,1,0,0:0:0:0:
213,120,298695,1,0,0:0:0:0:
253,50,298799,5,0,0:0:0:0:
297,33,298903,1,0,0:0:0:0:
338,28,299007,1,0,0:0:0:0:
376,36,299111,1,0,0:0:0:0:
416,49,299215,1,0,0:0:0:0:
451,67,299319,1,0,0:0:0:0:
472,100,299423,1,0,0:0:0:0:
476,138,299527,1,0,0:0:0:0:
477,177,299631,1,0,0:0:0:0:
469,220,299735,1,0,0:0:0:0:
457,258,299839,1,0,0:0:0:0:
445,297,299943,1,0,0:0:0:0:
429,330,300047,1,0,0:0:0:0:
394,344,300151,1,0,0:0:0:0:
356,346,300254,1,0,0:0:0:0:
317,342,300358,1,0,0:0:0:0:
231,36,300462,5,0,0:0:0:0:
188,43,300566,1,0,0:0:0:0:
150,63,300670,1,0,0:0:0:0:
121,89,300774,1,0,0:0:0:0:
97,118,300878,1,0,0:0:0:0:
74,157,300982,1,0,0:0:0:0:
64,198,301086,1,0,0:0:0:0:
65,239,301190,1,0,0:0:0:0:
70,280,301294,1,0,0:0:0:0:
79,320,301398,1,0,0:0:0:0:
102,348,301502,1,0,0:0:0:0:
142,353,301606,1,0,0:0:0:0:
183,347,301710,1,0,0:0:0:0:
221,343,301814,1,0,0:0:0:0:
267,341,301918,1,0,0:0:0:0:
306,343,302022,1,0,0:0:0:0:
400,340,302126,5,0,0:0:0:0:
381,291,302230,1,0,0:0:0:0:
362,247,302333,1,0,0:0:0:0:
342,202,302437,1,0,0:0:0:0:
326,162,302541,1,0,0:0:0:0:
309,121,302645,1,0,0:0:0:0:
295,84,302749,1,0,0:0:0:0:
276,39,302853,1,0,0:0:0:0:
232,29,302957,1,0,0:0:0:0:
208,60,303061,1,0,0:0:0:0:
185,94,303165,1,0,0:0:0:0:
168,130,303269,1,0,0:0:0:0:
150,170,303373,1,0,0:0:0:0:
127,211,303477,1,0,0:0:0:0:
110,246,303581,1,0,0:0:0:0:
85,296,303685,1,0,0:0:0:0:
149,338,303789,5,0,0:0:0:0:
148,297,303893,1,0,0:0:0:0:
145,253,303997,1,0,0:0:0:0:
145,214,304101,1,0,0:0:0:0:
144,174,304205,1,0,0:0:0:0:
144,128,304309,1,0,0:0:0:0:
188,152,304412,1,0,0:0:0:0:
223,184,304516,1,0,0:0:0:0:
256,220,304620,1,0,0:0:0:0:
283,255,304724,1,0,0:0:0:0:
316,296,304828,1,0,0:0:0:0:
332,251,304932,1,0,0:0:0:0:
336,210,305036,1,0,0:0:0:0:
337,170,305140,1,0,0:0:0:0:
337,126,305244,1,0,0:0:0:0:
340,84,305348,1,0,0:0:0:0:
276,57,305452,5,0,0:0:0:0:
232,69,305556,1,0,0:0:0:0:
193,85,305660,1,0,0:0:0:0:
177,125,305764,1,0,0:0:0:0:
171,170,305868,1,0,0:0:0:0:
170,210,305972,1,0,0:0:0:0:
173,250,306076,1,0,0:0:0:0:
201,278,306180,1,0,0:0:0:0:
245,292,306284,1,0,0:0:0:0:
292,284,306388,1,0,0:0:0:0:
322,250,306491,1,0,0:0:0:0:
337,211,306595,1,0,0:0:0:0:
344,164,306699,1,0,0:0:0:0:
344,117,306803,1,0,0:0:0:0:
332,75,306907,1,0,0:0:0:0:
289,60,307011,1,0,0:0:0:0:
233,60,307115,5,0,0:0:0:0:
234,105,307219,1,0,0:0:0:0:
236,152,307323,1,0,0:0:0:0:
236,196,307427,1,0,0:0:0:0:
234,246,307531,1,0,0:0:0:0:
236,304,307635,1,0,0:0:0:0:
191,274,307739,1,0,0:0:0:0:
162,228,307843,1,0,0:0:0:0:
134,175,307947,1,0,0:0:0:0:
109,128,308051,1,0,0:0:0:0:
76,87,308155,1,0,0:0:0:0:
57,137,308259,1,0,0:0:0:0:
57,180,308363,1,0,0:0:0:0:
59,227,308467,1,0,0:0:0:0:
59,261,308570,1,0,0:0:0:0:
60,307,308674,1,0,0:0:0:0:
133,352,308778,5,0,0:0:0:0:
133,315,308882,1,0,0:0:0:0:
132,276,308986,1,0,0:0:0:0:
131,238,309090,1,0,0:0:0:0:
132,203,309194,1,0,0:0:0:0:
132,162,309298,1,0,0:0:0:0:
131,126,309402,1,0,0:0:0:0:
132,91,309506,1,0,0:0:0:0:
174,89,309610,1,0,0:0:0:0:
177,126,309714,1,0,0:0:0:0:
177,167,309818,1,0,0:0:0:0:
179,206,309922,1,0,0:0:0:0:
178,243,310026,1,0,0:0:0:0:
179,286,310130,1,0,0:0:0:0:
179,328,310234,1,0,0:0:0:0:
179,361,310338,1,0,0:0:0:0:
256,350,310442,5,0,0:0:0:0:
254,308,310546,1,0,0:0:0:0:
254,263,310649,1,0,0:0:0:0:
256,213,310753,1,0,0:0:0:0:
255,166,310857,1,0,0:0:0:0:
255,117,310961,1,0,0:0:0:0:
304,148,311065,1,0,0:0:0:0:
339,192,311169,1,0,0:0:0:0:
367,228,311273,1,0,0:0:0:0:
402,263,311377,1,0,0:0:0:0:
441,300,311481,1,0,0:0:0:0:
446,249,311585,1,0,0:0:0:0:
447,204,311689,1,0,0:0:0:0:
444,155,311793,1,0,0:0:0:0:
446,108,311897,1,0,0:0:0:0:
445,63,312001,1,0,0:0:0:0:
372,32,312105,5,0,0:0:0:0:
333,43,312209,1,0,0:0:0:0:
297,68,312313,1,0,0:0:0:0:
268,97,312417,1,0,0:0:0:0:
245,124,312521,1,0,0:0:0:0:
224,155,312625,1,0,0:0:0:0:
209,186,312728,1,0,0:0:0:0:
201,221,312832,1,0,0:0:0:0:
191,258,312936,1,0,0:0:0:0:
190,293,313040,1,0,0:0:0:0:
201,332,313144,1,0,0:0:0:0:
232,353,313248,1,0,0:0:0:0:
269,352,313352,1,0,0:0:0:0:
308,349,313456,1,0,0:0:0:0:
347,347,313560,1,0,0:0:0:0:
390,342,313664,1,0,0:0:0:0:
398,255,313768,5,0,0:0:0:0:
373,222,313872,1,0,0:0:0:0:
350,189,313976,1,0,0:0:0:0:
329,153,314080,1,0,0:0:0:0:
305,119,314184,1,0,0:0:0:0:
282,80,314288,1,0,0:0:0:0:
260,44,314392,1,0,0:0:0:0:
211,34,314496,1,0,0:0:0:0:
114,61,314600,6,0,L|340:291,1,315
