osu file format v14

[General]
AudioFilename: audio.mp3
AudioLeadIn: 0
PreviewTime: -1
Countdown: 1
SampleSet: None
StackLeniency: 0.7
Mode: 3
LetterboxInBreaks: 0
SpecialStyle: 0
WidescreenStoryboard: 1

[Editor]
DistanceSpacing: 1.4
BeatDivisor: 2
GridSize: 4
TimelineZoom: 1

[Metadata]
Title:Canon
TitleUnicode:Canon
Artist:Johan Pachelbel
ArtistUnicode:Johan Pachelbel
Creator:Zooshy
Version:Insane
Source:
Tags:
BeatmapID:1932182
BeatmapSetID:924977

[Difficulty]
HPDrainRate:5
CircleSize:4
OverallDifficulty:5
ApproachRate:5
SliderMultiplier:1.4
SliderTickRate:1

[Events]
//Background and Video events
//Break Periods
2,107627,112464
2,140059,285853
//Storyboard Layer 0 (Background)
//Storyboard Layer 1 (Fail)
//Storyboard Layer 2 (Pass)
//Storyboard Layer 3 (Foreground)
//Storyboard Sound Samples

[TimingPoints]
8882.82862181209,415.800415800416,4,1,0,100,1,0

[HitObjects]
42,192,6803,128,0,8882:0:0:0:0:
213,192,6803,128,0,8882:0:0:0:0:
469,192,8882,128,0,10546:0:0:0:0:
298,192,8882,128,0,10546:0:0:0:0:
213,192,10546,128,0,12209:0:0:0:0:
42,192,10546,128,0,12209:0:0:0:0:
469,192,12209,128,0,13872:0:0:0:0:
298,192,12209,128,0,13872:0:0:0:0:
42,192,13872,128,0,15535:0:0:0:0:
213,192,13872,128,0,15535:0:0:0:0:
469,192,15535,128,0,17198:0:0:0:0:
298,192,15535,128,0,17198:0:0:0:0:
42,192,17198,128,0,18862:0:0:0:0:
213,192,17198,128,0,18862:0:0:0:0:
298,192,18862,128,0,20525:0:0:0:0:
469,192,18862,128,0,20525:0:0:0:0:
42,192,20525,128,0,22188:0:0:0:0:
213,192,20525,128,0,22188:0:0:0:0:
469,192,22188,128,0,23851:0:0:0:0:
298,192,22188,128,0,23851:0:0:0:0:
42,192,23851,128,0,25514:0:0:0:0:
213,192,23851,128,0,25514:0:0:0:0:
298,192,25514,128,0,27178:0:0:0:0:
469,192,25514,128,0,27178:0:0:0:0:
42,192,27178,128,0,28841:0:0:0:0:
213,192,27178,128,0,28841:0:0:0:0:
469,192,28841,128,0,30504:0:0:0:0:
298,192,28841,128,0,30504:0:0:0:0:
42,192,30504,128,0,32167:0:0:0:0:
213,192,30504,128,0,32167:0:0:0:0:
298,192,32167,128,0,33830:0:0:0:0:
469,192,32167,128,0,33830:0:0:0:0:
42,192,33830,128,0,35494:0:0:0:0:
213,192,33830,128,0,35494:0:0:0:0:
469,192,35494,128,0,37157:0:0:0:0:
298,192,35494,128,0,37157:0:0:0:0:
42,192,36325,1,0,0:0:0:0:
42,192,37157,128,0,38820:0:0:0:0:
213,192,37157,128,0,38820:0:0:0:0:
469,192,38820,128,0,40483:0:0:0:0:
298,192,38820,128,0,40483:0:0:0:0:
42,192,39652,1,0,0:0:0:0:
42,192,40483,128,0,42146:0:0:0:0:
213,192,40483,128,0,42146:0:0:0:0:
469,192,42146,128,0,43810:0:0:0:0:
298,192,42146,128,0,43810:0:0:0:0:
42,192,42978,1,0,0:0:0:0:
42,192,43810,128,0,45473:0:0:0:0:
213,192,43810,128,0,45473:0:0:0:0:
469,192,45473,128,0,46720:0:0:0:0:
298,192,45473,128,0,46720:0:0:0:0:
42,192,46304,128,0,46720:0:0:0:0:
42,192,47136,1,0,0:0:0:0:
213,192,47552,1,0,0:0:0:0:
298,192,47968,1,0,0:0:0:0:
42,192,48799,1,0,0:0:0:0:
213,192,49215,1,0,0:0:0:0:
298,192,49631,1,0,0:0:0:0:
42,192,50462,1,0,0:0:0:0:
192,192,50878,1,0,0:0:0:0:
298,192,51294,1,0,0:0:0:0:
384,192,52126,1,0,0:0:0:0:
64,192,52541,1,0,0:0:0:0:
384,192,52957,1,0,0:0:0:0:
42,192,53789,1,0,0:0:0:0:
213,192,54205,1,0,0:0:0:0:
298,192,54620,1,0,0:0:0:0:
128,192,55452,1,0,0:0:0:0:
42,192,55868,1,0,0:0:0:0:
213,192,56284,1,0,0:0:0:0:
42,192,57115,1,0,0:0:0:0:
213,192,57531,1,0,0:0:0:0:
298,192,57947,1,0,0:0:0:0:
469,192,58778,1,0,0:0:0:0:
384,192,59194,1,0,0:0:0:0:
42,192,59610,1,0,0:0:0:0:
448,192,60026,1,0,0:0:0:0:
128,192,60442,1,0,0:0:0:0:
213,192,60857,1,0,0:0:0:0:
298,192,61273,1,0,0:0:0:0:
469,192,61689,1,0,0:0:0:0:
42,192,62105,1,0,0:0:0:0:
128,192,62521,1,0,0:0:0:0:
213,192,62936,1,0,0:0:0:0:
298,192,62936,128,0,63352:0:0:0:0:
42,192,63768,1,0,0:0:0:0:
213,192,64184,1,0,0:0:0:0:
384,192,64600,1,0,0:0:0:0:
128,192,65431,1,0,0:0:0:0:
42,192,65847,1,0,0:0:0:0:
469,192,66263,1,0,0:0:0:0:
384,192,66679,1,0,0:0:0:0:
128,192,67094,1,0,0:0:0:0:
42,192,67510,1,0,0:0:0:0:
213,192,67926,1,0,0:0:0:0:
298,192,68342,1,0,0:0:0:0:
128,192,68758,1,0,0:0:0:0:
213,192,69173,1,0,0:0:0:0:
298,192,69589,1,0,0:0:0:0:
469,192,70005,1,0,0:0:0:0:
42,192,70421,1,0,0:0:0:0:
128,192,70837,1,0,0:0:0:0:
384,192,71252,1,0,0:0:0:0:
213,192,71668,1,0,0:0:0:0:
128,192,72084,1,0,0:0:0:0:
42,192,72500,1,0,0:0:0:0:
469,192,72916,1,0,0:0:0:0:
384,192,73331,1,0,0:0:0:0:
128,192,73747,1,0,0:0:0:0:
213,192,74163,1,0,0:0:0:0:
298,192,74579,1,0,0:0:0:0:
42,192,74995,1,0,0:0:0:0:
128,192,75410,1,0,0:0:0:0:
384,192,75826,1,0,0:0:0:0:
213,192,76242,1,0,0:0:0:0:
469,192,76658,1,0,0:0:0:0:
42,192,77074,1,0,0:0:0:0:
128,192,77489,1,0,0:0:0:0:
213,192,77905,1,0,0:0:0:0:
298,192,78321,1,0,0:0:0:0:
128,192,78737,1,0,0:0:0:0:
384,192,79153,1,0,0:0:0:0:
469,192,79568,1,0,0:0:0:0:
42,192,79984,1,0,0:0:0:0:
128,192,80400,1,0,0:0:0:0:
384,192,80816,1,0,0:0:0:0:
213,192,81232,1,0,0:0:0:0:
298,192,81647,1,0,0:0:0:0:
42,192,82063,1,0,0:0:0:0:
128,192,82479,1,0,0:0:0:0:
384,192,82895,1,0,0:0:0:0:
469,192,83311,1,0,0:0:0:0:
384,192,83726,1,0,0:0:0:0:
128,192,84142,1,0,0:0:0:0:
213,192,84558,1,0,0:0:0:0:
298,192,84974,1,0,0:0:0:0:
42,192,85390,1,0,0:0:0:0:
128,192,85805,1,0,0:0:0:0:
448,192,86013,1,0,0:0:0:0:
213,192,86221,1,0,0:0:0:0:
384,192,86637,1,0,0:0:0:0:
42,192,87053,1,0,0:0:0:0:
213,192,87884,1,0,0:0:0:0:
320,192,88092,1,0,0:0:0:0:
384,192,88300,1,0,0:0:0:0:
448,192,88508,1,0,0:0:0:0:
469,192,88716,1,0,0:0:0:0:
42,192,89132,1,0,0:0:0:0:
128,192,89548,1,0,0:0:0:0:
320,192,89756,1,0,0:0:0:0:
384,192,89963,1,0,0:0:0:0:
320,192,90171,1,0,0:0:0:0:
448,192,90379,1,0,0:0:0:0:
64,192,90795,1,0,0:0:0:0:
192,192,91003,1,0,0:0:0:0:
192,192,91419,1,0,0:0:0:0:
384,192,91627,1,0,0:0:0:0:
192,192,91835,1,0,0:0:0:0:
213,192,92042,1,0,0:0:0:0:
298,192,92458,1,0,0:0:0:0:
192,192,92666,1,0,0:0:0:0:
42,192,92874,1,0,0:0:0:0:
128,192,93290,1,0,0:0:0:0:
320,192,93498,1,0,0:0:0:0:
213,192,93706,1,0,0:0:0:0:
384,192,94121,1,0,0:0:0:0:
320,192,94329,1,0,0:0:0:0:
469,192,94537,1,0,0:0:0:0:
42,192,94953,1,0,0:0:0:0:
128,192,95369,1,0,0:0:0:0:
320,192,95577,1,0,0:0:0:0:
213,192,95785,1,0,0:0:0:0:
384,192,96200,1,0,0:0:0:0:
42,192,96616,1,0,0:0:0:0:
128,192,97032,1,0,0:0:0:0:
320,192,97240,1,0,0:0:0:0:
213,192,97448,1,0,0:0:0:0:
469,192,97864,1,0,0:0:0:0:
384,192,98279,1,0,0:0:0:0:
42,192,98695,1,0,0:0:0:0:
128,192,99111,1,0,0:0:0:0:
448,192,99319,1,0,0:0:0:0:
213,192,99527,1,0,0:0:0:0:
384,192,99943,1,0,0:0:0:0:
42,192,100358,1,0,0:0:0:0:
128,192,100774,1,0,0:0:0:0:
448,192,100982,1,0,0:0:0:0:
213,192,101190,1,0,0:0:0:0:
298,192,101606,1,0,0:0:0:0:
448,192,101814,1,0,0:0:0:0:
320,192,102022,1,0,0:0:0:0:
64,192,102437,1,0,0:0:0:0:
320,192,102645,1,0,0:0:0:0:
213,192,102853,1,0,0:0:0:0:
384,192,103269,1,0,0:0:0:0:
213,192,103685,1,0,0:0:0:0:
320,192,103893,1,0,0:0:0:0:
469,192,104101,1,0,0:0:0:0:
42,192,104516,1,0,0:0:0:0:
128,192,104516,1,0,0:0:0:0:
213,192,104932,1,0,0:0:0:0:
448,192,105140,1,0,0:0:0:0:
128,192,105348,1,0,0:0:0:0:
42,192,105348,128,0,105764:0:0:0:0:
469,192,105764,128,0,106180:0:0:0:0:
213,192,106180,1,0,0:0:0:0:
298,192,106595,1,0,0:0:0:0:
42,192,106595,128,0,107011:0:0:0:0:
320,192,107011,1,0,0:0:0:0:
384,192,107427,1,0,0:0:0:0:
320,192,107635,1,0,0:0:0:0:
320,192,108051,1,0,0:0:0:0:
320,192,108467,1,0,0:0:0:0:
192,192,108674,1,0,0:0:0:0:
64,192,108882,1,0,0:0:0:0:
192,192,109090,1,0,0:0:0:0:
448,192,109506,1,0,0:0:0:0:
448,192,109922,1,0,0:0:0:0:
448,192,110338,1,0,0:0:0:0:
320,192,110546,1,0,0:0:0:0:
192,192,110753,1,0,0:0:0:0:
192,192,111169,1,0,0:0:0:0:
320,192,111585,1,0,0:0:0:0:
64,192,111793,1,0,0:0:0:0:
320,192,112001,1,0,0:0:0:0:
64,192,112209,1,0,0:0:0:0:
320,192,112417,1,0,0:0:0:0:
192,192,112625,5,0,0:0:0:0:
320,192,112832,1,0,0:0:0:0:
320,192,113248,1,0,0:0:0:0:
64,192,113248,1,0,0:0:0:0:
42,192,113664,5,0,0:0:0:0:
42,192,114080,1,0,0:0:0:0:
128,192,114288,1,0,0:0:0:0:
213,192,114496,1,0,0:0:0:0:
42,192,114911,1,0,0:0:0:0:
128,192,115223,1,0,0:0:0:0:
213,192,115431,1,0,0:0:0:0:
298,192,115639,1,0,0:0:0:0:
384,192,115847,1,0,0:0:0:0:
469,192,116055,1,0,0:0:0:0:
384,192,116263,1,0,0:0:0:0:
298,192,116471,1,0,0:0:0:0:
213,192,116679,1,0,0:0:0:0:
128,192,116886,1,0,0:0:0:0:
42,192,117094,1,0,0:0:0:0:
42,192,117510,1,0,0:0:0:0:
128,192,117718,1,0,0:0:0:0:
42,192,117926,1,0,0:0:0:0:
42,192,118342,1,0,0:0:0:0:
128,192,118550,1,0,0:0:0:0:
213,192,118758,1,0,0:0:0:0:
298,192,118965,1,0,0:0:0:0:
384,192,119173,1,0,0:0:0:0:
469,192,119381,1,0,0:0:0:0:
384,192,119589,1,0,0:0:0:0:
298,192,119797,1,0,0:0:0:0:
213,192,120005,1,0,0:0:0:0:
128,192,120213,1,0,0:0:0:0:
42,192,120421,1,0,0:0:0:0:
42,192,120837,1,0,0:0:0:0:
128,192,121044,1,0,0:0:0:0:
42,192,121252,1,0,0:0:0:0:
42,192,121668,1,0,0:0:0:0:
128,192,121876,1,0,0:0:0:0:
213,192,122084,1,0,0:0:0:0:
298,192,122292,1,0,0:0:0:0:
384,192,122500,1,0,0:0:0:0:
469,192,122708,1,0,0:0:0:0:
384,192,122916,1,0,0:0:0:0:
298,192,123123,1,0,0:0:0:0:
213,192,123331,1,0,0:0:0:0:
128,192,123539,1,0,0:0:0:0:
42,192,123747,1,0,0:0:0:0:
42,192,124163,1,0,0:0:0:0:
128,192,124371,1,0,0:0:0:0:
42,192,124579,1,0,0:0:0:0:
42,192,124995,1,0,0:0:0:0:
128,192,125202,1,0,0:0:0:0:
213,192,125410,1,0,0:0:0:0:
298,192,125618,1,0,0:0:0:0:
384,192,125826,1,0,0:0:0:0:
469,192,126034,1,0,0:0:0:0:
384,192,126242,1,0,0:0:0:0:
298,192,126450,1,0,0:0:0:0:
213,192,126658,1,0,0:0:0:0:
128,192,126866,1,0,0:0:0:0:
128,192,127178,1,0,0:0:0:0:
448,192,127178,1,0,0:0:0:0:
128,192,127593,1,0,0:0:0:0:
448,192,127593,1,0,0:0:0:0:
42,192,127801,1,0,0:0:0:0:
320,192,127801,1,0,0:0:0:0:
128,192,128009,1,0,0:0:0:0:
448,192,128009,1,0,0:0:0:0:
128,192,128425,1,0,0:0:0:0:
448,192,128425,1,0,0:0:0:0:
42,192,128633,1,0,0:0:0:0:
320,192,128633,1,0,0:0:0:0:
128,192,128841,1,0,0:0:0:0:
448,192,128841,1,0,0:0:0:0:
213,192,129049,1,0,0:0:0:0:
448,192,129049,1,0,0:0:0:0:
298,192,129257,1,0,0:0:0:0:
64,192,129257,1,0,0:0:0:0:
384,192,129464,1,0,0:0:0:0:
192,192,129464,1,0,0:0:0:0:
384,192,129672,1,0,0:0:0:0:
192,192,129672,1,0,0:0:0:0:
384,192,129880,1,0,0:0:0:0:
192,192,129880,1,0,0:0:0:0:
384,192,130088,1,0,0:0:0:0:
192,192,130088,1,0,0:0:0:0:
298,192,130296,1,0,0:0:0:0:
298,192,130504,1,0,0:0:0:0:
192,192,130920,1,0,0:0:0:0:
448,192,130920,1,0,0:0:0:0:
64,192,131128,1,0,0:0:0:0:
320,192,131128,1,0,0:0:0:0:
64,192,131336,1,0,0:0:0:0:
320,192,131336,1,0,0:0:0:0:
64,192,131751,1,0,0:0:0:0:
192,192,131959,1,0,0:0:0:0:
320,192,132167,1,0,0:0:0:0:
448,192,132375,1,0,0:0:0:0:
320,192,132583,1,0,0:0:0:0:
192,192,132791,1,0,0:0:0:0:
64,192,132999,1,0,0:0:0:0:
192,192,133207,1,0,0:0:0:0:
320,192,133415,1,0,0:0:0:0:
448,192,133622,1,0,0:0:0:0:
320,192,133830,1,0,0:0:0:0:
320,192,134246,1,0,0:0:0:0:
192,192,134454,1,0,0:0:0:0:
320,192,134662,1,0,0:0:0:0:
320,192,135078,1,0,0:0:0:0:
192,192,135286,1,0,0:0:0:0:
64,192,135494,1,0,0:0:0:0:
448,192,135701,1,0,0:0:0:0:
192,192,135909,1,0,0:0:0:0:
64,192,136117,1,0,0:0:0:0:
192,192,136325,1,0,0:0:0:0:
320,192,136533,1,0,0:0:0:0:
448,192,136741,1,0,0:0:0:0:
320,192,136949,1,0,0:0:0:0:
192,192,137157,1,0,0:0:0:0:
192,192,137573,1,0,0:0:0:0:
320,192,137780,1,0,0:0:0:0:
192,192,137988,1,0,0:0:0:0:
192,192,138404,1,0,0:0:0:0:
320,192,138612,1,0,0:0:0:0:
448,192,138820,1,0,0:0:0:0:
320,192,139028,1,0,0:0:0:0:
192,192,139236,1,0,0:0:0:0:
64,192,139444,1,0,0:0:0:0:
192,192,139652,1,0,0:0:0:0:
320,192,139859,1,0,0:0:0:0:
448,192,140067,1,0,0:0:0:0:
448,192,140275,1,0,0:0:0:0:
448,192,140483,1,0,0:0:0:0:
320,192,140899,1,0,0:0:0:0:
192,192,141107,1,0,0:0:0:0:
320,192,141315,1,0,0:0:0:0:
320,192,141731,1,0,0:0:0:0:
192,192,141938,1,0,0:0:0:0:
320,192,142146,1,0,0:0:0:0:
448,192,142354,1,0,0:0:0:0:
320,192,142562,1,0,0:0:0:0:
192,192,142770,1,0,0:0:0:0:
64,192,142978,1,0,0:0:0:0:
64,192,143186,1,0,0:0:0:0:
64,192,143394,1,0,0:0:0:0:
64,192,143602,1,0,0:0:0:0:
192,192,143810,1,0,0:0:0:0:
192,192,144225,1,0,0:0:0:0:
320,192,144433,1,0,0:0:0:0:
448,192,144641,1,0,0:0:0:0:
448,192,145057,1,0,0:0:0:0:
320,192,145265,1,0,0:0:0:0:
192,192,145473,1,0,0:0:0:0:
64,192,145681,1,0,0:0:0:0:
192,192,145889,1,0,0:0:0:0:
320,192,146096,1,0,0:0:0:0:
448,192,146304,1,0,0:0:0:0:
320,192,146512,1,0,0:0:0:0:
192,192,146720,1,0,0:0:0:0:
192,192,146928,1,0,0:0:0:0:
320,192,147136,1,0,0:0:0:0:
192,192,147552,1,0,0:0:0:0:
320,192,147760,1,0,0:0:0:0:
192,192,147968,1,0,0:0:0:0:
192,192,148383,1,0,0:0:0:0:
320,192,148591,1,0,0:0:0:0:
448,192,148799,1,0,0:0:0:0:
320,192,149007,1,0,0:0:0:0:
192,192,149215,1,0,0:0:0:0:
64,192,149423,1,0,0:0:0:0:
192,192,149631,1,0,0:0:0:0:
320,192,149839,1,0,0:0:0:0:
448,192,150047,1,0,0:0:0:0:
448,192,150254,1,0,0:0:0:0:
320,192,150462,1,0,0:0:0:0:
320,192,150878,1,0,0:0:0:0:
192,192,151086,1,0,0:0:0:0:
320,192,151294,1,0,0:0:0:0:
320,192,151710,1,0,0:0:0:0:
192,192,151918,1,0,0:0:0:0:
64,192,152126,1,0,0:0:0:0:
64,192,152333,1,0,0:0:0:0:
192,192,152541,1,0,0:0:0:0:
320,192,152749,1,0,0:0:0:0:
448,192,152957,1,0,0:0:0:0:
320,192,153165,1,0,0:0:0:0:
192,192,153373,1,0,0:0:0:0:
64,192,153581,1,0,0:0:0:0:
320,192,153789,1,0,0:0:0:0:
192,192,153789,128,0,154205:0:0:0:0:
448,192,154205,1,0,0:0:0:0:
64,192,154205,128,0,154620:0:0:0:0:
320,192,154412,1,0,0:0:0:0:
448,192,154620,1,0,0:0:0:0:
192,192,154620,128,0,155036:0:0:0:0:
448,192,155036,1,0,0:0:0:0:
64,192,155036,128,0,155452:0:0:0:0:
320,192,155244,1,0,0:0:0:0:
320,192,155452,1,0,0:0:0:0:
192,192,155452,128,0,155868:0:0:0:0:
320,192,155660,1,0,0:0:0:0:
448,192,155868,1,0,0:0:0:0:
64,192,155868,128,0,156284:0:0:0:0:
448,192,156076,1,0,0:0:0:0:
448,192,156284,1,0,0:0:0:0:
192,192,156284,128,0,156699:0:0:0:0:
320,192,156491,1,0,0:0:0:0:
320,192,156699,1,0,0:0:0:0:
64,192,156699,128,0,157115:0:0:0:0:
320,192,156907,1,0,0:0:0:0:
448,192,157115,1,0,0:0:0:0:
192,192,157115,128,0,157531:0:0:0:0:
320,192,157531,1,0,0:0:0:0:
64,192,157531,128,0,157947:0:0:0:0:
448,192,157739,1,0,0:0:0:0:
320,192,157947,1,0,0:0:0:0:
192,192,157947,128,0,158363:0:0:0:0:
320,192,158363,1,0,0:0:0:0:
64,192,158363,128,0,158778:0:0:0:0:
448,192,158570,1,0,0:0:0:0:
448,192,158778,1,0,0:0:0:0:
192,192,158778,128,0,159194:0:0:0:0:
320,192,158986,1,0,0:0:0:0:
448,192,159194,1,0,0:0:0:0:
64,192,159194,128,0,159610:0:0:0:0:
320,192,159402,1,0,0:0:0:0:
448,192,159610,1,0,0:0:0:0:
192,192,159610,128,0,160026:0:0:0:0:
320,192,159818,1,0,0:0:0:0:
320,192,160026,1,0,0:0:0:0:
64,192,160026,128,0,160442:0:0:0:0:
320,192,160234,1,0,0:0:0:0:
320,192,160442,1,0,0:0:0:0:
192,192,160442,128,0,160857:0:0:0:0:
448,192,160857,1,0,0:0:0:0:
64,192,160857,128,0,161273:0:0:0:0:
320,192,161065,1,0,0:0:0:0:
448,192,161273,1,0,0:0:0:0:
192,192,161273,128,0,161689:0:0:0:0:
448,192,161689,1,0,0:0:0:0:
64,192,161689,128,0,162105:0:0:0:0:
320,192,161897,1,0,0:0:0:0:
320,192,162105,1,0,0:0:0:0:
192,192,162105,128,0,162521:0:0:0:0:
448,192,162313,1,0,0:0:0:0:
320,192,162521,1,0,0:0:0:0:
64,192,162521,128,0,162936:0:0:0:0:
448,192,162728,1,0,0:0:0:0:
320,192,162936,1,0,0:0:0:0:
192,192,162936,128,0,163352:0:0:0:0:
448,192,163144,1,0,0:0:0:0:
448,192,163352,1,0,0:0:0:0:
64,192,163352,128,0,163768:0:0:0:0:
448,192,163560,1,0,0:0:0:0:
320,192,163768,1,0,0:0:0:0:
192,192,163768,128,0,164184:0:0:0:0:
320,192,164184,1,0,0:0:0:0:
64,192,164184,128,0,164600:0:0:0:0:
448,192,164392,1,0,0:0:0:0:
320,192,164600,1,0,0:0:0:0:
192,192,164600,128,0,165015:0:0:0:0:
320,192,165015,1,0,0:0:0:0:
64,192,165015,128,0,165431:0:0:0:0:
448,192,165223,1,0,0:0:0:0:
448,192,165431,1,0,0:0:0:0:
192,192,165431,128,0,165847:0:0:0:0:
448,192,165639,1,0,0:0:0:0:
320,192,165847,1,0,0:0:0:0:
64,192,165847,128,0,166263:0:0:0:0:
448,192,166055,1,0,0:0:0:0:
320,192,166263,1,0,0:0:0:0:
192,192,166263,128,0,166679:0:0:0:0:
448,192,166471,1,0,0:0:0:0:
448,192,166679,1,0,0:0:0:0:
448,192,166886,1,0,0:0:0:0:
192,192,167094,1,0,0:0:0:0:
64,192,167094,128,0,168342:0:0:0:0:
320,192,167510,1,0,0:0:0:0:
448,192,167926,1,0,0:0:0:0:
192,192,168342,1,0,0:0:0:0:
192,192,168758,128,0,170005:0:0:0:0:
320,192,168758,1,0,0:0:0:0:
448,192,169173,1,0,0:0:0:0:
320,192,169589,1,0,0:0:0:0:
448,192,170005,1,0,0:0:0:0:
192,192,170421,128,0,171668:0:0:0:0:
64,192,170421,1,0,0:0:0:0:
320,192,170837,1,0,0:0:0:0:
448,192,171252,1,0,0:0:0:0:
64,192,171668,1,0,0:0:0:0:
192,192,172084,128,0,173331:0:0:0:0:
320,192,172084,1,0,0:0:0:0:
320,192,172500,1,0,0:0:0:0:
64,192,172916,1,0,0:0:0:0:
320,192,173331,1,0,0:0:0:0:
448,192,173747,128,0,174995:0:0:0:0:
320,192,173747,1,0,0:0:0:0:
192,192,174163,1,0,0:0:0:0:
64,192,174579,1,0,0:0:0:0:
64,192,174995,1,0,0:0:0:0:
64,192,175410,128,0,176658:0:0:0:0:
192,192,175410,1,0,0:0:0:0:
192,192,175826,1,0,0:0:0:0:
320,192,176242,1,0,0:0:0:0:
448,192,176658,1,0,0:0:0:0:
448,192,177074,128,0,178321:0:0:0:0:
320,192,177074,1,0,0:0:0:0:
64,192,177489,1,0,0:0:0:0:
320,192,177905,1,0,0:0:0:0:
64,192,178321,1,0,0:0:0:0:
448,192,178737,128,0,179984:0:0:0:0:
320,192,178737,1,0,0:0:0:0:
64,192,179153,1,0,0:0:0:0:
320,192,179568,1,0,0:0:0:0:
320,192,179984,1,0,0:0:0:0:
320,192,180400,128,0,181647:0:0:0:0:
448,192,180400,1,0,0:0:0:0:
192,192,180816,1,0,0:0:0:0:
448,192,181232,1,0,0:0:0:0:
192,192,181647,1,0,0:0:0:0:
192,192,182063,128,0,183311:0:0:0:0:
64,192,182063,1,0,0:0:0:0:
320,192,182479,1,0,0:0:0:0:
64,192,182895,1,0,0:0:0:0:
64,192,183311,1,0,0:0:0:0:
64,192,183726,128,0,184974:0:0:0:0:
192,192,183726,1,0,0:0:0:0:
448,192,184142,1,0,0:0:0:0:
320,192,184558,1,0,0:0:0:0:
320,192,184974,1,0,0:0:0:0:
320,192,185390,128,0,186637:0:0:0:0:
448,192,185390,1,0,0:0:0:0:
448,192,185805,1,0,0:0:0:0:
192,192,186221,1,0,0:0:0:0:
192,192,186637,1,0,0:0:0:0:
320,192,187053,128,0,188300:0:0:0:0:
192,192,187053,1,0,0:0:0:0:
448,192,187469,1,0,0:0:0:0:
192,192,187884,1,0,0:0:0:0:
448,192,188300,1,0,0:0:0:0:
64,192,188716,128,0,189963:0:0:0:0:
192,192,188716,1,0,0:0:0:0:
320,192,189132,1,0,0:0:0:0:
448,192,189548,1,0,0:0:0:0:
320,192,189963,1,0,0:0:0:0:
320,192,190379,128,0,191627:0:0:0:0:
448,192,190379,1,0,0:0:0:0:
192,192,190795,1,0,0:0:0:0:
64,192,191211,1,0,0:0:0:0:
64,192,191627,1,0,0:0:0:0:
192,192,192042,128,0,193290:0:0:0:0:
320,192,192042,1,0,0:0:0:0:
448,192,192458,1,0,0:0:0:0:
320,192,192874,1,0,0:0:0:0:
448,192,193290,1,0,0:0:0:0:
64,192,287053,5,0,0:0:0:0:
320,192,287157,1,0,0:0:0:0:
320,192,287261,1,0,0:0:0:0:
320,192,287365,1,0,0:0:0:0:
320,192,287469,1,0,0:0:0:0:
64,192,287469,1,0,0:0:0:0:
320,192,287573,1,0,0:0:0:0:
320,192,287677,1,0,0:0:0:0:
320,192,287780,1,0,0:0:0:0:
320,192,287884,1,0,0:0:0:0:
64,192,287884,1,0,0:0:0:0:
320,192,287988,1,0,0:0:0:0:
320,192,288092,1,0,0:0:0:0:
320,192,288196,1,0,0:0:0:0:
320,192,288300,1,0,0:0:0:0:
64,192,288300,1,0,0:0:0:0:
320,192,288404,1,0,0:0:0:0:
320,192,288508,1,0,0:0:0:0:
320,192,288612,1,0,0:0:0:0:
320,192,288716,1,0,0:0:0:0:
448,192,288716,1,0,0:0:0:0:
192,192,288820,1,0,0:0:0:0:
192,192,288924,1,0,0:0:0:0:
192,192,289028,1,0,0:0:0:0:
192,192,289132,1,0,0:0:0:0:
448,192,289132,1,0,0:0:0:0:
192,192,289236,1,0,0:0:0:0:
192,192,289340,1,0,0:0:0:0:
192,192,289444,1,0,0:0:0:0:
192,192,289548,1,0,0:0:0:0:
448,192,289548,1,0,0:0:0:0:
192,192,289652,1,0,0:0:0:0:
192,192,289756,1,0,0:0:0:0:
192,192,289859,1,0,0:0:0:0:
192,192,289963,1,0,0:0:0:0:
448,192,289963,1,0,0:0:0:0:
192,192,290067,1,0,0:0:0:0:
192,192,290171,1,0,0:0:0:0:
192,192,290275,1,0,0:0:0:0:
192,192,290379,1,0,0:0:0:0:
64,192,290379,1,0,0:0:0:0:
448,192,290483,1,0,0:0:0:0:
448,192,290587,1,0,0:0:0:0:
448,192,290691,1,0,0:0:0:0:
448,192,290795,1,0,0:0:0:0:
64,192,290795,1,0,0:0:0:0:
448,192,290899,1,0,0:0:0:0:
448,192,291003,1,0,0:0:0:0:
448,192,291107,1,0,0:0:0:0:
448,192,291211,1,0,0:0:0:0:
64,192,291211,1,0,0:0:0:0:
448,192,291315,1,0,0:0:0:0:
448,192,291419,1,0,0:0:0:0:
448,192,291523,1,0,0:0:0:0:
448,192,291627,1,0,0:0:0:0:
64,192,291627,1,0,0:0:0:0:
448,192,291731,1,0,0:0:0:0:
448,192,291835,1,0,0:0:0:0:
448,192,291938,1,0,0:0:0:0:
448,192,292042,1,0,0:0:0:0:
320,192,292042,1,0,0:0:0:0:
64,192,292146,1,0,0:0:0:0:
64,192,292250,1,0,0:0:0:0:
64,192,292354,1,0,0:0:0:0:
64,192,292458,1,0,0:0:0:0:
320,192,292458,1,0,0:0:0:0:
64,192,292562,1,0,0:0:0:0:
64,192,292666,1,0,0:0:0:0:
64,192,292770,1,0,0:0:0:0:
64,192,292874,1,0,0:0:0:0:
320,192,292874,1,0,0:0:0:0:
64,192,292978,1,0,0:0:0:0:
64,192,293082,1,0,0:0:0:0:
64,192,293186,1,0,0:0:0:0:
64,192,293290,1,0,0:0:0:0:
320,192,293290,1,0,0:0:0:0:
64,192,293394,1,0,0:0:0:0:
64,192,293498,1,0,0:0:0:0:
64,192,293602,1,0,0:0:0:0:
64,192,293706,1,0,0:0:0:0:
448,192,293706,1,0,0:0:0:0:
192,192,293810,1,0,0:0:0:0:
192,192,293914,1,0,0:0:0:0:
192,192,294017,1,0,0:0:0:0:
192,192,294121,1,0,0:0:0:0:
448,192,294121,1,0,0:0:0:0:
192,192,294225,1,0,0:0:0:0:
192,192,294329,1,0,0:0:0:0:
192,192,294433,1,0,0:0:0:0:
192,192,294537,1,0,0:0:0:0:
448,192,294537,1,0,0:0:0:0:
192,192,294641,1,0,0:0:0:0:
192,192,294745,1,0,0:0:0:0:
192,192,294849,1,0,0:0:0:0:
192,192,294953,1,0,0:0:0:0:
448,192,294953,1,0,0:0:0:0:
192,192,295057,1,0,0:0:0:0:
192,192,295161,1,0,0:0:0:0:
192,192,295265,1,0,0:0:0:0:
192,192,295369,1,0,0:0:0:0:
64,192,295369,1,0,0:0:0:0:
320,192,295473,1,0,0:0:0:0:
320,192,295577,1,0,0:0:0:0:
320,192,295681,1,0,0:0:0:0:
320,192,295785,1,0,0:0:0:0:
64,192,295785,1,0,0:0:0:0:
320,192,295889,1,0,0:0:0:0:
320,192,295993,1,0,0:0:0:0:
320,192,296096,1,0,0:0:0:0:
320,192,296200,1,0,0:0:0:0:
64,192,296200,1,0,0:0:0:0:
320,192,296304,1,0,0:0:0:0:
320,192,296408,1,0,0:0:0:0:
320,192,296512,1,0,0:0:0:0:
320,192,296616,1,0,0:0:0:0:
64,192,296616,1,0,0:0:0:0:
320,192,296720,1,0,0:0:0:0:
320,192,296824,1,0,0:0:0:0:
320,192,296928,1,0,0:0:0:0:
320,192,297032,1,0,0:0:0:0:
448,192,297032,1,0,0:0:0:0:
192,192,297136,1,0,0:0:0:0:
192,192,297240,1,0,0:0:0:0:
192,192,297344,1,0,0:0:0:0:
192,192,297448,1,0,0:0:0:0:
448,192,297448,1,0,0:0:0:0:
192,192,297552,1,0,0:0:0:0:
192,192,297656,1,0,0:0:0:0:
192,192,297760,1,0,0:0:0:0:
192,192,297864,1,0,0:0:0:0:
448,192,297864,1,0,0:0:0:0:
192,192,297968,1,0,0:0:0:0:
192,192,298072,1,0,0:0:0:0:
192,192,298175,1,0,0:0:0:0:
192,192,298279,1,0,0:0:0:0:
448,192,298279,1,0,0:0:0:0:
192,192,298383,1,0,0:0:0:0:
192,192,298487,1,0,0:0:0:0:
192,192,298591,1,0,0:0:0:0:
192,192,298695,1,0,0:0:0:0:
64,192,298695,1,0,0:0:0:0:
320,192,298799,1,0,0:0:0:0:
320,192,298903,1,0,0:0:0:0:
320,192,299007,1,0,0:0:0:0:
320,192,299111,1,0,0:0:0:0:
64,192,299111,1,0,0:0:0:0:
320,192,299215,1,0,0:0:0:0:
320,192,299319,1,0,0:0:0:0:
320,192,299423,1,0,0:0:0:0:
320,192,299527,1,0,0:0:0:0:
64,192,299527,1,0,0:0:0:0:
320,192,299631,1,0,0:0:0:0:
320,192,299735,1,0,0:0:0:0:
320,192,299839,1,0,0:0:0:0:
320,192,299943,1,0,0:0:0:0:
64,192,299943,1,0,0:0:0:0:
320,192,300047,1,0,0:0:0:0:
320,192,300151,1,0,0:0:0:0:
320,192,300254,1,0,0:0:0:0:
320,192,300358,1,0,0:0:0:0:
448,192,300358,1,0,0:0:0:0:
192,192,300462,1,0,0:0:0:0:
192,192,300566,1,0,0:0:0:0:
192,192,300670,1,0,0:0:0:0:
192,192,300774,1,0,0:0:0:0:
448,192,300774,1,0,0:0:0:0:
192,192,300878,1,0,0:0:0:0:
192,192,300982,1,0,0:0:0:0:
192,192,301086,1,0,0:0:0:0:
192,192,301190,1,0,0:0:0:0:
448,192,301190,1,0,0:0:0:0:
192,192,301294,1,0,0:0:0:0:
192,192,301398,1,0,0:0:0:0:
192,192,301502,1,0,0:0:0:0:
192,192,301606,1,0,0:0:0:0:
448,192,301606,1,0,0:0:0:0:
192,192,301710,1,0,0:0:0:0:
192,192,301814,1,0,0:0:0:0:
192,192,301918,1,0,0:0:0:0:
192,192,302022,1,0,0:0:0:0:
448,192,302022,1,0,0:0:0:0:
64,192,302126,1,0,0:0:0:0:
64,192,302230,1,0,0:0:0:0:
64,192,302333,1,0,0:0:0:0:
64,192,302437,1,0,0:0:0:0:
448,192,302437,1,0,0:0:0:0:
64,192,302541,1,0,0:0:0:0:
64,192,302645,1,0,0:0:0:0:
64,192,302749,1,0,0:0:0:0:
64,192,302853,1,0,0:0:0:0:
448,192,302853,1,0,0:0:0:0:
64,192,302957,1,0,0:0:0:0:
64,192,303061,1,0,0:0:0:0:
64,192,303165,1,0,0:0:0:0:
64,192,303269,1,0,0:0:0:0:
448,192,303269,1,0,0:0:0:0:
64,192,303373,1,0,0:0:0:0:
64,192,303477,1,0,0:0:0:0:
64,192,303581,1,0,0:0:0:0:
64,192,303685,1,0,0:0:0:0:
448,192,303685,1,0,0:0:0:0:
192,192,303789,1,0,0:0:0:0:
192,192,303893,1,0,0:0:0:0:
192,192,303997,1,0,0:0:0:0:
192,192,304101,1,0,0:0:0:0:
448,192,304101,1,0,0:0:0:0:
192,192,304205,1,0,0:0:0:0:
192,192,304309,1,0,0:0:0:0:
192,192,304412,1,0,0:0:0:0:
192,192,304516,1,0,0:0:0:0:
448,192,304516,1,0,0:0:0:0:
192,192,304620,1,0,0:0:0:0:
192,192,304724,1,0,0:0:0:0:
192,192,304828,1,0,0:0:0:0:
192,192,304932,1,0,0:0:0:0:
448,192,304932,1,0,0:0:0:0:
192,192,305036,1,0,0:0:0:0:
192,192,305140,1,0,0:0:0:0:
192,192,305244,1,0,0:0:0:0:
192,192,305348,1,0,0:0:0:0:
64,192,305348,1,0,0:0:0:0:
320,192,305452,1,0,0:0:0:0:
320,192,305556,1,0,0:0:0:0:
320,192,305660,1,0,0:0:0:0:
320,192,305764,1,0,0:0:0:0:
64,192,305764,1,0,0:0:0:0:
320,192,305868,1,0,0:0:0:0:
320,192,305972,1,0,0:0:0:0:
320,192,306076,1,0,0:0:0:0:
320,192,306180,1,0,0:0:0:0:
64,192,306180,1,0,0:0:0:0:
320,192,306284,1,0,0:0:0:0:
320,192,306388,1,0,0:0:0:0:
320,192,306491,1,0,0:0:0:0:
320,192,306595,1,0,0:0:0:0:
64,192,306595,1,0,0:0:0:0:
320,192,306699,1,0,0:0:0:0:
320,192,306803,1,0,0:0:0:0:
320,192,306907,1,0,0:0:0:0:
320,192,307011,1,0,0:0:0:0:
448,192,307011,1,0,0:0:0:0:
192,192,307115,1,0,0:0:0:0:
192,192,307219,1,0,0:0:0:0:
192,192,307323,1,0,0:0:0:0:
192,192,307427,1,0,0:0:0:0:
448,192,307427,1,0,0:0:0:0:
192,192,307531,1,0,0:0:0:0:
192,192,307635,1,0,0:0:0:0:
192,192,307739,1,0,0:0:0:0:
192,192,307843,1,0,0:0:0:0:
448,192,307843,1,0,0:0:0:0:
192,192,307947,1,0,0:0:0:0:
192,192,308051,1,0,0:0:0:0:
192,192,308155,1,0,0:0:0:0:
192,192,308259,1,0,0:0:0:0:
448,192,308259,1,0,0:0:0:0:
192,192,308363,1,0,0:0:0:0:
192,192,308467,1,0,0:0:0:0:
192,192,308570,1,0,0:0:0:0:
192,192,308674,1,0,0:0:0:0:
448,192,308674,1,0,0:0:0:0:
64,192,308778,1,0,0:0:0:0:
64,192,308882,1,0,0:0:0:0:
64,192,308986,1,0,0:0:0:0:
64,192,309090,1,0,0:0:0:0:
448,192,309090,1,0,0:0:0:0:
64,192,309194,1,0,0:0:0:0:
64,192,309298,1,0,0:0:0:0:
64,192,309402,1,0,0:0:0:0:
64,192,309506,1,0,0:0:0:0:
448,192,309506,1,0,0:0:0:0:
64,192,309610,1,0,0:0:0:0:
64,192,309714,1,0,0:0:0:0:
64,192,309818,1,0,0:0:0:0:
64,192,309922,1,0,0:0:0:0:
448,192,309922,1,0,0:0:0:0:
64,192,310026,1,0,0:0:0:0:
64,192,310130,1,0,0:0:0:0:
64,192,310234,1,0,0:0:0:0:
64,192,310338,1,0,0:0:0:0:
448,192,310338,1,0,0:0:0:0:
192,192,310442,1,0,0:0:0:0:
192,192,310546,1,0,0:0:0:0:
192,192,310649,1,0,0:0:0:0:
192,192,310753,1,0,0:0:0:0:
448,192,310753,1,0,0:0:0:0:
192,192,310857,1,0,0:0:0:0:
192,192,310961,1,0,0:0:0:0:
192,192,311065,1,0,0:0:0:0:
192,192,311169,1,0,0:0:0:0:
448,192,311169,1,0,0:0:0:0:
192,192,311273,1,0,0:0:0:0:
192,192,311377,1,0,0:0:0:0:
192,192,311481,1,0,0:0:0:0:
192,192,311585,1,0,0:0:0:0:
448,192,311585,1,0,0:0:0:0:
192,192,311689,1,0,0:0:0:0:
192,192,311793,1,0,0:0:0:0:
192,192,311897,1,0,0:0:0:0:
192,192,312001,1,0,0:0:0:0:
64,192,312001,1,0,0:0:0:0:
320,192,312105,1,0,0:0:0:0:
320,192,312209,1,0,0:0:0:0:
320,192,312313,1,0,0:0:0:0:
320,192,312417,1,0,0:0:0:0:
64,192,312417,1,0,0:0:0:0:
320,192,312521,1,0,0:0:0:0:
320,192,312625,1,0,0:0:0:0:
320,192,312728,1,0,0:0:0:0:
320,192,312832,1,0,0:0:0:0:
64,192,312832,1,0,0:0:0:0:
320,192,312936,1,0,0:0:0:0:
320,192,313040,1,0,0:0:0:0:
320,192,313144,1,0,0:0:0:0:
320,192,313248,1,0,0:0:0:0:
64,192,313248,1,0,0:0:0:0:
320,192,313352,1,0,0:0:0:0:
320,192,313456,1,0,0:0:0:0:
320,192,313560,1,0,0:0:0:0:
320,192,313664,1,0,0:0:0:0:
64,192,313664,1,0,0:0:0:0:
192,192,313768,1,0,0:0:0:0:
192,192,313872,1,0,0:0:0:0:
192,192,313976,1,0,0:0:0:0:
192,192,314080,1,0,0:0:0:0:
448,192,314080,1,0,0:0:0:0:
192,192,314184,1,0,0:0:0:0:
192,192,314288,1,0,0:0:0:0:
192,192,314392,1,0,0:0:0:0:
192,192,314496,1,0,0:0:0:0:
448,192,314600,128,0,316575:0:0:0:0:
64,192,314600,128,0,316575:0:0:0:0:
