osu file format v14

[General]
AudioFilename: audio.mp3
AudioLeadIn: 0
PreviewTime: 42185
Countdown: 0
SampleSet: Normal
StackLeniency: 0.7
Mode: 1
LetterboxInBreaks: 0
WidescreenStoryboard: 0

[Editor]
DistanceSpacing: 0.8
BeatDivisor: 3
GridSize: 32
TimelineZoom: 2

[Metadata]
Title:Just Briefly (Remix)
TitleUnicode:Just Briefly (Remix)
Artist:Jogger
ArtistUnicode:Jogger
Creator:ZTH
Version:Oni
Source:
Tags:This Great Pressure experimental electronic instrumental Daedelus
BeatmapID:2148039
BeatmapSetID:952540

[Difficulty]
HPDrainRate:5.5
CircleSize:5
OverallDifficulty:5.5
ApproachRate:5
SliderMultiplier:1.4
SliderTickRate:1

[Events]
//Background and Video events
0,0,"final_map_study_2.jpg",0,-45
//Break Periods
//Storyboard Layer 0 (Background)
//Storyboard Layer 1 (Fail)
//Storyboard Layer 2 (Pass)
//Storyboard Layer 3 (Foreground)
//Storyboard Layer 4 (Overlay)
//Storyboard Sound Samples

[TimingPoints]
4592,375,4,1,0,50,1,0
5998,-100,4,1,0,55,0,0
7498,-100,4,1,0,60,0,0
8998,-100,4,1,0,65,0,0
10498,-100,4,1,0,70,0,0
11998,-100,4,1,0,75,0,0
29998,-100,4,1,0,60,0,0
41248,-100,4,1,0,80,0,0
108092,-100,4,1,0,80,0,1
114092,-100,4,1,0,75,0,0

[HitObjects]
304,214,5342,5,0,0:0:0:0:
304,214,5529,1,0,0:0:0:0:
304,214,5623,1,0,0:0:0:0:
304,214,5717,1,8,0:0:0:0:
304,214,5904,1,8,0:0:0:0:
304,214,6092,5,0,0:0:0:0:
309,222,6279,1,8,0:0:0:0:
309,222,6373,1,8,0:0:0:0:
309,222,6467,1,0,0:0:0:0:
315,236,6654,1,0,0:0:0:0:
315,236,6842,1,8,0:0:0:0:
316,233,7029,1,8,0:0:0:0:
315,233,7217,1,0,0:0:0:0:
315,233,7404,1,8,0:0:0:0:
311,230,7779,1,8,0:0:0:0:
311,230,7873,1,8,0:0:0:0:
311,230,7967,1,0,0:0:0:0:
315,233,8154,1,0,0:0:0:0:
315,233,8342,1,8,0:0:0:0:
311,230,8529,1,0,0:0:0:0:
311,230,8623,1,8,0:0:0:0:
311,230,8717,1,8,0:0:0:0:
311,230,8904,1,8,0:0:0:0:
288,229,9092,5,0,0:0:0:0:
289,229,9279,1,8,0:0:0:0:
280,208,9373,1,0,0:0:0:0:
289,229,9467,1,0,0:0:0:0:
289,229,9654,1,8,0:0:0:0:
289,229,9842,1,8,0:0:0:0:
288,229,10029,1,0,0:0:0:0:
289,229,10217,1,8,0:0:0:0:
289,229,10592,5,8,0:0:0:0:
289,229,10779,1,0,0:0:0:0:
288,229,10967,1,8,0:0:0:0:
289,229,11154,1,0,0:0:0:0:
289,229,11342,1,8,0:0:0:0:
289,229,11529,1,0,0:0:0:0:
285,237,11623,1,8,0:0:0:0:
289,229,11717,1,8,0:0:0:0:
288,229,11904,1,8,0:0:0:0:
289,229,12092,5,0,0:0:0:0:
289,229,12279,1,0,0:0:0:0:
289,229,12467,1,8,0:0:0:0:
289,229,12654,1,8,0:0:0:0:
288,229,12748,1,8,0:0:0:0:
288,229,12842,1,0,0:0:0:0:
289,229,13029,1,8,0:0:0:0:
289,229,13217,1,0,0:0:0:0:
289,229,13404,1,0,0:0:0:0:
289,229,13498,1,8,0:0:0:0:
289,229,13592,5,8,0:0:0:0:
288,229,13779,1,8,0:0:0:0:
289,229,13967,1,0,0:0:0:0:
289,229,14154,1,8,0:0:0:0:
289,229,14529,1,8,0:0:0:0:
289,229,14623,1,8,0:0:0:0:
288,229,14717,1,0,0:0:0:0:
289,229,14904,1,0,0:0:0:0:
289,229,15092,5,8,0:0:0:0:
289,229,15279,1,0,0:0:0:0:
289,229,15373,1,8,0:0:0:0:
289,229,15467,1,8,0:0:0:0:
288,229,15654,1,8,0:0:0:0:
289,229,16029,1,8,0:0:0:0:
303,222,16123,1,0,0:0:0:0:
289,229,16217,1,0,0:0:0:0:
301,222,16404,1,8,0:0:0:0:
288,229,16592,5,8,0:0:0:0:
289,229,16779,1,0,0:0:0:0:
289,229,16967,1,8,0:0:0:0:
289,229,17154,1,0,0:0:0:0:
289,229,17342,1,8,0:0:0:0:
288,229,17529,1,0,0:0:0:0:
289,229,17717,1,8,0:0:0:0:
289,229,17904,1,8,0:0:0:0:
301,233,17998,1,8,0:0:0:0:
289,229,18092,5,0,0:0:0:0:
297,241,18279,1,8,0:0:0:0:
297,241,18373,1,0,0:0:0:0:
297,241,18467,1,8,0:0:0:0:
296,241,18654,1,0,0:0:0:0:
296,241,18842,1,8,0:0:0:0:
296,241,19029,1,8,0:0:0:0:
321,223,19217,1,0,0:0:0:0:
321,223,19404,1,8,0:0:0:0:
321,223,19779,1,8,0:0:0:0:
321,223,19873,1,8,0:0:0:0:
321,223,19967,1,0,0:0:0:0:
321,223,20154,1,0,0:0:0:0:
321,223,20342,1,8,0:0:0:0:
321,223,20529,1,0,0:0:0:0:
321,223,20623,1,8,0:0:0:0:
321,223,20717,1,8,0:0:0:0:
321,223,20904,1,8,0:0:0:0:
321,223,21092,5,0,0:0:0:0:
321,223,21279,1,8,0:0:0:0:
321,223,21373,1,8,0:0:0:0:
321,223,21467,1,0,0:0:0:0:
321,223,21654,1,0,0:0:0:0:
321,223,21842,1,8,0:0:0:0:
321,223,22029,1,0,0:0:0:0:
321,223,22217,1,8,0:0:0:0:
321,223,22592,5,8,0:0:0:0:
321,223,22779,1,0,0:0:0:0:
321,223,22967,1,8,0:0:0:0:
321,223,23154,1,0,0:0:0:0:
308,229,23342,1,8,0:0:0:0:
321,223,23529,1,0,0:0:0:0:
330,229,23623,1,8,0:0:0:0:
321,223,23717,1,8,0:0:0:0:
321,223,23904,1,8,0:0:0:0:
321,223,24092,5,0,0:0:0:0:
308,229,24279,1,8,0:0:0:0:
308,229,24373,1,8,0:0:0:0:
311,231,24467,1,0,0:0:0:0:
311,231,24654,1,0,0:0:0:0:
311,231,24842,1,8,0:0:0:0:
311,231,25029,1,8,0:0:0:0:
332,212,25217,1,0,0:0:0:0:
332,234,25404,5,8,0:0:0:0:
332,234,25779,1,8,0:0:0:0:
332,234,25873,1,0,0:0:0:0:
332,234,25967,1,8,0:0:0:0:
332,234,26154,1,0,0:0:0:0:
332,234,26342,1,8,0:0:0:0:
317,212,26529,1,0,0:0:0:0:
317,212,26623,1,8,0:0:0:0:
319,212,26717,1,8,0:0:0:0:
319,212,26904,1,8,0:0:0:0:
319,212,27092,5,0,0:0:0:0:
319,212,27279,1,8,0:0:0:0:
321,223,27373,1,0,0:0:0:0:
317,212,27467,1,0,0:0:0:0:
319,212,27654,1,8,0:0:0:0:
319,212,27842,1,8,0:0:0:0:
319,212,28029,1,0,0:0:0:0:
319,212,28217,1,8,0:0:0:0:
319,212,28592,5,8,0:0:0:0:
319,212,28779,1,0,0:0:0:0:
319,212,28967,1,8,0:0:0:0:
319,212,29154,1,0,0:0:0:0:
317,212,29342,1,8,0:0:0:0:
319,212,29529,1,0,0:0:0:0:
315,224,29623,1,8,0:0:0:0:
319,212,29717,1,8,0:0:0:0:
319,212,29904,1,8,0:0:0:0:
319,212,30092,5,0,0:0:0:0:
335,219,30467,1,0,0:0:0:0:
335,219,30842,1,0,0:0:0:0:
335,219,31217,1,0,0:0:0:0:
335,219,31592,1,8,0:0:0:0:
335,219,31967,1,8,0:0:0:0:
335,219,32342,1,8,0:0:0:0:
335,219,32717,1,8,0:0:0:0:
335,219,33092,1,0,0:0:0:0:
335,219,33467,1,0,0:0:0:0:
335,219,33842,1,8,0:0:0:0:
335,219,34217,1,0,0:0:0:0:
335,219,34592,1,8,0:0:0:0:
335,219,34967,1,0,0:0:0:0:
335,219,35342,1,8,0:0:0:0:
335,219,35717,1,8,0:0:0:0:
335,219,36092,1,0,0:0:0:0:
335,219,36467,1,0,0:0:0:0:
335,219,36842,1,0,0:0:0:0:
335,219,37217,1,0,0:0:0:0:
335,219,37592,1,8,0:0:0:0:
335,219,37967,1,8,0:0:0:0:
335,219,38342,1,8,0:0:0:0:
335,219,38717,1,8,0:0:0:0:
335,219,39092,1,0,0:0:0:0:
335,219,39467,1,0,0:0:0:0:
335,219,39842,1,8,0:0:0:0:
335,219,40217,5,0,0:0:0:0:
335,219,40592,1,8,0:0:0:0:
335,219,40967,1,0,0:0:0:0:
232,174,41342,2,0,L|187:190,6,35
263,196,42092,5,0,0:0:0:0:
263,210,42279,1,0,0:0:0:0:
263,210,42373,1,0,0:0:0:0:
263,210,42467,1,8,0:0:0:0:
266,209,42654,1,0,0:0:0:0:
266,209,42748,1,8,0:0:0:0:
266,209,42842,1,0,0:0:0:0:
266,209,43029,1,8,0:0:0:0:
263,210,43217,1,8,0:0:0:0:
263,210,43404,1,0,0:0:0:0:
276,227,43779,1,8,0:0:0:0:
276,227,43873,1,8,0:0:0:0:
276,227,43967,1,0,0:0:0:0:
281,229,44154,1,8,0:0:0:0:
287,229,44342,1,0,0:0:0:0:
292,242,44435,1,8,0:0:0:0:
292,242,44529,1,0,0:0:0:0:
292,242,44717,1,8,0:0:0:0:
292,242,44904,1,0,0:0:0:0:
281,229,45092,5,0,0:0:0:0:
292,242,45279,1,8,0:0:0:0:
302,241,45373,1,0,0:0:0:0:
292,242,45467,1,8,0:0:0:0:
292,242,45654,1,8,0:0:0:0:
298,242,45748,1,8,0:0:0:0:
298,242,45842,1,0,0:0:0:0:
284,234,46029,1,0,0:0:0:0:
284,234,46217,1,8,0:0:0:0:
284,234,46404,1,0,0:0:0:0:
262,222,46779,1,8,0:0:0:0:
276,229,46873,1,8,0:0:0:0:
262,223,46967,1,0,0:0:0:0:
265,223,47154,1,8,0:0:0:0:
288,228,47342,1,0,0:0:0:0:
276,229,47435,1,8,0:0:0:0:
276,229,47529,1,0,0:0:0:0:
276,229,47717,1,8,0:0:0:0:
276,229,47904,1,0,0:0:0:0:
276,229,48092,5,0,0:0:0:0:
280,231,48279,1,0,0:0:0:0:
280,231,48373,1,8,0:0:0:0:
280,231,48467,1,0,0:0:0:0:
280,231,48654,1,8,0:0:0:0:
280,231,48842,1,8,0:0:0:0:
280,231,49029,1,0,0:0:0:0:
280,231,49123,1,8,0:0:0:0:
280,231,49217,1,8,0:0:0:0:
280,231,49310,1,0,0:0:0:0:
280,231,49404,1,8,0:0:0:0:
268,233,49779,1,8,0:0:0:0:
273,214,49967,1,0,0:0:0:0:
273,214,50060,1,0,0:0:0:0:
273,214,50154,1,8,0:0:0:0:
273,214,50342,1,8,0:0:0:0:
273,214,50529,1,0,0:0:0:0:
273,214,50623,1,8,0:0:0:0:
273,214,50717,1,0,0:0:0:0:
273,214,50904,1,8,0:0:0:0:
273,214,50998,1,8,0:0:0:0:
273,214,51092,5,0,0:0:0:0:
283,244,51185,1,8,0:0:0:0:
273,214,51279,1,0,0:0:0:0:
273,214,51467,1,8,0:0:0:0:
267,186,51654,1,0,0:0:0:0:
273,214,51842,1,8,0:0:0:0:
263,197,51935,1,8,0:0:0:0:
263,197,52029,1,0,0:0:0:0:
263,197,52217,1,8,0:0:0:0:
263,197,52404,1,0,0:0:0:0:
263,197,52498,1,8,0:0:0:0:
263,197,52592,5,0,0:0:0:0:
263,197,52779,1,8,0:0:0:0:
263,197,52967,1,8,0:0:0:0:
263,197,53060,1,8,0:0:0:0:
263,197,53154,1,0,0:0:0:0:
263,197,53342,1,8,0:0:0:0:
263,197,53435,1,8,0:0:0:0:
263,197,53529,1,0,0:0:0:0:
263,197,53623,1,0,0:0:0:0:
204,177,53717,1,8,0:0:0:0:
256,195,54092,5,0,0:0:0:0:
256,195,54279,1,8,0:0:0:0:
256,195,54373,1,8,0:0:0:0:
256,195,54467,1,0,0:0:0:0:
256,195,54654,1,0,0:0:0:0:
250,201,54842,1,8,0:0:0:0:
256,220,55029,1,0,0:0:0:0:
256,220,55123,1,8,0:0:0:0:
259,210,55217,1,0,0:0:0:0:
263,227,55404,1,8,0:0:0:0:
263,227,55779,1,8,0:0:0:0:
263,227,55873,1,8,0:0:0:0:
263,227,55967,1,0,0:0:0:0:
263,227,56154,1,0,0:0:0:0:
287,203,56342,1,8,0:0:0:0:
287,203,56529,1,0,0:0:0:0:
287,203,56623,1,8,0:0:0:0:
287,203,56717,1,8,0:0:0:0:
287,203,56904,1,8,0:0:0:0:
287,203,57092,5,0,0:0:0:0:
287,203,57279,1,8,0:0:0:0:
292,220,57373,1,0,0:0:0:0:
287,203,57467,1,0,0:0:0:0:
287,203,57654,1,8,0:0:0:0:
287,203,57842,1,8,0:0:0:0:
295,211,58029,1,0,0:0:0:0:
295,211,58217,1,8,0:0:0:0:
295,211,58592,5,8,0:0:0:0:
295,211,58779,1,0,0:0:0:0:
295,211,58967,1,8,0:0:0:0:
246,217,59154,1,0,0:0:0:0:
295,211,59342,1,8,0:0:0:0:
295,211,59529,1,0,0:0:0:0:
305,201,59623,1,8,0:0:0:0:
295,211,59717,1,8,0:0:0:0:
295,211,59904,1,8,0:0:0:0:
295,211,60092,5,0,0:0:0:0:
295,211,60279,1,0,0:0:0:0:
295,211,60373,1,8,0:0:0:0:
295,211,60467,1,0,0:0:0:0:
295,211,60654,1,8,0:0:0:0:
295,211,60842,1,8,0:0:0:0:
295,211,61029,1,8,0:0:0:0:
295,211,61123,1,8,0:0:0:0:
295,211,61217,1,0,0:0:0:0:
295,211,61310,1,0,0:0:0:0:
295,211,61404,1,8,0:0:0:0:
285,227,61779,1,8,0:0:0:0:
278,208,61967,5,0,0:0:0:0:
232,188,62060,1,0,0:0:0:0:
278,208,62154,1,8,0:0:0:0:
229,210,62342,1,8,0:0:0:0:
233,207,62529,1,0,0:0:0:0:
242,197,62623,1,8,0:0:0:0:
233,207,62717,1,0,0:0:0:0:
233,207,62904,1,8,0:0:0:0:
229,210,63092,5,0,0:0:0:0:
255,203,63373,1,0,0:0:0:0:
237,185,63467,1,8,0:0:0:0:
271,198,63592,1,0,0:0:0:0:
257,198,63717,1,0,0:0:0:0:
220,199,63842,1,8,0:0:0:0:
226,235,64029,1,0,0:0:0:0:
258,216,64217,1,8,0:0:0:0:
241,199,64592,1,8,0:0:0:0:
226,235,64779,1,0,0:0:0:0:
258,216,64967,1,8,0:0:0:0:
241,199,65342,1,8,0:0:0:0:
267,210,65529,1,0,0:0:0:0:
265,214,65717,1,8,0:0:0:0:
263,216,66092,5,0,0:0:0:0:
267,211,66279,1,8,0:0:0:0:
265,214,66467,1,0,0:0:0:0:
265,214,66560,1,0,0:0:0:0:
265,214,66654,1,8,0:0:0:0:
265,214,66842,1,0,0:0:0:0:
265,211,67029,1,0,0:0:0:0:
265,211,67123,1,8,0:0:0:0:
267,211,67217,1,0,0:0:0:0:
254,218,67404,1,8,0:0:0:0:
251,217,67779,1,0,0:0:0:0:
257,217,67873,1,8,0:0:0:0:
250,231,67967,1,0,0:0:0:0:
250,231,68154,1,8,0:0:0:0:
251,231,68342,1,0,0:0:0:0:
252,231,68435,1,8,0:0:0:0:
248,234,68529,1,0,0:0:0:0:
253,231,68623,1,0,0:0:0:0:
253,231,68717,1,8,0:0:0:0:
254,231,68904,1,0,0:0:0:0:
263,231,68998,1,8,0:0:0:0:
263,231,69092,5,0,0:0:0:0:
251,231,69279,1,8,0:0:0:0:
270,221,69467,1,0,0:0:0:0:
270,221,69842,1,8,0:0:0:0:
270,221,69935,1,8,0:0:0:0:
270,221,70029,1,0,0:0:0:0:
270,221,70217,1,8,0:0:0:0:
270,221,70404,1,8,0:0:0:0:
270,221,70592,5,0,0:0:0:0:
270,221,70779,1,0,0:0:0:0:
270,221,70873,1,8,0:0:0:0:
270,221,70967,1,0,0:0:0:0:
270,221,71154,1,8,0:0:0:0:
270,221,71342,1,8,0:0:0:0:
270,221,71435,1,0,0:0:0:0:
270,221,71529,1,8,0:0:0:0:
271,221,71717,1,0,0:0:0:0:
271,221,71810,1,0,0:0:0:0:
271,221,71904,1,8,0:0:0:0:
271,221,71998,1,8,0:0:0:0:
270,221,72092,5,0,0:0:0:0:
263,230,72279,1,0,0:0:0:0:
264,230,72373,1,8,0:0:0:0:
264,230,72467,1,0,0:0:0:0:
264,230,72654,1,8,0:0:0:0:
264,230,72842,1,0,0:0:0:0:
288,218,73029,1,8,0:0:0:0:
288,218,73123,1,0,0:0:0:0:
263,230,73217,1,8,0:0:0:0:
295,216,73592,5,8,0:0:0:0:
288,218,73779,1,8,0:0:0:0:
288,218,73873,1,0,0:0:0:0:
264,194,73967,1,0,0:0:0:0:
264,194,74154,1,8,0:0:0:0:
264,194,74342,1,0,0:0:0:0:
267,188,74529,1,8,0:0:0:0:
267,188,74623,1,0,0:0:0:0:
270,188,74717,1,8,0:0:0:0:
273,192,74904,1,8,0:0:0:0:
293,217,75092,5,0,0:0:0:0:
293,217,75279,1,8,0:0:0:0:
293,217,75467,1,0,0:0:0:0:
293,217,75560,1,8,0:0:0:0:
293,217,75654,1,0,0:0:0:0:
293,217,75748,1,8,0:0:0:0:
293,217,75842,1,8,0:0:0:0:
290,243,76029,1,8,0:0:0:0:
290,243,76123,1,0,0:0:0:0:
293,217,76217,1,8,0:0:0:0:
293,217,76592,5,0,0:0:0:0:
293,217,76779,1,8,0:0:0:0:
293,217,76873,1,0,0:0:0:0:
266,226,76967,1,8,0:0:0:0:
272,225,77154,1,8,0:0:0:0:
272,225,77248,1,8,0:0:0:0:
293,217,77342,1,0,0:0:0:0:
293,217,77435,1,0,0:0:0:0:
293,217,77529,1,8,0:0:0:0:
293,217,77717,1,8,0:0:0:0:
293,217,77904,1,0,0:0:0:0:
293,217,77998,1,8,0:0:0:0:
293,217,78092,5,0,0:0:0:0:
298,210,78279,1,8,0:0:0:0:
298,210,78467,1,0,0:0:0:0:
298,210,78560,1,0,0:0:0:0:
298,210,78654,1,8,0:0:0:0:
298,210,78842,1,0,0:0:0:0:
297,210,79029,1,0,0:0:0:0:
298,210,79123,1,8,0:0:0:0:
298,210,79217,1,0,0:0:0:0:
266,196,79404,1,8,0:0:0:0:
298,203,79779,1,8,0:0:0:0:
298,203,79873,1,0,0:0:0:0:
298,203,79967,1,0,0:0:0:0:
298,203,80154,1,8,0:0:0:0:
322,231,80342,1,0,0:0:0:0:
321,203,80529,1,8,0:0:0:0:
321,203,80717,1,8,0:0:0:0:
293,209,80810,1,8,0:0:0:0:
321,203,80904,1,0,0:0:0:0:
321,204,80998,1,8,0:0:0:0:
321,203,81092,5,0,0:0:0:0:
293,209,81279,1,8,0:0:0:0:
321,203,81467,1,0,0:0:0:0:
321,203,81842,1,8,0:0:0:0:
321,203,81935,1,8,0:0:0:0:
321,204,82029,1,0,0:0:0:0:
321,203,82217,1,8,0:0:0:0:
288,224,82310,1,0,0:0:0:0:
321,203,82404,1,8,0:0:0:0:
311,205,82592,5,0,0:0:0:0:
298,210,82779,1,0,0:0:0:0:
298,210,82873,1,8,0:0:0:0:
298,210,82967,1,8,0:0:0:0:
298,210,83154,1,0,0:0:0:0:
298,210,83342,1,8,0:0:0:0:
298,210,83529,1,8,0:0:0:0:
265,208,83717,1,0,0:0:0:0:
265,208,83810,1,0,0:0:0:0:
265,208,83904,1,8,0:0:0:0:
265,208,83998,1,8,0:0:0:0:
265,208,84092,5,0,0:0:0:0:
276,220,84279,1,0,0:0:0:0:
276,220,84373,1,8,0:0:0:0:
276,220,84467,1,0,0:0:0:0:
276,220,84654,1,8,0:0:0:0:
274,225,84842,1,0,0:0:0:0:
262,199,85029,1,8,0:0:0:0:
262,199,85123,1,0,0:0:0:0:
274,225,85217,1,8,0:0:0:0:
264,210,85592,5,8,0:0:0:0:
263,216,85779,1,0,0:0:0:0:
263,216,85873,1,8,0:0:0:0:
263,216,85967,1,0,0:0:0:0:
263,216,86154,1,8,0:0:0:0:
263,216,86342,1,8,0:0:0:0:
263,216,86529,1,8,0:0:0:0:
263,216,86623,1,8,0:0:0:0:
263,216,86717,1,0,0:0:0:0:
263,216,86904,1,8,0:0:0:0:
263,216,87092,5,0,0:0:0:0:
263,216,87279,1,8,0:0:0:0:
263,216,87467,1,0,0:0:0:0:
263,216,87560,1,8,0:0:0:0:
263,216,87654,1,0,0:0:0:0:
263,216,87748,1,8,0:0:0:0:
263,216,87842,1,8,0:0:0:0:
276,194,88029,1,8,0:0:0:0:
276,194,88123,1,0,0:0:0:0:
263,216,88217,1,8,0:0:0:0:
293,217,88592,5,0,0:0:0:0:
293,217,88685,1,8,0:0:0:0:
293,217,88779,1,0,0:0:0:0:
266,226,88967,1,8,0:0:0:0:
272,225,89154,1,0,0:0:0:0:
272,225,89248,1,8,0:0:0:0:
293,217,89342,1,0,0:0:0:0:
293,217,89435,1,8,0:0:0:0:
293,217,89529,1,8,0:0:0:0:
293,217,89717,1,8,0:0:0:0:
293,217,89904,1,0,0:0:0:0:
293,217,89998,1,8,0:0:0:0:
293,217,90092,5,0,0:0:0:0:
274,225,90279,1,8,0:0:0:0:
275,226,90467,1,0,0:0:0:0:
275,226,90560,1,0,0:0:0:0:
276,226,90654,1,8,0:0:0:0:
276,226,90842,1,0,0:0:0:0:
276,226,91029,1,0,0:0:0:0:
276,226,91123,1,8,0:0:0:0:
274,225,91217,1,0,0:0:0:0:
253,214,91404,1,8,0:0:0:0:
276,226,91779,1,0,0:0:0:0:
276,226,91873,1,8,0:0:0:0:
276,226,91967,1,0,0:0:0:0:
283,228,92154,1,8,0:0:0:0:
283,228,92342,1,0,0:0:0:0:
283,228,92435,1,8,0:0:0:0:
283,228,92529,1,0,0:0:0:0:
283,228,92717,1,8,0:0:0:0:
283,228,92810,1,8,0:0:0:0:
283,228,92904,1,0,0:0:0:0:
283,228,92998,1,8,0:0:0:0:
283,228,93092,5,0,0:0:0:0:
288,227,93279,1,8,0:0:0:0:
288,227,93467,1,0,0:0:0:0:
291,223,93842,1,8,0:0:0:0:
291,223,93935,1,8,0:0:0:0:
291,223,94029,1,0,0:0:0:0:
291,223,94123,1,0,0:0:0:0:
291,223,94217,1,8,0:0:0:0:
291,223,94404,1,8,0:0:0:0:
286,235,94592,5,8,0:0:0:0:
291,223,94779,1,0,0:0:0:0:
291,223,94873,1,8,0:0:0:0:
291,223,94967,1,0,0:0:0:0:
276,217,95154,1,8,0:0:0:0:
276,217,95342,1,8,0:0:0:0:
256,225,95435,1,0,0:0:0:0:
276,217,95529,1,8,0:0:0:0:
261,212,95717,1,0,0:0:0:0:
261,212,95810,1,0,0:0:0:0:
261,212,95904,1,8,0:0:0:0:
261,212,95998,1,8,0:0:0:0:
276,217,96092,5,0,0:0:0:0:
276,217,96279,1,0,0:0:0:0:
276,217,96373,1,8,0:0:0:0:
276,217,96467,1,0,0:0:0:0:
276,217,96654,1,8,0:0:0:0:
228,246,96842,1,0,0:0:0:0:
253,220,97029,1,8,0:0:0:0:
253,220,97123,1,0,0:0:0:0:
264,218,97217,1,8,0:0:0:0:
252,202,97592,5,8,0:0:0:0:
288,221,97779,1,0,0:0:0:0:
288,221,97873,1,8,0:0:0:0:
288,221,97967,1,0,0:0:0:0:
288,221,98154,1,0,0:0:0:0:
288,221,98342,1,8,0:0:0:0:
276,213,98529,1,8,0:0:0:0:
276,213,98623,1,0,0:0:0:0:
288,221,98717,1,8,0:0:0:0:
288,221,98904,1,8,0:0:0:0:
288,221,98998,1,8,0:0:0:0:
288,221,99092,5,0,0:0:0:0:
288,221,99279,1,8,0:0:0:0:
288,221,99467,1,0,0:0:0:0:
288,221,99560,1,8,0:0:0:0:
288,221,99654,1,0,0:0:0:0:
288,221,99748,1,8,0:0:0:0:
288,221,99842,1,0,0:0:0:0:
268,262,100029,1,8,0:0:0:0:
268,262,100123,1,0,0:0:0:0:
288,221,100217,1,8,0:0:0:0:
278,251,100592,5,0,0:0:0:0:
288,221,100685,1,8,0:0:0:0:
281,238,100779,1,0,0:0:0:0:
288,221,100967,1,8,0:0:0:0:
278,251,101154,1,8,0:0:0:0:
288,221,101248,1,8,0:0:0:0:
288,221,101342,1,0,0:0:0:0:
259,232,101435,1,0,0:0:0:0:
288,221,101529,1,8,0:0:0:0:
288,221,101717,1,8,0:0:0:0:
288,221,101904,1,8,0:0:0:0:
288,221,101998,1,8,0:0:0:0:
288,221,102092,5,0,0:0:0:0:
288,221,102279,1,0,0:0:0:0:
301,229,102373,1,8,0:0:0:0:
302,229,102467,1,0,0:0:0:0:
302,229,102654,1,8,0:0:0:0:
297,230,102842,1,0,0:0:0:0:
313,234,103029,1,0,0:0:0:0:
288,221,103123,1,8,0:0:0:0:
306,229,103217,1,0,0:0:0:0:
308,229,103404,1,8,0:0:0:0:
308,229,103779,1,8,0:0:0:0:
308,229,103873,1,8,0:0:0:0:
304,229,103967,1,0,0:0:0:0:
306,229,104154,1,8,0:0:0:0:
308,229,104342,1,8,0:0:0:0:
308,229,104435,1,8,0:0:0:0:
308,229,104529,1,0,0:0:0:0:
308,229,104623,1,8,0:0:0:0:
308,229,104717,1,0,0:0:0:0:
308,229,104904,1,8,0:0:0:0:
311,231,105092,5,0,0:0:0:0:
308,229,105279,1,0,0:0:0:0:
308,229,105373,1,8,0:0:0:0:
308,229,105467,1,0,0:0:0:0:
308,229,105654,1,8,0:0:0:0:
308,229,105842,1,0,0:0:0:0:
311,231,106029,1,8,0:0:0:0:
311,231,106123,1,0,0:0:0:0:
308,229,106217,5,0,0:0:0:0:
312,232,106404,1,8,0:0:0:0:
312,232,106779,1,8,0:0:0:0:
311,231,106873,1,8,0:0:0:0:
311,231,106967,1,0,0:0:0:0:
311,231,107154,1,8,0:0:0:0:
304,261,107342,1,8,0:0:0:0:
304,261,107435,1,0,0:0:0:0:
304,261,107529,1,8,0:0:0:0:
304,261,107717,1,0,0:0:0:0:
304,261,107810,1,0,0:0:0:0:
304,261,107904,1,8,0:0:0:0:
304,251,108092,5,8,0:0:0:0:
304,251,108185,1,0,0:0:0:0:
304,251,108279,1,0,0:0:0:0:
304,251,108467,1,8,0:0:0:0:
304,251,108654,1,8,0:0:0:0:
304,251,108748,1,0,0:0:0:0:
304,251,108842,1,0,0:0:0:0:
304,251,109029,1,8,0:0:0:0:
304,251,109217,1,8,0:0:0:0:
304,251,109310,1,0,0:0:0:0:
304,251,109404,1,0,0:0:0:0:
304,251,109592,5,8,0:0:0:0:
304,251,109779,1,8,0:0:0:0:
304,251,109873,1,0,0:0:0:0:
304,251,109967,1,0,0:0:0:0:
304,251,110060,1,8,0:0:0:0:
304,251,110154,1,0,0:0:0:0:
304,251,110342,1,8,0:0:0:0:
304,251,110435,1,8,0:0:0:0:
304,251,110529,1,0,0:0:0:0:
304,251,110623,1,8,0:0:0:0:
304,251,110717,1,0,0:0:0:0:
304,251,110904,1,8,0:0:0:0:
304,251,111092,5,0,0:0:0:0:
304,251,111185,1,8,0:0:0:0:
304,251,111279,1,8,0:0:0:0:
304,251,111373,1,0,0:0:0:0:
304,251,111467,1,8,0:0:0:0:
304,251,111654,1,0,0:0:0:0:
304,251,111748,1,8,0:0:0:0:
304,251,111842,1,8,0:0:0:0:
304,251,112029,1,8,0:0:0:0:
304,251,112217,1,0,0:0:0:0:
304,251,112310,1,8,0:0:0:0:
304,251,112404,1,8,0:0:0:0:
304,251,112592,5,8,0:0:0:0:
304,251,112779,1,0,0:0:0:0:
304,251,112873,1,8,0:0:0:0:
276,249,112967,1,0,0:0:0:0:
304,251,113154,1,8,0:0:0:0:
304,251,113248,1,0,0:0:0:0:
304,251,113342,1,8,0:0:0:0:
304,251,113435,1,0,0:0:0:0:
304,251,113529,1,8,0:0:0:0:
304,251,113717,1,8,0:0:0:0:
304,251,113810,1,8,0:0:0:0:
304,251,113904,1,8,0:0:0:0:
304,251,114092,5,0,0:0:0:0:
311,250,114467,1,0,0:0:0:0:
314,242,114654,1,0,0:0:0:0:
314,242,114748,1,0,0:0:0:0:
307,243,114842,5,0,0:0:0:0:
308,243,115029,1,8,0:0:0:0:
308,243,115217,1,0,0:0:0:0:
308,243,115404,1,8,0:0:0:0:
314,249,115592,1,0,0:0:0:0:
314,249,115685,1,0,0:0:0:0:
308,243,115967,1,0,0:0:0:0:
280,243,116029,1,0,0:0:0:0:
267,233,116092,1,0,0:0:0:0:
289,236,116342,1,0,0:0:0:0:
286,233,116529,1,8,0:0:0:0:
286,233,116717,1,0,0:0:0:0:
287,233,116904,1,8,0:0:0:0:
274,218,117092,1,0,0:0:0:0:
270,234,117185,1,0,0:0:0:0:
270,234,117467,1,0,0:0:0:0:
270,234,117560,1,0,0:0:0:0:
270,234,117842,1,8,0:0:0:0:
252,218,118029,1,0,0:0:0:0:
232,267,118123,1,8,0:0:0:0:
256,221,118217,1,0,0:0:0:0:
257,221,118404,1,8,0:0:0:0:
257,221,118592,1,0,0:0:0:0:
258,221,118779,1,0,0:0:0:0:
256,214,118967,1,0,0:0:0:0:
257,231,119154,1,0,0:0:0:0:
257,231,119342,1,0,0:0:0:0:
252,244,119717,1,0,0:0:0:0:
252,244,120092,1,8,0:0:0:0:
231,248,120467,1,0,0:0:0:0:
239,240,120654,1,0,0:0:0:0:
239,240,120748,1,0,0:0:0:0:
236,251,120842,1,0,0:0:0:0:
236,251,121029,1,8,0:0:0:0:
236,251,121217,1,0,0:0:0:0:
241,248,121404,1,8,0:0:0:0:
241,248,121592,1,0,0:0:0:0:
241,248,121685,1,0,0:0:0:0:
248,242,121967,1,0,0:0:0:0:
247,242,122029,1,0,0:0:0:0:
254,251,122092,1,0,0:0:0:0:
246,255,122342,1,0,0:0:0:0:
259,246,122529,1,8,0:0:0:0:
250,239,122717,1,0,0:0:0:0:
248,242,122904,1,8,0:0:0:0:
254,252,123092,1,0,0:0:0:0:
249,246,123185,1,0,0:0:0:0:
249,246,123467,1,0,0:0:0:0:
248,246,123560,1,0,0:0:0:0:
261,254,123842,1,8,0:0:0:0:
265,249,124029,1,0,0:0:0:0:
263,257,124123,1,8,0:0:0:0:
265,249,124217,1,0,0:0:0:0:
265,249,124404,1,8,0:0:0:0:
265,249,124592,1,0,0:0:0:0:
265,249,124779,1,0,0:0:0:0:
265,249,124967,1,0,0:0:0:0:
265,249,125154,1,0,0:0:0:0:
265,249,125342,1,0,0:0:0:0:
265,249,125529,1,0,0:0:0:0:
265,249,125717,1,0,0:0:0:0:
265,249,126092,1,8,0:0:0:0:
