osu file format v14

[General]
AudioFilename: audio.mp3
AudioLeadIn: 0
PreviewTime: 42185
Countdown: 0
SampleSet: Normal
StackLeniency: 0.7
Mode: 1
LetterboxInBreaks: 0
WidescreenStoryboard: 1

[Editor]
DistanceSpacing: 0.8
BeatDivisor: 4
GridSize: 32
TimelineZoom: 2

[Metadata]
Title:Just Briefly (Remix)
TitleUnicode:Just Briefly (Remix)
Artist:Jogger
ArtistUnicode:Jogger
Creator:ZTH
Version:Kantan
Source:
Tags:This Great Pressure experimental electronic instrumental Daedelus
BeatmapID:2469801
BeatmapSetID:952540

[Difficulty]
HPDrainRate:8
CircleSize:5
OverallDifficulty:3
ApproachRate:5
SliderMultiplier:1.4
SliderTickRate:1

[Events]
//Background and Video events
0,0,"final_map_study_2.jpg",0,-45
//Break Periods
//Storyboard Layer 0 (Background)
//Storyboard Layer 1 (Fail)
//Storyboard Layer 2 (Pass)
//Storyboard Layer 3 (Foreground)
//Storyboard Layer 4 (Overlay)
//Storyboard Sound Samples

[TimingPoints]
4592,375,4,1,0,50,1,0
5998,-100,4,1,0,55,0,0
7498,-100,4,1,0,60,0,0
8998,-100,4,1,0,65,0,0
10498,-100,4,1,0,70,0,0
11998,-100,4,1,0,75,0,0
29998,-100,4,1,0,60,0,0
41248,-100,4,1,0,80,0,0
108092,-100,4,1,0,80,0,1
114092,-100,4,1,0,75,0,0

[HitObjects]
263,239,5342,5,0,0:0:0:0:
263,239,5717,1,8,0:0:0:0:
263,239,6092,1,0,0:0:0:0:
43,203,6842,1,8,0:0:0:0:
258,238,7217,1,0,0:0:0:0:
149,238,7967,1,0,0:0:0:0:
39,202,8342,1,8,0:0:0:0:
167,256,8717,1,8,0:0:0:0:
39,202,9092,1,0,0:0:0:0:
262,240,10217,1,8,0:0:0:0:
38,201,10592,1,8,0:0:0:0:
251,239,10967,1,8,0:0:0:0:
298,326,11342,1,0,0:0:0:0:
248,233,12092,1,0,0:0:0:0:
25,243,12842,1,0,0:0:0:0:
233,251,13217,1,0,0:0:0:0:
244,253,13592,1,8,0:0:0:0:
250,253,13967,1,0,0:0:0:0:
246,275,14717,1,8,0:0:0:0:
30,244,15092,1,0,0:0:0:0:
358,257,16217,1,0,0:0:0:0:
252,252,16592,1,8,0:0:0:0:
139,249,16967,1,8,0:0:0:0:
244,252,17342,1,0,0:0:0:0:
62,368,18092,1,0,0:0:0:0:
244,252,18842,1,8,0:0:0:0:
56,372,19217,1,0,0:0:0:0:
143,316,19967,1,0,0:0:0:0:
230,260,20342,1,8,0:0:0:0:
210,283,20717,1,8,0:0:0:0:
230,260,21092,1,0,0:0:0:0:
230,260,22217,1,8,0:0:0:0:
230,260,22592,1,8,0:0:0:0:
230,260,22967,1,8,0:0:0:0:
230,260,23342,1,0,0:0:0:0:
230,260,24092,1,0,0:0:0:0:
230,260,24842,1,8,0:0:0:0:
230,260,25217,1,0,0:0:0:0:
284,172,25967,1,0,0:0:0:0:
231,258,26342,1,8,0:0:0:0:
234,276,26717,1,8,0:0:0:0:
343,63,27092,1,0,0:0:0:0:
178,348,28217,1,8,0:0:0:0:
232,254,28592,1,8,0:0:0:0:
232,254,28967,1,8,0:0:0:0:
279,170,29342,1,0,0:0:0:0:
175,203,30092,1,0,0:0:0:0:
184,225,31592,1,8,0:0:0:0:
184,225,33092,1,0,0:0:0:0:
184,225,34592,1,8,0:0:0:0:
184,225,36092,1,0,0:0:0:0:
184,225,37592,1,8,0:0:0:0:
184,225,39092,1,0,0:0:0:0:
184,225,40592,1,8,0:0:0:0:
256,192,41342,12,0,41904,0:0:0:0:
262,218,42092,5,0,0:0:0:0:
226,219,42467,1,8,0:0:0:0:
174,199,42842,1,0,0:0:0:0:
274,226,43217,1,8,0:0:0:0:
47,195,43967,1,0,0:0:0:0:
274,226,44342,1,8,0:0:0:0:
274,226,45092,1,0,0:0:0:0:
218,225,45467,1,8,0:0:0:0:
274,226,45842,1,0,0:0:0:0:
274,226,46217,1,8,0:0:0:0:
286,248,46967,1,8,0:0:0:0:
286,248,47342,1,8,0:0:0:0:
187,277,48092,5,0,0:0:0:0:
204,277,49217,1,8,0:0:0:0:
212,290,49592,1,0,0:0:0:0:
83,311,49967,1,0,0:0:0:0:
188,276,50342,1,8,0:0:0:0:
289,245,50717,1,8,0:0:0:0:
187,276,51092,1,0,0:0:0:0:
398,208,51842,1,8,0:0:0:0:
191,245,52217,1,8,0:0:0:0:
253,286,52592,1,0,0:0:0:0:
195,273,52967,1,8,0:0:0:0:
293,242,53342,1,0,0:0:0:0:
291,243,53717,1,8,0:0:0:0:
190,274,54092,5,0,0:0:0:0:
191,272,55217,1,0,0:0:0:0:
395,364,55592,1,8,0:0:0:0:
289,317,55967,1,0,0:0:0:0:
190,272,56342,1,8,0:0:0:0:
270,228,56717,1,8,0:0:0:0:
395,364,57092,1,0,0:0:0:0:
226,231,58217,1,8,0:0:0:0:
405,370,58592,1,8,0:0:0:0:
320,304,58967,1,8,0:0:0:0:
235,238,59342,1,0,0:0:0:0:
235,238,60092,5,0,0:0:0:0:
244,254,60467,1,0,0:0:0:0:
235,238,60842,1,8,0:0:0:0:
235,238,61217,1,8,0:0:0:0:
235,238,61967,1,0,0:0:0:0:
235,238,62342,1,8,0:0:0:0:
235,238,62717,1,0,0:0:0:0:
235,238,63092,1,0,0:0:0:0:
235,238,63842,1,8,0:0:0:0:
235,238,64592,1,8,0:0:0:0:
235,238,65342,1,8,0:0:0:0:
235,238,66092,5,0,0:0:0:0:
247,239,67217,1,8,0:0:0:0:
245,262,67592,1,0,0:0:0:0:
247,239,67967,1,0,0:0:0:0:
247,239,68342,1,8,0:0:0:0:
247,239,69092,1,0,0:0:0:0:
255,252,69467,1,0,0:0:0:0:
247,239,69842,1,8,0:0:0:0:
242,238,70217,1,0,0:0:0:0:
242,238,70967,1,0,0:0:0:0:
242,238,71342,1,8,0:0:0:0:
212,230,72092,5,0,0:0:0:0:
206,227,73217,1,8,0:0:0:0:
212,230,73592,1,8,0:0:0:0:
204,216,74342,1,0,0:0:0:0:
208,233,74717,1,8,0:0:0:0:
212,230,75092,1,0,0:0:0:0:
212,229,75842,1,0,0:0:0:0:
222,243,76217,1,8,0:0:0:0:
212,229,76592,1,0,0:0:0:0:
212,229,76967,1,0,0:0:0:0:
212,229,77342,1,8,0:0:0:0:
225,224,77717,1,8,0:0:0:0:
212,229,78092,5,0,0:0:0:0:
204,228,79217,1,8,0:0:0:0:
204,228,79592,1,0,0:0:0:0:
204,228,79967,1,0,0:0:0:0:
204,228,80342,1,8,0:0:0:0:
204,228,80717,1,8,0:0:0:0:
204,228,81092,1,0,0:0:0:0:
204,228,82217,1,8,0:0:0:0:
204,228,82592,1,0,0:0:0:0:
204,228,82967,1,8,0:0:0:0:
204,228,83342,1,8,0:0:0:0:
204,228,84092,5,0,0:0:0:0:
199,219,84467,1,8,0:0:0:0:
204,228,84842,1,0,0:0:0:0:
199,219,85592,1,8,0:0:0:0:
201,227,85967,1,0,0:0:0:0:
199,219,86342,1,8,0:0:0:0:
199,219,87092,1,0,0:0:0:0:
199,219,87842,1,0,0:0:0:0:
202,227,88217,1,8,0:0:0:0:
202,227,88592,1,0,0:0:0:0:
210,220,88967,1,0,0:0:0:0:
202,227,89342,1,8,0:0:0:0:
202,227,89717,1,8,0:0:0:0:
202,227,90092,5,0,0:0:0:0:
217,238,91217,1,8,0:0:0:0:
202,227,91592,1,0,0:0:0:0:
202,227,91967,1,0,0:0:0:0:
202,227,92342,1,8,0:0:0:0:
202,227,93092,1,0,0:0:0:0:
217,236,93467,1,0,0:0:0:0:
202,227,93842,1,8,0:0:0:0:
202,227,94217,1,8,0:0:0:0:
202,227,94967,1,0,0:0:0:0:
202,227,95342,1,8,0:0:0:0:
202,227,96092,5,0,0:0:0:0:
202,227,97217,1,8,0:0:0:0:
215,218,97592,1,8,0:0:0:0:
215,218,98342,1,8,0:0:0:0:
215,218,98717,1,8,0:0:0:0:
215,218,99092,1,0,0:0:0:0:
215,218,99842,1,0,0:0:0:0:
225,234,100217,1,8,0:0:0:0:
215,218,100592,1,0,0:0:0:0:
215,218,100967,1,0,0:0:0:0:
215,218,101342,1,8,0:0:0:0:
226,213,101717,1,8,0:0:0:0:
253,208,102092,5,0,0:0:0:0:
253,228,103217,1,8,0:0:0:0:
253,228,103592,1,0,0:0:0:0:
234,213,103967,1,0,0:0:0:0:
253,228,104342,1,8,0:0:0:0:
253,228,104717,1,8,0:0:0:0:
253,228,105092,1,0,0:0:0:0:
253,228,106217,1,8,0:0:0:0:
253,228,106592,1,0,0:0:0:0:
225,234,106967,1,0,0:0:0:0:
253,228,107342,1,0,0:0:0:0:
253,228,107717,1,8,0:0:0:0:
228,248,108092,5,0,0:0:0:0:
241,242,108842,1,8,0:0:0:0:
227,267,109217,1,0,0:0:0:0:
230,252,109592,1,8,0:0:0:0:
237,269,109967,1,0,0:0:0:0:
246,264,110342,1,8,0:0:0:0:
253,228,110717,1,8,0:0:0:0:
230,252,111092,1,0,0:0:0:0:
208,237,112217,1,0,0:0:0:0:
230,252,112592,1,8,0:0:0:0:
219,219,112967,1,0,0:0:0:0:
230,252,113342,1,8,0:0:0:0:
230,252,113717,1,8,0:0:0:0:
230,252,114092,5,0,0:0:0:0:
241,252,114842,1,0,0:0:0:0:
243,256,115217,1,8,0:0:0:0:
241,252,115592,1,0,0:0:0:0:
241,252,116342,1,0,0:0:0:0:
243,256,116717,1,8,0:0:0:0:
241,252,117092,1,0,0:0:0:0:
241,252,118592,1,0,0:0:0:0:
241,252,118967,1,0,0:0:0:0:
241,252,119342,1,0,0:0:0:0:
249,252,119717,1,0,0:0:0:0:
241,252,120092,1,8,0:0:0:0:
241,252,120842,1,0,0:0:0:0:
233,249,121217,1,8,0:0:0:0:
241,252,121592,1,0,0:0:0:0:
241,252,122342,1,0,0:0:0:0:
233,249,122717,1,8,0:0:0:0:
241,252,123092,1,0,0:0:0:0:
241,252,124592,1,0,0:0:0:0:
241,252,124967,1,0,0:0:0:0:
241,252,125342,1,0,0:0:0:0:
252,252,125717,1,0,0:0:0:0:
241,252,126092,1,8,0:0:0:0:
