osu file format v14

[General]
AudioFilename: audio.mp3
AudioLeadIn: 0
PreviewTime: 42185
Countdown: 0
SampleSet: Normal
StackLeniency: 0.7
Mode: 1
LetterboxInBreaks: 0
WidescreenStoryboard: 0

[Editor]
DistanceSpacing: 0.8
BeatDivisor: 8
GridSize: 32
TimelineZoom: 2

[Metadata]
Title:Just Briefly (Remix)
TitleUnicode:Just Briefly (Remix)
Artist:Jogger
ArtistUnicode:Jogger
Creator:ZTH
Version:Inner Oni
Source:
Tags:This Great Pressure experimental electronic instrumental Daedelus
BeatmapID:1988980
BeatmapSetID:952540

[Difficulty]
HPDrainRate:5
CircleSize:5
OverallDifficulty:6
ApproachRate:5
SliderMultiplier:1.4
SliderTickRate:1

[Events]
//Background and Video events
0,0,"final_map_study_2.jpg",0,-45
//Break Periods
//Storyboard Layer 0 (Background)
//Storyboard Layer 1 (Fail)
//Storyboard Layer 2 (Pass)
//Storyboard Layer 3 (Foreground)
//Storyboard Layer 4 (Overlay)
//Storyboard Sound Samples

[TimingPoints]
4592,375,4,1,0,50,1,0
5998,-100,4,1,0,55,0,0
7498,-100,4,1,0,60,0,0
8998,-100,4,1,0,65,0,0
10498,-100,4,1,0,70,0,0
11998,-100,4,1,0,75,0,0
29998,-100,4,1,0,60,0,0
41248,-100,4,1,0,80,0,0
108092,-100,4,1,0,80,0,1
114092,-100,4,1,0,75,0,0

[HitObjects]
304,214,5342,5,0,0:0:0:0:
304,214,5530,1,0,0:0:0:0:
304,214,5624,1,0,0:0:0:0:
304,214,5717,1,8,0:0:0:0:
304,214,5905,1,8,0:0:0:0:
304,214,6092,1,0,0:0:0:0:
309,222,6280,1,8,0:0:0:0:
309,222,6374,1,8,0:0:0:0:
309,222,6467,1,0,0:0:0:0:
315,236,6655,1,0,0:0:0:0:
315,236,6749,1,0,0:0:0:0:
315,236,6842,1,8,0:0:0:0:
316,233,7030,1,8,0:0:0:0:
315,233,7217,1,0,0:0:0:0:
315,233,7405,1,8,0:0:0:0:
311,230,7592,1,0,0:0:0:0:
311,230,7780,1,8,0:0:0:0:
311,230,7874,1,8,0:0:0:0:
311,230,7967,1,0,0:0:0:0:
315,233,8155,1,0,0:0:0:0:
315,233,8342,1,8,0:0:0:0:
311,230,8530,1,0,0:0:0:0:
311,230,8624,1,8,0:0:0:0:
311,230,8717,1,8,0:0:0:0:
311,230,8905,1,8,0:0:0:0:
288,229,9092,1,0,0:0:0:0:
289,229,9280,1,8,0:0:0:0:
281,232,9373,1,0,0:0:0:0:
289,229,9467,1,0,0:0:0:0:
289,229,9654,1,8,0:0:0:0:
289,229,9842,1,8,0:0:0:0:
288,229,10030,1,0,0:0:0:0:
283,210,10124,1,0,0:0:0:0:
289,229,10217,1,8,0:0:0:0:
289,229,10405,1,0,0:0:0:0:
289,229,10592,1,8,0:0:0:0:
289,229,10780,1,0,0:0:0:0:
283,210,10874,1,0,0:0:0:0:
288,229,10967,1,8,0:0:0:0:
289,229,11155,1,0,0:0:0:0:
289,229,11342,1,8,0:0:0:0:
289,229,11530,1,0,0:0:0:0:
285,237,11624,1,8,0:0:0:0:
289,229,11717,1,8,0:0:0:0:
288,229,11905,1,8,0:0:0:0:
289,229,12092,1,0,0:0:0:0:
289,229,12280,1,0,0:0:0:0:
289,229,12467,1,8,0:0:0:0:
289,229,12655,1,8,0:0:0:0:
288,229,12749,1,8,0:0:0:0:
288,229,12842,1,0,0:0:0:0:
289,229,13030,1,8,0:0:0:0:
289,229,13124,1,0,0:0:0:0:
289,229,13217,1,8,0:0:0:0:
289,229,13405,1,0,0:0:0:0:
289,229,13499,1,8,0:0:0:0:
289,229,13592,1,8,0:0:0:0:
288,229,13780,1,8,0:0:0:0:
289,229,13967,1,0,0:0:0:0:
289,229,14155,1,8,0:0:0:0:
289,229,14342,1,0,0:0:0:0:
289,229,14530,1,8,0:0:0:0:
289,229,14624,1,8,0:0:0:0:
288,229,14717,1,0,0:0:0:0:
289,229,14905,1,0,0:0:0:0:
289,229,15092,1,8,0:0:0:0:
289,229,15280,1,0,0:0:0:0:
289,229,15374,1,8,0:0:0:0:
289,229,15467,1,8,0:0:0:0:
288,229,15655,1,8,0:0:0:0:
289,229,15842,1,0,0:0:0:0:
289,229,16030,1,8,0:0:0:0:
303,222,16124,1,0,0:0:0:0:
289,229,16217,1,0,0:0:0:0:
301,222,16405,1,8,0:0:0:0:
288,229,16592,1,8,0:0:0:0:
289,229,16780,1,0,0:0:0:0:
259,205,16874,1,0,0:0:0:0:
289,229,16967,1,8,0:0:0:0:
289,229,17155,1,0,0:0:0:0:
289,229,17342,1,8,0:0:0:0:
288,229,17530,1,0,0:0:0:0:
301,233,17624,1,8,0:0:0:0:
289,229,17717,1,8,0:0:0:0:
289,229,17905,1,8,0:0:0:0:
289,229,17998,1,8,0:0:0:0:
289,229,18092,1,0,0:0:0:0:
297,241,18280,1,8,0:0:0:0:
297,241,18374,1,0,0:0:0:0:
297,241,18467,1,8,0:0:0:0:
296,241,18655,1,0,0:0:0:0:
296,241,18749,1,0,0:0:0:0:
296,241,18842,1,8,0:0:0:0:
296,241,19030,1,8,0:0:0:0:
321,223,19217,1,0,0:0:0:0:
321,223,19405,1,8,0:0:0:0:
321,223,19592,1,0,0:0:0:0:
321,223,19780,1,8,0:0:0:0:
321,223,19874,1,8,0:0:0:0:
321,223,19967,1,0,0:0:0:0:
321,223,20155,1,0,0:0:0:0:
321,223,20342,1,8,0:0:0:0:
321,223,20530,1,0,0:0:0:0:
321,223,20624,1,8,0:0:0:0:
321,223,20717,1,8,0:0:0:0:
321,223,20905,1,8,0:0:0:0:
321,223,21092,1,0,0:0:0:0:
321,223,21280,1,8,0:0:0:0:
321,223,21374,1,8,0:0:0:0:
321,223,21467,1,0,0:0:0:0:
321,223,21655,1,8,0:0:0:0:
321,223,21842,1,8,0:0:0:0:
321,223,22030,1,0,0:0:0:0:
309,229,22124,1,0,0:0:0:0:
321,223,22217,1,8,0:0:0:0:
321,223,22405,1,0,0:0:0:0:
321,223,22592,1,8,0:0:0:0:
321,223,22780,1,0,0:0:0:0:
309,229,22874,1,0,0:0:0:0:
321,223,22967,1,8,0:0:0:0:
321,223,23155,1,0,0:0:0:0:
308,229,23342,1,8,0:0:0:0:
321,223,23530,1,0,0:0:0:0:
330,229,23624,1,8,0:0:0:0:
321,223,23717,1,8,0:0:0:0:
321,223,23905,1,8,0:0:0:0:
321,223,24092,1,0,0:0:0:0:
308,229,24280,1,8,0:0:0:0:
308,229,24374,1,8,0:0:0:0:
311,231,24467,1,0,0:0:0:0:
311,231,24655,1,0,0:0:0:0:
311,231,24749,1,0,0:0:0:0:
311,231,24842,1,8,0:0:0:0:
311,231,25030,1,8,0:0:0:0:
332,212,25217,1,0,0:0:0:0:
332,234,25405,5,8,0:0:0:0:
332,234,25592,1,0,0:0:0:0:
332,234,25780,1,8,0:0:0:0:
332,234,25874,1,0,0:0:0:0:
332,234,25967,1,8,0:0:0:0:
332,234,26155,1,0,0:0:0:0:
332,234,26342,1,8,0:0:0:0:
317,212,26530,1,0,0:0:0:0:
317,212,26624,1,8,0:0:0:0:
319,212,26717,1,8,0:0:0:0:
319,212,26905,1,8,0:0:0:0:
319,212,27092,1,0,0:0:0:0:
319,212,27280,1,8,0:0:0:0:
321,223,27374,1,0,0:0:0:0:
317,212,27467,1,0,0:0:0:0:
319,212,27655,1,8,0:0:0:0:
319,212,27842,1,8,0:0:0:0:
319,212,28030,1,0,0:0:0:0:
319,212,28124,1,0,0:0:0:0:
319,212,28217,1,8,0:0:0:0:
317,212,28405,1,0,0:0:0:0:
319,212,28592,1,8,0:0:0:0:
319,212,28780,1,0,0:0:0:0:
319,212,28874,1,0,0:0:0:0:
319,212,28967,1,8,0:0:0:0:
319,212,29155,1,0,0:0:0:0:
317,212,29342,1,8,0:0:0:0:
319,212,29530,1,0,0:0:0:0:
315,224,29624,1,8,0:0:0:0:
319,212,29717,1,8,0:0:0:0:
319,212,29905,1,8,0:0:0:0:
319,212,30092,1,0,0:0:0:0:
335,219,30467,1,0,0:0:0:0:
335,219,30842,1,0,0:0:0:0:
335,219,31217,1,0,0:0:0:0:
335,219,31592,1,8,0:0:0:0:
335,219,31967,1,8,0:0:0:0:
335,219,32342,1,8,0:0:0:0:
335,219,32717,1,8,0:0:0:0:
335,219,33092,1,0,0:0:0:0:
335,219,33467,1,0,0:0:0:0:
335,219,33842,1,8,0:0:0:0:
335,219,34217,1,0,0:0:0:0:
335,219,34592,1,8,0:0:0:0:
335,219,34967,1,0,0:0:0:0:
335,219,35342,1,8,0:0:0:0:
335,219,35717,1,8,0:0:0:0:
335,219,36092,1,0,0:0:0:0:
335,219,36467,1,0,0:0:0:0:
335,219,36842,1,0,0:0:0:0:
335,219,37217,1,0,0:0:0:0:
335,219,37592,1,8,0:0:0:0:
335,219,37967,1,8,0:0:0:0:
335,219,38342,1,8,0:0:0:0:
335,219,38717,1,8,0:0:0:0:
335,219,39092,1,0,0:0:0:0:
335,219,39467,1,0,0:0:0:0:
335,219,39842,1,8,0:0:0:0:
335,219,40217,5,0,0:0:0:0:
335,219,40592,1,8,0:0:0:0:
335,219,40967,1,0,0:0:0:0:
263,196,41342,5,0,0:0:0:0:
263,196,41436,1,8,0:0:0:0:
263,196,41530,1,0,0:0:0:0:
263,196,41624,1,8,0:0:0:0:
263,196,41717,1,0,0:0:0:0:
263,196,41811,1,8,0:0:0:0:
263,196,41905,1,0,0:0:0:0:
263,196,41999,1,8,0:0:0:0:
263,196,42092,1,0,0:0:0:0:
263,210,42279,1,8,0:0:0:0:
263,210,42374,1,0,0:0:0:0:
263,210,42467,1,8,0:0:0:0:
266,209,42655,1,0,0:0:0:0:
266,209,42749,1,8,0:0:0:0:
266,209,42842,1,0,0:0:0:0:
279,234,42936,1,0,0:0:0:0:
266,209,43030,1,8,0:0:0:0:
266,209,43124,1,0,0:0:0:0:
263,210,43217,1,8,0:0:0:0:
263,210,43405,1,0,0:0:0:0:
276,227,43592,1,0,0:0:0:0:
276,227,43780,1,8,0:0:0:0:
276,227,43874,1,8,0:0:0:0:
276,227,43967,1,0,0:0:0:0:
276,218,44061,1,0,0:0:0:0:
281,229,44155,1,8,0:0:0:0:
287,229,44342,1,0,0:0:0:0:
292,242,44436,1,8,0:0:0:0:
292,242,44530,1,0,0:0:0:0:
292,242,44624,1,0,0:0:0:0:
292,242,44717,1,8,0:0:0:0:
292,242,44905,1,0,0:0:0:0:
292,242,45092,1,0,0:0:0:0:
292,242,45280,1,8,0:0:0:0:
302,241,45374,1,0,0:0:0:0:
292,242,45467,1,8,0:0:0:0:
292,242,45654,1,8,0:0:0:0:
298,242,45749,1,8,0:0:0:0:
298,242,45842,1,0,0:0:0:0:
292,242,45936,1,8,0:0:0:0:
284,234,46030,1,0,0:0:0:0:
284,234,46124,1,0,0:0:0:0:
284,234,46217,1,8,0:0:0:0:
284,234,46405,1,0,0:0:0:0:
284,234,46592,1,0,0:0:0:0:
262,222,46780,1,8,0:0:0:0:
276,229,46874,1,8,0:0:0:0:
262,223,46967,1,0,0:0:0:0:
276,229,47061,1,0,0:0:0:0:
265,223,47155,1,8,0:0:0:0:
288,228,47342,1,0,0:0:0:0:
276,229,47436,1,8,0:0:0:0:
276,229,47530,1,8,0:0:0:0:
276,229,47624,1,0,0:0:0:0:
276,229,47717,1,8,0:0:0:0:
276,229,47905,1,0,0:0:0:0:
276,229,48092,1,0,0:0:0:0:
280,231,48280,1,0,0:0:0:0:
280,231,48374,1,8,0:0:0:0:
280,231,48467,1,0,0:0:0:0:
280,231,48561,1,0,0:0:0:0:
280,231,48655,1,8,0:0:0:0:
280,231,48749,1,0,0:0:0:0:
280,231,48842,1,8,0:0:0:0:
280,231,48936,1,0,0:0:0:0:
280,231,49030,1,0,0:0:0:0:
280,231,49124,1,8,0:0:0:0:
280,231,49217,1,8,0:0:0:0:
280,231,49311,1,0,0:0:0:0:
280,231,49405,1,8,0:0:0:0:
273,225,49592,1,0,0:0:0:0:
268,233,49780,1,8,0:0:0:0:
273,214,49967,1,0,0:0:0:0:
273,214,50061,1,0,0:0:0:0:
273,214,50155,1,8,0:0:0:0:
273,214,50249,1,0,0:0:0:0:
273,214,50342,1,8,0:0:0:0:
273,214,50436,1,0,0:0:0:0:
273,214,50530,1,0,0:0:0:0:
273,214,50624,1,8,0:0:0:0:
273,214,50717,1,0,0:0:0:0:
273,214,50811,1,0,0:0:0:0:
273,214,50905,1,8,0:0:0:0:
273,214,50999,1,8,0:0:0:0:
273,214,51092,1,0,0:0:0:0:
273,214,51186,1,8,0:0:0:0:
273,214,51280,1,0,0:0:0:0:
273,214,51374,1,0,0:0:0:0:
273,214,51467,1,8,0:0:0:0:
273,214,51561,1,0,0:0:0:0:
273,214,51655,1,0,0:0:0:0:
273,214,51749,1,8,0:0:0:0:
267,186,51842,1,8,0:0:0:0:
267,186,51889,1,8,0:0:0:0:
267,186,51936,1,8,0:0:0:0:
263,197,52030,1,0,0:0:0:0:
263,197,52124,1,8,0:0:0:0:
263,197,52217,1,8,0:0:0:0:
263,197,52311,1,0,0:0:0:0:
263,197,52405,1,0,0:0:0:0:
263,197,52499,1,8,0:0:0:0:
263,197,52592,1,0,0:0:0:0:
263,197,52686,1,0,0:0:0:0:
263,197,52780,1,8,0:0:0:0:
263,197,52874,1,0,0:0:0:0:
263,197,52967,1,8,0:0:0:0:
263,197,53061,1,8,0:0:0:0:
263,197,53155,1,0,0:0:0:0:
263,197,53249,1,0,0:0:0:0:
263,197,53342,1,8,0:0:0:0:
263,197,53436,1,8,0:0:0:0:
263,197,53530,1,8,0:0:0:0:
263,197,53624,1,0,0:0:0:0:
204,177,53717,1,8,0:0:0:0:
263,197,53764,1,8,0:0:0:0:
259,177,53811,1,8,0:0:0:0:
254,189,53857,1,8,0:0:0:0:
259,177,53905,1,0,0:0:0:0:
256,195,54092,1,0,0:0:0:0:
256,195,54280,1,8,0:0:0:0:
256,195,54374,1,8,0:0:0:0:
256,195,54467,1,0,0:0:0:0:
256,195,54655,1,0,0:0:0:0:
256,220,54748,1,0,0:0:0:0:
250,201,54842,1,8,0:0:0:0:
256,220,55030,1,0,0:0:0:0:
256,220,55124,1,8,0:0:0:0:
259,210,55217,1,0,0:0:0:0:
263,227,55405,1,8,0:0:0:0:
263,227,55592,1,0,0:0:0:0:
263,227,55780,1,8,0:0:0:0:
263,227,55874,1,8,0:0:0:0:
263,227,55967,1,0,0:0:0:0:
263,227,56155,1,0,0:0:0:0:
287,203,56342,5,8,0:0:0:0:
287,203,56530,1,0,0:0:0:0:
287,203,56624,1,8,0:0:0:0:
287,203,56717,1,8,0:0:0:0:
287,203,56905,1,8,0:0:0:0:
287,203,57092,1,0,0:0:0:0:
287,203,57280,1,8,0:0:0:0:
292,220,57373,1,0,0:0:0:0:
287,203,57467,1,0,0:0:0:0:
287,203,57655,1,8,0:0:0:0:
287,203,57842,1,8,0:0:0:0:
295,211,58030,1,0,0:0:0:0:
301,225,58124,1,0,0:0:0:0:
295,211,58217,1,8,0:0:0:0:
295,211,58405,1,0,0:0:0:0:
295,211,58592,1,8,0:0:0:0:
295,211,58780,1,0,0:0:0:0:
312,207,58874,1,0,0:0:0:0:
295,211,58967,1,8,0:0:0:0:
295,211,59155,1,0,0:0:0:0:
295,211,59342,1,8,0:0:0:0:
295,211,59530,1,0,0:0:0:0:
305,201,59624,1,8,0:0:0:0:
295,211,59717,1,8,0:0:0:0:
295,211,59905,1,8,0:0:0:0:
295,211,60092,1,0,0:0:0:0:
295,211,60280,1,0,0:0:0:0:
295,211,60374,1,8,0:0:0:0:
295,211,60467,1,0,0:0:0:0:
295,211,60561,1,0,0:0:0:0:
295,211,60655,1,8,0:0:0:0:
295,211,60749,1,0,0:0:0:0:
295,211,60842,1,8,0:0:0:0:
295,211,61030,1,8,0:0:0:0:
295,211,61124,1,8,0:0:0:0:
295,211,61217,1,8,0:0:0:0:
295,211,61311,1,0,0:0:0:0:
295,211,61405,1,8,0:0:0:0:
295,211,61592,1,0,0:0:0:0:
285,227,61780,1,8,0:0:0:0:
278,208,61967,5,0,0:0:0:0:
278,208,62061,1,0,0:0:0:0:
278,208,62155,1,8,0:0:0:0:
232,188,62249,1,0,0:0:0:0:
229,210,62342,1,8,0:0:0:0:
233,207,62530,1,0,0:0:0:0:
242,197,62624,1,8,0:0:0:0:
233,207,62717,1,0,0:0:0:0:
216,188,62779,1,0,0:0:0:0:
233,207,62842,1,8,0:0:0:0:
229,210,62999,1,8,0:0:0:0:
229,210,63092,1,0,0:0:0:0:
255,203,63233,1,8,0:0:0:0:
229,210,63374,1,0,0:0:0:0:
237,185,63467,1,8,0:0:0:0:
216,188,63537,1,8,0:0:0:0:
287,208,63608,1,0,0:0:0:0:
257,198,63717,1,0,0:0:0:0:
220,199,63810,1,8,0:0:0:0:
252,213,63905,1,0,0:0:0:0:
242,192,64030,1,0,0:0:0:0:
246,236,64155,1,8,0:0:0:0:
241,199,64280,1,0,0:0:0:0:
259,190,64405,1,8,0:0:0:0:
287,208,64521,1,0,0:0:0:0:
257,214,64592,1,8,0:0:0:0:
252,213,64655,1,0,0:0:0:0:
256,217,64780,1,0,0:0:0:0:
258,216,64905,1,8,0:0:0:0:
256,203,65030,1,0,0:0:0:0:
263,216,65155,1,8,0:0:0:0:
241,199,65271,1,0,0:0:0:0:
263,216,65342,1,8,0:0:0:0:
253,213,65405,1,0,0:0:0:0:
265,214,65530,1,0,0:0:0:0:
265,214,65655,1,8,0:0:0:0:
267,210,65780,1,0,0:0:0:0:
265,214,65905,1,8,0:0:0:0:
263,216,66092,1,0,0:0:0:0:
267,211,66280,1,8,0:0:0:0:
265,214,66467,1,0,0:0:0:0:
265,214,66561,1,0,0:0:0:0:
265,214,66655,1,8,0:0:0:0:
265,214,66842,1,0,0:0:0:0:
265,211,66936,1,8,0:0:0:0:
265,211,67030,1,0,0:0:0:0:
265,211,67124,1,8,0:0:0:0:
267,211,67217,1,0,0:0:0:0:
242,207,67311,1,0,0:0:0:0:
254,218,67405,1,8,0:0:0:0:
254,218,67452,1,8,0:0:0:0:
254,218,67499,1,0,0:0:0:0:
265,214,67592,1,0,0:0:0:0:
251,217,67780,1,0,0:0:0:0:
257,217,67874,1,8,0:0:0:0:
250,231,67967,1,0,0:0:0:0:
250,231,68061,1,0,0:0:0:0:
250,231,68155,1,8,0:0:0:0:
251,231,68342,1,0,0:0:0:0:
252,231,68436,1,8,0:0:0:0:
248,234,68530,1,0,0:0:0:0:
253,231,68624,1,0,0:0:0:0:
253,231,68717,1,8,0:0:0:0:
256,231,68811,1,8,0:0:0:0:
254,231,68905,1,0,0:0:0:0:
263,231,68999,1,8,0:0:0:0:
263,231,69092,1,0,0:0:0:0:
268,253,69186,1,0,0:0:0:0:
251,231,69280,1,8,0:0:0:0:
270,221,69467,1,0,0:0:0:0:
270,221,69655,1,0,0:0:0:0:
270,221,69842,1,8,0:0:0:0:
270,221,69936,1,8,0:0:0:0:
270,221,70030,1,0,0:0:0:0:
270,221,70124,1,0,0:0:0:0:
270,221,70217,1,8,0:0:0:0:
270,221,70311,1,0,0:0:0:0:
270,221,70405,1,8,0:0:0:0:
270,221,70592,1,0,0:0:0:0:
270,221,70780,1,0,0:0:0:0:
270,221,70874,1,8,0:0:0:0:
270,221,70967,1,0,0:0:0:0:
270,221,71154,1,8,0:0:0:0:
270,221,71248,1,0,0:0:0:0:
270,221,71342,1,8,0:0:0:0:
270,221,71436,1,0,0:0:0:0:
270,221,71530,1,8,0:0:0:0:
270,221,71624,1,0,0:0:0:0:
271,221,71717,1,0,0:0:0:0:
271,221,71764,1,0,0:0:0:0:
271,221,71811,1,0,0:0:0:0:
271,221,71905,1,8,0:0:0:0:
271,221,71952,1,8,0:0:0:0:
271,221,71999,1,8,0:0:0:0:
265,226,72045,1,8,0:0:0:0:
270,221,72092,1,0,0:0:0:0:
277,239,72185,1,8,0:0:0:0:
263,230,72280,1,0,0:0:0:0:
264,230,72374,1,8,0:0:0:0:
264,230,72467,1,0,0:0:0:0:
264,230,72561,1,0,0:0:0:0:
264,230,72655,1,8,0:0:0:0:
264,230,72842,1,0,0:0:0:0:
264,230,72936,1,0,0:0:0:0:
288,218,73030,1,8,0:0:0:0:
288,218,73077,1,8,0:0:0:0:
288,218,73124,1,0,0:0:0:0:
263,230,73217,1,8,0:0:0:0:
258,218,73405,1,0,0:0:0:0:
295,216,73592,1,8,0:0:0:0:
288,218,73780,1,8,0:0:0:0:
288,218,73874,1,0,0:0:0:0:
264,194,73967,1,0,0:0:0:0:
288,218,74061,1,0,0:0:0:0:
264,194,74155,1,8,0:0:0:0:
264,194,74342,1,0,0:0:0:0:
267,188,74530,1,8,0:0:0:0:
267,188,74577,1,8,0:0:0:0:
267,188,74624,1,0,0:0:0:0:
270,188,74717,1,8,0:0:0:0:
273,192,74905,1,8,0:0:0:0:
293,217,75092,1,0,0:0:0:0:
293,217,75280,1,8,0:0:0:0:
293,217,75467,1,0,0:0:0:0:
293,217,75561,1,8,0:0:0:0:
293,217,75655,1,0,0:0:0:0:
293,217,75749,1,8,0:0:0:0:
293,217,75842,1,8,0:0:0:0:
293,217,75936,1,0,0:0:0:0:
290,243,76030,1,8,0:0:0:0:
290,243,76077,1,0,0:0:0:0:
290,243,76124,1,0,0:0:0:0:
293,217,76217,1,8,0:0:0:0:
269,217,76405,1,0,0:0:0:0:
291,207,76499,1,8,0:0:0:0:
293,217,76592,1,0,0:0:0:0:
293,217,76780,1,8,0:0:0:0:
293,217,76874,1,0,0:0:0:0:
293,217,76967,1,8,0:0:0:0:
272,225,77061,1,8,0:0:0:0:
272,225,77108,1,8,0:0:0:0:
272,225,77155,1,8,0:0:0:0:
293,217,77249,1,8,0:0:0:0:
293,217,77342,1,0,0:0:0:0:
293,217,77436,1,8,0:0:0:0:
293,217,77530,1,8,0:0:0:0:
293,217,77624,1,0,0:0:0:0:
293,217,77717,1,8,0:0:0:0:
293,217,77811,1,8,0:0:0:0:
293,217,77905,1,0,0:0:0:0:
293,217,77999,1,8,0:0:0:0:
293,217,78092,1,0,0:0:0:0:
298,210,78280,1,8,0:0:0:0:
298,210,78467,1,0,0:0:0:0:
298,210,78561,1,0,0:0:0:0:
298,210,78655,1,8,0:0:0:0:
298,210,78842,1,0,0:0:0:0:
297,210,78936,1,8,0:0:0:0:
297,210,79030,1,0,0:0:0:0:
298,210,79124,1,8,0:0:0:0:
298,210,79217,1,0,0:0:0:0:
298,210,79311,1,0,0:0:0:0:
266,196,79405,1,8,0:0:0:0:
266,196,79452,1,8,0:0:0:0:
266,196,79499,1,0,0:0:0:0:
298,210,79592,1,0,0:0:0:0:
298,203,79780,1,8,0:0:0:0:
298,203,79874,1,0,0:0:0:0:
298,203,79967,1,0,0:0:0:0:
298,203,80061,1,0,0:0:0:0:
298,203,80155,1,8,0:0:0:0:
322,231,80342,1,0,0:0:0:0:
321,203,80530,1,8,0:0:0:0:
321,203,80624,1,0,0:0:0:0:
321,203,80717,1,8,0:0:0:0:
321,203,80811,1,8,0:0:0:0:
321,203,80905,1,0,0:0:0:0:
321,203,80999,1,8,0:0:0:0:
321,204,81092,1,0,0:0:0:0:
321,203,81186,1,0,0:0:0:0:
321,203,81280,1,8,0:0:0:0:
321,203,81467,1,0,0:0:0:0:
321,203,81655,1,0,0:0:0:0:
321,203,81842,1,8,0:0:0:0:
321,203,81936,1,8,0:0:0:0:
321,204,82030,1,0,0:0:0:0:
321,203,82124,1,0,0:0:0:0:
321,203,82217,1,8,0:0:0:0:
321,203,82310,1,0,0:0:0:0:
321,203,82404,1,8,0:0:0:0:
311,205,82592,1,0,0:0:0:0:
298,210,82780,1,0,0:0:0:0:
311,205,82874,1,8,0:0:0:0:
298,210,82967,1,8,0:0:0:0:
298,210,83061,1,0,0:0:0:0:
298,210,83155,1,0,0:0:0:0:
298,210,83249,1,0,0:0:0:0:
298,210,83342,1,8,0:0:0:0:
266,218,83436,1,0,0:0:0:0:
298,210,83530,1,8,0:0:0:0:
266,218,83624,1,8,0:0:0:0:
265,208,83717,1,0,0:0:0:0:
265,208,83764,1,0,0:0:0:0:
265,208,83811,1,0,0:0:0:0:
265,208,83905,1,8,0:0:0:0:
265,208,83952,1,8,0:0:0:0:
265,208,83999,1,8,0:0:0:0:
265,208,84092,1,0,0:0:0:0:
262,214,84185,1,8,0:0:0:0:
276,220,84280,1,0,0:0:0:0:
276,220,84374,1,8,0:0:0:0:
276,220,84467,1,0,0:0:0:0:
276,220,84561,1,0,0:0:0:0:
276,220,84655,1,8,0:0:0:0:
274,225,84842,1,0,0:0:0:0:
262,199,85030,1,8,0:0:0:0:
262,199,85077,1,0,0:0:0:0:
262,199,85124,1,0,0:0:0:0:
274,225,85217,1,8,0:0:0:0:
253,202,85405,1,0,0:0:0:0:
264,210,85592,1,8,0:0:0:0:
263,216,85780,1,0,0:0:0:0:
263,216,85874,1,8,0:0:0:0:
263,216,85967,1,0,0:0:0:0:
263,216,86061,1,0,0:0:0:0:
263,216,86155,1,8,0:0:0:0:
263,216,86342,1,8,0:0:0:0:
263,216,86530,1,8,0:0:0:0:
263,216,86624,1,8,0:0:0:0:
263,216,86717,1,0,0:0:0:0:
263,216,86811,1,0,0:0:0:0:
263,216,86905,1,8,0:0:0:0:
263,216,87092,1,0,0:0:0:0:
263,216,87280,1,8,0:0:0:0:
263,216,87467,1,0,0:0:0:0:
263,216,87561,1,8,0:0:0:0:
263,216,87655,1,0,0:0:0:0:
263,216,87749,1,8,0:0:0:0:
263,216,87842,1,8,0:0:0:0:
263,216,87936,1,0,0:0:0:0:
276,194,88030,1,8,0:0:0:0:
276,194,88077,1,8,0:0:0:0:
276,194,88124,1,0,0:0:0:0:
263,216,88217,1,8,0:0:0:0:
293,220,88405,1,0,0:0:0:0:
287,202,88499,1,8,0:0:0:0:
287,202,88545,1,0,0:0:0:0:
287,202,88592,1,0,0:0:0:0:
293,225,88686,1,8,0:0:0:0:
293,220,88780,1,0,0:0:0:0:
306,236,88874,1,0,0:0:0:0:
293,220,88967,1,8,0:0:0:0:
280,224,89061,1,8,0:0:0:0:
295,221,89108,1,8,0:0:0:0:
295,222,89155,1,0,0:0:0:0:
293,220,89249,1,8,0:0:0:0:
293,220,89342,1,0,0:0:0:0:
293,220,89436,1,8,0:0:0:0:
293,220,89530,1,8,0:0:0:0:
293,220,89624,1,0,0:0:0:0:
293,220,89717,1,8,0:0:0:0:
293,220,89811,1,8,0:0:0:0:
293,220,89905,1,0,0:0:0:0:
293,220,89999,1,8,0:0:0:0:
293,220,90092,1,0,0:0:0:0:
274,225,90280,1,8,0:0:0:0:
275,226,90467,1,0,0:0:0:0:
275,226,90561,1,0,0:0:0:0:
276,226,90655,1,8,0:0:0:0:
276,226,90842,1,0,0:0:0:0:
276,226,90936,1,8,0:0:0:0:
276,226,91030,1,0,0:0:0:0:
276,226,91124,1,8,0:0:0:0:
274,225,91217,1,0,0:0:0:0:
274,225,91311,1,0,0:0:0:0:
253,214,91405,1,8,0:0:0:0:
253,214,91452,1,8,0:0:0:0:
253,214,91499,1,0,0:0:0:0:
276,226,91592,1,0,0:0:0:0:
276,226,91780,1,0,0:0:0:0:
276,226,91874,1,8,0:0:0:0:
276,226,91967,1,0,0:0:0:0:
283,228,92061,1,0,0:0:0:0:
283,228,92155,1,8,0:0:0:0:
283,228,92342,1,0,0:0:0:0:
283,228,92436,1,8,0:0:0:0:
283,228,92530,1,0,0:0:0:0:
283,228,92624,1,0,0:0:0:0:
283,228,92717,1,8,0:0:0:0:
283,228,92811,1,8,0:0:0:0:
283,228,92905,1,0,0:0:0:0:
283,228,92999,1,8,0:0:0:0:
283,228,93092,1,0,0:0:0:0:
283,228,93186,1,0,0:0:0:0:
288,227,93280,1,8,0:0:0:0:
288,227,93467,1,0,0:0:0:0:
291,223,93655,1,0,0:0:0:0:
291,223,93842,1,8,0:0:0:0:
291,223,93936,1,8,0:0:0:0:
291,223,94030,1,0,0:0:0:0:
291,223,94124,1,0,0:0:0:0:
291,223,94217,1,8,0:0:0:0:
291,223,94311,1,0,0:0:0:0:
291,223,94405,1,8,0:0:0:0:
286,235,94592,1,8,0:0:0:0:
291,223,94780,1,0,0:0:0:0:
291,223,94874,1,8,0:0:0:0:
291,223,94967,1,0,0:0:0:0:
276,217,95061,1,0,0:0:0:0:
276,217,95155,1,8,0:0:0:0:
276,217,95249,1,0,0:0:0:0:
276,217,95342,1,8,0:0:0:0:
256,225,95436,1,0,0:0:0:0:
276,217,95530,1,8,0:0:0:0:
276,217,95624,1,0,0:0:0:0:
261,212,95717,1,0,0:0:0:0:
261,212,95764,1,0,0:0:0:0:
261,212,95811,1,0,0:0:0:0:
261,212,95905,1,8,0:0:0:0:
261,212,95952,1,8,0:0:0:0:
261,212,95999,1,8,0:0:0:0:
252,219,96045,1,8,0:0:0:0:
276,217,96092,1,0,0:0:0:0:
286,227,96185,1,8,0:0:0:0:
276,217,96280,1,0,0:0:0:0:
276,217,96374,1,8,0:0:0:0:
276,217,96467,1,0,0:0:0:0:
276,217,96561,1,0,0:0:0:0:
276,217,96655,1,8,0:0:0:0:
276,217,96842,1,0,0:0:0:0:
253,220,97030,1,8,0:0:0:0:
269,240,97077,1,8,0:0:0:0:
253,220,97124,1,0,0:0:0:0:
264,218,97217,1,8,0:0:0:0:
252,202,97405,1,0,0:0:0:0:
252,202,97592,1,8,0:0:0:0:
288,221,97780,1,0,0:0:0:0:
288,221,97874,1,8,0:0:0:0:
288,221,97967,1,0,0:0:0:0:
288,221,98061,1,0,0:0:0:0:
288,221,98155,1,0,0:0:0:0:
288,221,98342,1,8,0:0:0:0:
276,213,98530,1,8,0:0:0:0:
276,213,98577,1,8,0:0:0:0:
276,213,98624,1,0,0:0:0:0:
288,221,98717,1,8,0:0:0:0:
288,221,98905,1,8,0:0:0:0:
288,221,98999,1,8,0:0:0:0:
288,221,99092,1,0,0:0:0:0:
288,221,99280,1,8,0:0:0:0:
288,221,99467,1,0,0:0:0:0:
288,221,99561,1,8,0:0:0:0:
288,221,99655,1,0,0:0:0:0:
288,221,99749,1,8,0:0:0:0:
288,221,99842,1,0,0:0:0:0:
288,221,99936,1,0,0:0:0:0:
268,262,100030,1,8,0:0:0:0:
268,262,100077,1,0,0:0:0:0:
268,262,100124,1,0,0:0:0:0:
288,221,100217,1,8,0:0:0:0:
283,250,100405,1,0,0:0:0:0:
278,251,100499,1,8,0:0:0:0:
278,251,100545,1,8,0:0:0:0:
278,251,100592,1,0,0:0:0:0:
288,221,100686,1,8,0:0:0:0:
281,238,100780,1,0,0:0:0:0:
288,221,100874,1,0,0:0:0:0:
288,221,100967,1,8,0:0:0:0:
288,221,101061,1,8,0:0:0:0:
278,251,101108,1,8,0:0:0:0:
278,251,101155,1,8,0:0:0:0:
288,221,101249,1,8,0:0:0:0:
288,221,101342,1,0,0:0:0:0:
288,221,101436,1,8,0:0:0:0:
288,221,101530,1,8,0:0:0:0:
288,221,101624,1,0,0:0:0:0:
288,221,101717,1,8,0:0:0:0:
288,221,101811,1,0,0:0:0:0:
288,221,101905,1,8,0:0:0:0:
288,221,101999,1,8,0:0:0:0:
288,221,102092,1,0,0:0:0:0:
288,221,102280,1,0,0:0:0:0:
301,229,102374,1,8,0:0:0:0:
302,229,102467,1,0,0:0:0:0:
308,227,102561,1,0,0:0:0:0:
302,229,102655,1,8,0:0:0:0:
297,230,102842,1,0,0:0:0:0:
303,229,102936,1,8,0:0:0:0:
313,234,103030,1,0,0:0:0:0:
288,221,103124,1,8,0:0:0:0:
306,229,103217,1,0,0:0:0:0:
308,229,103311,1,0,0:0:0:0:
308,229,103405,1,8,0:0:0:0:
308,229,103592,1,0,0:0:0:0:
308,229,103780,1,8,0:0:0:0:
308,229,103874,1,8,0:0:0:0:
304,229,103967,1,0,0:0:0:0:
308,227,104061,1,0,0:0:0:0:
306,229,104155,1,8,0:0:0:0:
308,229,104342,1,8,0:0:0:0:
308,229,104436,1,8,0:0:0:0:
308,229,104530,1,0,0:0:0:0:
308,229,104624,1,8,0:0:0:0:
308,229,104717,1,0,0:0:0:0:
308,229,104811,1,0,0:0:0:0:
308,229,104905,1,8,0:0:0:0:
311,231,105092,1,0,0:0:0:0:
308,229,105280,1,0,0:0:0:0:
308,229,105374,1,8,0:0:0:0:
308,229,105467,1,0,0:0:0:0:
308,229,105561,1,0,0:0:0:0:
308,229,105655,1,8,0:0:0:0:
308,229,105842,1,0,0:0:0:0:
311,231,105936,1,8,0:0:0:0:
311,231,106030,1,8,0:0:0:0:
311,231,106124,1,0,0:0:0:0:
308,229,106217,5,0,0:0:0:0:
312,232,106311,1,0,0:0:0:0:
312,232,106405,1,8,0:0:0:0:
312,232,106592,1,0,0:0:0:0:
312,232,106780,1,8,0:0:0:0:
311,231,106874,1,8,0:0:0:0:
311,231,106967,1,0,0:0:0:0:
311,231,107061,1,0,0:0:0:0:
311,231,107155,1,8,0:0:0:0:
304,261,107342,5,8,0:0:0:0:
304,261,107435,1,0,0:0:0:0:
304,261,107530,1,8,0:0:0:0:
304,261,107624,1,0,0:0:0:0:
304,261,107717,1,0,0:0:0:0:
304,261,107764,1,0,0:0:0:0:
304,261,107811,1,0,0:0:0:0:
304,261,107905,1,8,0:0:0:0:
304,261,107952,1,8,0:0:0:0:
304,261,107999,1,8,0:0:0:0:
304,251,108092,5,8,0:0:0:0:
304,251,108186,1,0,0:0:0:0:
304,251,108280,1,0,0:0:0:0:
304,251,108374,1,8,0:0:0:0:
304,251,108467,1,8,0:0:0:0:
304,251,108561,1,0,0:0:0:0:
304,251,108655,1,8,0:0:0:0:
304,251,108749,1,0,0:0:0:0:
304,251,108842,1,0,0:0:0:0:
304,251,108936,1,8,0:0:0:0:
304,251,109030,1,8,0:0:0:0:
304,251,109124,1,0,0:0:0:0:
304,251,109217,1,8,0:0:0:0:
304,251,109311,1,0,0:0:0:0:
304,251,109405,1,0,0:0:0:0:
304,251,109499,1,8,0:0:0:0:
304,251,109592,1,8,0:0:0:0:
304,251,109686,1,0,0:0:0:0:
304,251,109780,1,8,0:0:0:0:
304,251,109874,1,0,0:0:0:0:
304,251,109967,1,0,0:0:0:0:
304,251,110061,1,8,0:0:0:0:
304,251,110155,1,8,0:0:0:0:
304,251,110249,1,0,0:0:0:0:
304,251,110342,1,8,0:0:0:0:
304,251,110436,1,8,0:0:0:0:
304,251,110530,1,0,0:0:0:0:
304,251,110624,1,8,0:0:0:0:
304,251,110717,1,0,0:0:0:0:
304,251,110811,1,0,0:0:0:0:
304,251,110905,1,8,0:0:0:0:
304,251,110999,1,0,0:0:0:0:
304,251,111092,1,0,0:0:0:0:
304,251,111186,1,8,0:0:0:0:
304,251,111280,1,8,0:0:0:0:
304,251,111374,1,0,0:0:0:0:
304,251,111467,1,8,0:0:0:0:
304,251,111561,1,0,0:0:0:0:
304,251,111655,1,0,0:0:0:0:
304,251,111749,1,8,0:0:0:0:
304,251,111842,1,8,0:0:0:0:
304,251,111936,1,0,0:0:0:0:
304,251,112030,1,8,0:0:0:0:
304,251,112124,1,0,0:0:0:0:
304,251,112217,1,0,0:0:0:0:
304,251,112311,1,8,0:0:0:0:
304,251,112405,1,8,0:0:0:0:
304,251,112499,1,0,0:0:0:0:
304,251,112592,1,8,0:0:0:0:
304,251,112686,1,0,0:0:0:0:
304,251,112780,1,0,0:0:0:0:
304,251,112874,1,8,0:0:0:0:
304,251,112967,1,0,0:0:0:0:
304,251,113061,1,0,0:0:0:0:
304,251,113155,1,8,0:0:0:0:
304,251,113249,1,0,0:0:0:0:
304,251,113342,1,8,0:0:0:0:
304,251,113436,1,0,0:0:0:0:
304,251,113530,1,8,0:0:0:0:
304,251,113624,1,0,0:0:0:0:
304,251,113717,1,8,0:0:0:0:
304,251,113811,1,8,0:0:0:0:
304,251,113905,1,8,0:0:0:0:
304,251,113999,1,8,0:0:0:0:
304,251,114092,1,0,0:0:0:0:
311,250,114467,1,0,0:0:0:0:
314,242,114655,1,0,0:0:0:0:
314,242,114702,1,0,0:0:0:0:
314,242,114749,1,0,0:0:0:0:
307,243,114842,5,0,0:0:0:0:
308,243,115030,1,8,0:0:0:0:
317,248,115124,1,0,0:0:0:0:
308,243,115217,1,0,0:0:0:0:
308,243,115405,1,8,0:0:0:0:
314,249,115592,1,0,0:0:0:0:
314,249,115686,1,0,0:0:0:0:
308,243,115967,1,0,0:0:0:0:
308,243,116030,1,0,0:0:0:0:
267,233,116092,1,0,0:0:0:0:
267,233,116154,1,8,0:0:0:0:
289,236,116342,1,0,0:0:0:0:
286,233,116530,1,8,0:0:0:0:
253,223,116624,1,0,0:0:0:0:
286,233,116717,1,0,0:0:0:0:
287,233,116905,1,8,0:0:0:0:
274,218,117092,1,0,0:0:0:0:
270,234,117186,1,0,0:0:0:0:
270,234,117467,1,0,0:0:0:0:
270,234,117561,1,0,0:0:0:0:
270,234,117842,1,8,0:0:0:0:
252,218,118030,1,0,0:0:0:0:
232,267,118124,1,8,0:0:0:0:
256,221,118217,1,0,0:0:0:0:
257,221,118405,1,8,0:0:0:0:
257,221,118592,1,0,0:0:0:0:
258,221,118780,1,0,0:0:0:0:
256,214,118967,1,0,0:0:0:0:
257,231,119155,1,0,0:0:0:0:
257,231,119342,1,0,0:0:0:0:
252,244,119717,1,0,0:0:0:0:
252,244,120092,1,8,0:0:0:0:
231,248,120467,1,0,0:0:0:0:
239,240,120655,1,0,0:0:0:0:
239,240,120702,1,0,0:0:0:0:
239,240,120749,1,0,0:0:0:0:
236,251,120842,1,0,0:0:0:0:
236,251,121030,1,8,0:0:0:0:
282,268,121124,1,0,0:0:0:0:
236,251,121217,1,0,0:0:0:0:
241,248,121405,1,8,0:0:0:0:
241,248,121592,1,0,0:0:0:0:
241,248,121686,1,0,0:0:0:0:
248,242,121967,1,0,0:0:0:0:
247,242,122030,1,0,0:0:0:0:
248,242,122092,1,0,0:0:0:0:
254,251,122155,1,8,0:0:0:0:
246,255,122342,1,0,0:0:0:0:
259,246,122530,1,8,0:0:0:0:
250,255,122624,1,0,0:0:0:0:
250,239,122717,1,0,0:0:0:0:
248,242,122905,1,8,0:0:0:0:
254,252,123092,1,0,0:0:0:0:
249,246,123186,1,0,0:0:0:0:
249,246,123467,1,0,0:0:0:0:
248,246,123561,1,0,0:0:0:0:
261,254,123842,1,8,0:0:0:0:
265,249,124030,1,0,0:0:0:0:
263,257,124124,1,8,0:0:0:0:
265,249,124217,1,0,0:0:0:0:
265,249,124405,1,8,0:0:0:0:
265,249,124592,1,0,0:0:0:0:
265,249,124780,1,0,0:0:0:0:
265,249,124967,1,0,0:0:0:0:
265,249,125155,1,0,0:0:0:0:
265,249,125342,1,0,0:0:0:0:
265,249,125530,1,0,0:0:0:0:
265,249,125717,1,0,0:0:0:0:
265,249,126092,1,8,0:0:0:0:
