osu file format v14

[General]
AudioFilename: audio.mp3
AudioLeadIn: 0
PreviewTime: 42185
Countdown: 0
SampleSet: Normal
StackLeniency: 0.7
Mode: 1
LetterboxInBreaks: 0
WidescreenStoryboard: 1

[Editor]
DistanceSpacing: 0.8
BeatDivisor: 4
GridSize: 32
TimelineZoom: 2

[Metadata]
Title:Just Briefly (Remix)
TitleUnicode:Just Briefly (Remix)
Artist:Jogger
ArtistUnicode:Jogger
Creator:ZTH
Version:Futsuu
Source:
Tags:This Great Pressure experimental electronic instrumental Daedelus
BeatmapID:2469800
BeatmapSetID:952540

[Difficulty]
HPDrainRate:7
CircleSize:5
OverallDifficulty:4
ApproachRate:5
SliderMultiplier:1.4
SliderTickRate:1

[Events]
//Background and Video events
0,0,"final_map_study_2.jpg",0,-45
//Break Periods
//Storyboard Layer 0 (Background)
//Storyboard Layer 1 (Fail)
//Storyboard Layer 2 (Pass)
//Storyboard Layer 3 (Foreground)
//Storyboard Layer 4 (Overlay)
//Storyboard Sound Samples

[TimingPoints]
4592,375,4,1,0,50,1,0
5998,-100,4,1,0,55,0,0
7498,-100,4,1,0,60,0,0
8998,-100,4,1,0,65,0,0
10498,-100,4,1,0,70,0,0
11998,-100,4,1,0,75,0,0
29998,-100,4,1,0,60,0,0
41248,-100,4,1,0,80,0,0
108092,-100,4,1,0,80,0,1
114092,-100,4,1,0,75,0,0

[HitObjects]
263,239,5342,5,0,0:0:0:0:
251,250,5529,1,0,0:0:0:0:
263,239,5717,1,8,0:0:0:0:
263,239,6092,1,0,0:0:0:0:
148,197,6467,1,0,0:0:0:0:
43,203,6842,1,8,0:0:0:0:
245,236,7217,1,0,0:0:0:0:
245,236,7404,1,8,0:0:0:0:
212,238,7779,1,8,0:0:0:0:
149,238,7967,1,0,0:0:0:0:
39,202,8342,1,8,0:0:0:0:
205,235,8717,1,8,0:0:0:0:
205,234,8904,1,8,0:0:0:0:
39,202,9092,1,0,0:0:0:0:
191,231,9467,1,0,0:0:0:0:
219,217,9842,1,8,0:0:0:0:
219,217,10029,1,0,0:0:0:0:
262,240,10217,1,8,0:0:0:0:
38,201,10592,1,8,0:0:0:0:
219,217,10779,1,0,0:0:0:0:
298,326,10967,1,8,0:0:0:0:
251,239,11342,1,0,0:0:0:0:
248,233,12092,1,0,0:0:0:0:
248,203,12467,5,8,0:0:0:0:
25,243,12842,1,0,0:0:0:0:
233,254,13217,1,0,0:0:0:0:
238,260,13404,1,0,0:0:0:0:
243,238,13592,1,8,0:0:0:0:
233,268,13967,5,0,0:0:0:0:
238,245,14154,1,8,0:0:0:0:
241,269,14529,1,8,0:0:0:0:
234,260,14717,1,0,0:0:0:0:
209,220,15092,1,8,0:0:0:0:
30,244,15279,1,0,0:0:0:0:
205,243,15467,1,8,0:0:0:0:
188,210,15842,1,0,0:0:0:0:
214,206,16217,1,0,0:0:0:0:
214,206,16592,1,8,0:0:0:0:
214,206,16779,1,0,0:0:0:0:
214,206,16967,1,8,0:0:0:0:
214,206,17342,1,0,0:0:0:0:
263,239,18092,1,0,0:0:0:0:
228,226,18467,1,0,0:0:0:0:
43,203,18842,1,8,0:0:0:0:
245,236,19217,1,0,0:0:0:0:
245,236,19404,1,8,0:0:0:0:
212,238,19779,1,8,0:0:0:0:
149,238,19967,1,0,0:0:0:0:
39,202,20342,1,8,0:0:0:0:
205,235,20717,1,8,0:0:0:0:
205,234,20904,1,8,0:0:0:0:
39,202,21092,1,0,0:0:0:0:
170,230,21467,1,0,0:0:0:0:
219,217,21842,1,8,0:0:0:0:
219,217,22029,1,0,0:0:0:0:
262,240,22217,1,8,0:0:0:0:
38,201,22592,1,8,0:0:0:0:
219,217,22779,1,0,0:0:0:0:
298,326,22967,1,8,0:0:0:0:
251,239,23342,1,0,0:0:0:0:
263,239,24092,1,0,0:0:0:0:
219,217,24467,1,0,0:0:0:0:
43,203,24842,1,8,0:0:0:0:
245,236,25217,1,0,0:0:0:0:
245,236,25404,1,8,0:0:0:0:
212,238,25779,1,8,0:0:0:0:
149,238,25967,1,0,0:0:0:0:
39,202,26342,1,8,0:0:0:0:
205,235,26717,1,8,0:0:0:0:
205,234,26904,1,8,0:0:0:0:
39,202,27092,1,0,0:0:0:0:
170,230,27467,1,0,0:0:0:0:
219,217,27842,1,8,0:0:0:0:
219,217,28029,1,0,0:0:0:0:
262,240,28217,1,8,0:0:0:0:
38,201,28592,1,8,0:0:0:0:
219,217,28779,1,0,0:0:0:0:
298,326,28967,5,8,0:0:0:0:
251,239,29342,1,0,0:0:0:0:
175,203,30092,5,0,0:0:0:0:
213,234,30842,1,0,0:0:0:0:
184,225,31592,1,8,0:0:0:0:
213,234,32342,1,8,0:0:0:0:
184,225,33092,1,0,0:0:0:0:
213,234,33842,1,8,0:0:0:0:
184,225,34592,1,8,0:0:0:0:
184,225,36092,1,0,0:0:0:0:
213,234,36842,1,0,0:0:0:0:
184,225,37592,1,8,0:0:0:0:
213,234,38342,1,8,0:0:0:0:
184,225,39092,5,0,0:0:0:0:
213,234,39842,1,8,0:0:0:0:
184,225,40592,1,8,0:0:0:0:
256,192,41342,12,0,41904,0:0:0:0:
262,218,42092,5,0,0:0:0:0:
222,216,42467,1,8,0:0:0:0:
222,216,42654,1,0,0:0:0:0:
274,226,42842,5,8,0:0:0:0:
174,199,43217,1,8,0:0:0:0:
222,216,43404,1,0,0:0:0:0:
212,233,43779,1,8,0:0:0:0:
47,195,43967,1,0,0:0:0:0:
274,226,44342,1,8,0:0:0:0:
274,226,45092,1,0,0:0:0:0:
230,242,45467,1,8,0:0:0:0:
230,242,45654,1,0,0:0:0:0:
274,226,45842,1,0,0:0:0:0:
274,226,46217,1,8,0:0:0:0:
230,242,46404,1,0,0:0:0:0:
231,249,46779,1,8,0:0:0:0:
286,248,46967,1,8,0:0:0:0:
286,248,47342,1,8,0:0:0:0:
187,277,48092,1,0,0:0:0:0:
288,265,48467,1,0,0:0:0:0:
391,211,48842,1,8,0:0:0:0:
230,234,49029,1,0,0:0:0:0:
295,242,49217,1,0,0:0:0:0:
230,234,49404,1,8,0:0:0:0:
83,311,49779,1,8,0:0:0:0:
230,234,49967,1,0,0:0:0:0:
188,276,50342,1,8,0:0:0:0:
289,245,50717,1,0,0:0:0:0:
228,286,50904,1,8,0:0:0:0:
187,276,51092,1,0,0:0:0:0:
222,284,51467,1,8,0:0:0:0:
398,208,51842,1,8,0:0:0:0:
238,278,52029,1,0,0:0:0:0:
222,284,52217,1,8,0:0:0:0:
193,274,52592,1,0,0:0:0:0:
293,242,52967,1,8,0:0:0:0:
195,273,53342,1,0,0:0:0:0:
222,284,53529,1,0,0:0:0:0:
291,243,53717,1,8,0:0:0:0:
190,274,54092,1,0,0:0:0:0:
395,364,54842,1,8,0:0:0:0:
183,275,55029,1,0,0:0:0:0:
183,275,55217,1,0,0:0:0:0:
185,270,55404,1,8,0:0:0:0:
289,317,55779,1,8,0:0:0:0:
208,275,55967,1,0,0:0:0:0:
190,272,56342,1,8,0:0:0:0:
208,275,56717,1,0,0:0:0:0:
208,275,56904,1,8,0:0:0:0:
395,364,57092,1,0,0:0:0:0:
208,275,57467,1,0,0:0:0:0:
208,275,57842,1,8,0:0:0:0:
208,275,58029,1,0,0:0:0:0:
226,231,58217,1,8,0:0:0:0:
405,370,58592,1,8,0:0:0:0:
208,275,58779,1,0,0:0:0:0:
320,304,58967,1,8,0:0:0:0:
235,238,59342,1,0,0:0:0:0:
235,238,60092,1,0,0:0:0:0:
195,267,60467,1,0,0:0:0:0:
235,238,60842,1,8,0:0:0:0:
219,254,61029,1,0,0:0:0:0:
235,238,61217,1,8,0:0:0:0:
219,254,61404,1,8,0:0:0:0:
235,238,61779,1,8,0:0:0:0:
219,254,61967,1,0,0:0:0:0:
235,238,62342,1,8,0:0:0:0:
235,238,62717,1,0,0:0:0:0:
219,254,62904,1,8,0:0:0:0:
235,238,63092,1,0,0:0:0:0:
219,254,63467,1,0,0:0:0:0:
235,238,63842,1,8,0:0:0:0:
219,254,64217,1,0,0:0:0:0:
235,238,64592,1,8,0:0:0:0:
219,254,64967,1,0,0:0:0:0:
235,238,65342,1,8,0:0:0:0:
219,254,65717,1,8,0:0:0:0:
235,238,66092,1,0,0:0:0:0:
247,239,66467,1,0,0:0:0:0:
226,242,66654,1,8,0:0:0:0:
226,241,67029,1,0,0:0:0:0:
226,242,67217,1,0,0:0:0:0:
247,239,67592,1,0,0:0:0:0:
247,239,67967,1,8,0:0:0:0:
240,240,68342,1,0,0:0:0:0:
247,239,68529,1,0,0:0:0:0:
235,257,68717,1,8,0:0:0:0:
247,239,69092,1,0,0:0:0:0:
247,239,69842,1,8,0:0:0:0:
242,238,70029,1,0,0:0:0:0:
251,229,70404,1,8,0:0:0:0:
251,229,70592,1,0,0:0:0:0:
242,238,70967,5,8,0:0:0:0:
246,224,71154,1,0,0:0:0:0:
242,238,71342,1,8,0:0:0:0:
251,229,71529,1,8,0:0:0:0:
251,229,71904,1,8,0:0:0:0:
212,230,72092,5,0,0:0:0:0:
218,241,72467,1,0,0:0:0:0:
218,241,72654,1,8,0:0:0:0:
218,241,73029,1,0,0:0:0:0:
206,227,73217,1,8,0:0:0:0:
212,230,73592,1,8,0:0:0:0:
218,241,73967,1,0,0:0:0:0:
204,216,74529,1,0,0:0:0:0:
208,233,74717,1,8,0:0:0:0:
212,230,75092,1,0,0:0:0:0:
210,238,75467,1,8,0:0:0:0:
210,238,75842,1,0,0:0:0:0:
213,249,76029,1,0,0:0:0:0:
212,229,76217,1,8,0:0:0:0:
212,229,76592,1,0,0:0:0:0:
212,229,77342,1,0,0:0:0:0:
212,229,77529,1,0,0:0:0:0:
225,224,77717,1,8,0:0:0:0:
212,229,77904,1,8,0:0:0:0:
212,229,78092,1,0,0:0:0:0:
231,243,78467,1,0,0:0:0:0:
204,228,78654,1,8,0:0:0:0:
221,237,79029,1,0,0:0:0:0:
220,237,79217,1,0,0:0:0:0:
204,228,79592,1,0,0:0:0:0:
204,228,79967,1,8,0:0:0:0:
204,228,80342,1,0,0:0:0:0:
213,256,80529,1,0,0:0:0:0:
213,256,80717,1,8,0:0:0:0:
204,228,81092,1,0,0:0:0:0:
206,242,81842,1,8,0:0:0:0:
204,228,82029,1,0,0:0:0:0:
200,256,82404,1,8,0:0:0:0:
204,228,82592,1,0,0:0:0:0:
204,228,82967,1,8,0:0:0:0:
198,251,83154,1,0,0:0:0:0:
204,228,83342,1,8,0:0:0:0:
198,251,83529,1,8,0:0:0:0:
204,228,83904,1,8,0:0:0:0:
198,251,84092,1,0,0:0:0:0:
199,219,84467,1,8,0:0:0:0:
204,228,84842,1,0,0:0:0:0:
204,217,85217,1,8,0:0:0:0:
177,234,85404,1,0,0:0:0:0:
199,219,85592,1,8,0:0:0:0:
201,227,85967,1,0,0:0:0:0:
199,219,86342,1,8,0:0:0:0:
243,209,86904,1,8,0:0:0:0:
199,219,87092,1,0,0:0:0:0:
228,240,87467,1,0,0:0:0:0:
228,240,87842,1,8,0:0:0:0:
202,227,88217,1,8,0:0:0:0:
228,240,88404,1,0,0:0:0:0:
202,227,88592,1,0,0:0:0:0:
202,227,89342,1,0,0:0:0:0:
228,240,89529,1,0,0:0:0:0:
202,227,89717,1,8,0:0:0:0:
228,240,89904,1,8,0:0:0:0:
202,227,90092,1,0,0:0:0:0:
206,248,90467,1,0,0:0:0:0:
202,227,90654,1,8,0:0:0:0:
201,232,91029,1,0,0:0:0:0:
201,232,91217,1,0,0:0:0:0:
202,227,91592,1,0,0:0:0:0:
202,227,91967,1,8,0:0:0:0:
202,227,92342,1,0,0:0:0:0:
204,239,92529,1,0,0:0:0:0:
201,236,92717,1,8,0:0:0:0:
202,227,93092,1,0,0:0:0:0:
202,227,93842,1,8,0:0:0:0:
222,233,94029,1,0,0:0:0:0:
202,227,94404,1,8,0:0:0:0:
222,243,94592,1,8,0:0:0:0:
202,227,94967,1,8,0:0:0:0:
222,242,95154,1,0,0:0:0:0:
202,227,95342,1,8,0:0:0:0:
222,243,95529,1,8,0:0:0:0:
222,241,95904,1,8,0:0:0:0:
202,227,96092,1,0,0:0:0:0:
212,240,96467,1,0,0:0:0:0:
212,240,96654,1,8,0:0:0:0:
212,240,97029,1,0,0:0:0:0:
202,227,97217,1,8,0:0:0:0:
215,218,97592,1,8,0:0:0:0:
212,240,97967,1,0,0:0:0:0:
225,227,98342,1,8,0:0:0:0:
215,218,98529,1,0,0:0:0:0:
215,218,98717,1,8,0:0:0:0:
215,218,99092,1,0,0:0:0:0:
225,227,99467,1,0,0:0:0:0:
215,218,99654,1,8,0:0:0:0:
232,227,100029,1,0,0:0:0:0:
232,227,100217,1,8,0:0:0:0:
215,218,100592,1,0,0:0:0:0:
215,218,101342,1,8,0:0:0:0:
235,219,101529,1,0,0:0:0:0:
226,213,101717,1,8,0:0:0:0:
235,219,101904,1,8,0:0:0:0:
253,208,102092,5,0,0:0:0:0:
228,233,102467,1,8,0:0:0:0:
253,208,102842,1,0,0:0:0:0:
228,233,103029,1,0,0:0:0:0:
253,228,103217,1,8,0:0:0:0:
253,228,103592,1,0,0:0:0:0:
237,241,103967,1,8,0:0:0:0:
253,228,104342,1,8,0:0:0:0:
237,241,104529,1,0,0:0:0:0:
253,228,104717,1,8,0:0:0:0:
253,228,105092,1,0,0:0:0:0:
237,241,105467,1,8,0:0:0:0:
253,228,105842,1,0,0:0:0:0:
237,241,106029,1,0,0:0:0:0:
253,228,106217,1,8,0:0:0:0:
253,228,106592,1,0,0:0:0:0:
253,228,107342,5,8,0:0:0:0:
237,241,107529,1,0,0:0:0:0:
253,228,107717,1,8,0:0:0:0:
264,236,107904,1,8,0:0:0:0:
228,248,108092,5,0,0:0:0:0:
220,260,108467,1,0,0:0:0:0:
226,252,108654,1,8,0:0:0:0:
221,260,109029,1,8,0:0:0:0:
221,259,109217,1,0,0:0:0:0:
222,259,109404,1,0,0:0:0:0:
220,260,109592,1,8,0:0:0:0:
233,230,109967,1,0,0:0:0:0:
231,259,110342,1,8,0:0:0:0:
231,259,110529,1,0,0:0:0:0:
231,259,110717,1,8,0:0:0:0:
235,272,111092,1,0,0:0:0:0:
235,272,111467,1,8,0:0:0:0:
236,272,111654,1,0,0:0:0:0:
235,272,112029,1,8,0:0:0:0:
235,272,112217,1,8,0:0:0:0:
235,272,112404,1,0,0:0:0:0:
236,272,112592,1,0,0:0:0:0:
235,272,112967,5,8,0:0:0:0:
235,272,113342,1,0,0:0:0:0:
236,272,113529,1,0,0:0:0:0:
235,272,113717,1,8,0:0:0:0:
235,272,113904,1,8,0:0:0:0:
230,252,114092,5,0,0:0:0:0:
241,252,114842,1,0,0:0:0:0:
236,252,115029,1,8,0:0:0:0:
254,242,115217,1,0,0:0:0:0:
241,252,115592,1,0,0:0:0:0:
241,252,116342,1,0,0:0:0:0:
236,252,116529,1,8,0:0:0:0:
254,242,116717,1,0,0:0:0:0:
241,252,117092,1,0,0:0:0:0:
260,250,117842,1,8,0:0:0:0:
236,252,118029,1,0,0:0:0:0:
260,250,118217,1,0,0:0:0:0:
241,252,118592,1,0,0:0:0:0:
241,252,118967,1,0,0:0:0:0:
236,252,119154,1,0,0:0:0:0:
241,252,119342,1,0,0:0:0:0:
261,250,119717,1,0,0:0:0:0:
241,252,120092,1,8,0:0:0:0:
241,252,120842,1,0,0:0:0:0:
236,252,121029,1,8,0:0:0:0:
325,254,121217,1,0,0:0:0:0:
241,252,121592,1,0,0:0:0:0:
241,252,122342,1,0,0:0:0:0:
236,252,122529,1,8,0:0:0:0:
250,259,122717,1,0,0:0:0:0:
241,252,123092,1,0,0:0:0:0:
255,255,123842,1,8,0:0:0:0:
236,252,124029,1,0,0:0:0:0:
255,255,124217,1,0,0:0:0:0:
241,252,124592,1,0,0:0:0:0:
241,252,124967,1,0,0:0:0:0:
236,252,125154,1,0,0:0:0:0:
241,252,125342,1,0,0:0:0:0:
226,236,125717,1,0,0:0:0:0:
241,252,126092,1,8,0:0:0:0:
