osu file format v14

[General]
AudioFilename: audio.ogg
AudioLeadIn: 0
PreviewTime: 40181
Countdown: 0
SampleSet: Soft
StackLeniency: 0.7
Mode: 3
LetterboxInBreaks: 0
SpecialStyle: 0
WidescreenStoryboard: 1

[Editor]
Bookmarks: 9945,30155,40260,50366
DistanceSpacing: 0.9
BeatDivisor: 4
GridSize: 32
TimelineZoom: 2.4

[Metadata]
Title:Lollipop Yum Yum Yum
TitleUnicode:Lollipop Yum Yum Yum
Artist:Joff Bush
ArtistUnicode:Joff Bush
Creator:Hytex
Version:Hard
Source:Bluey
Tags:anime dance mode the album official soundtrack ost bingo heeler disney plus disney+ television tv kids show cartoon joe brumm electronic english season 2 s2 bad mood the lollipop song
BeatmapID:4446586
BeatmapSetID:2117308

[Difficulty]
HPDrainRate:7.5
CircleSize:4
OverallDifficulty:7.5
ApproachRate:5
SliderMultiplier:1.4
SliderTickRate:1

[Events]
//Background and Video events
0,0,"image3.png",0,0
//Break Periods
//Storyboard Layer 0 (Background)
//Storyboard Layer 1 (Fail)
//Storyboard Layer 2 (Pass)
//Storyboard Layer 3 (Foreground)
//Storyboard Layer 4 (Overlay)
//Storyboard Sound Samples

[TimingPoints]
9945,315.789473684211,4,2,1,70,1,0

[HitObjects]
320,192,9944,5,0,0:0:0:0:
448,192,9944,1,0,0:0:0:0:
64,192,9944,1,0,0:0:0:0:
320,192,10102,1,0,0:0:0:0:
64,192,10260,1,0,0:0:0:0:
192,192,10260,128,0,10418:0:0:0:0:
320,192,10418,1,0,0:0:0:0:
64,192,10576,1,0,0:0:0:0:
448,192,10576,1,0,0:0:0:0:
192,192,10734,1,0,0:0:0:0:
448,192,10892,1,0,0:0:0:0:
320,192,10892,128,0,11050:0:0:0:0:
64,192,11208,128,0,11366:0:0:0:0:
448,192,11208,128,0,11523:0:0:0:0:
320,192,11366,1,0,0:0:0:0:
64,192,11523,1,0,0:0:0:0:
192,192,11523,128,0,11681:0:0:0:0:
448,192,11681,128,0,11839:0:0:0:0:
320,192,11839,1,0,0:0:0:0:
192,192,11839,1,0,0:0:0:0:
64,192,11997,1,0,0:0:0:0:
64,192,12155,1,0,0:0:0:0:
448,192,12155,1,0,0:0:0:0:
320,192,12313,1,0,0:0:0:0:
64,192,12471,1,0,0:0:0:0:
192,192,12471,1,0,0:0:0:0:
448,192,12629,1,0,0:0:0:0:
320,192,12787,128,0,12945:0:0:0:0:
192,192,12787,1,0,0:0:0:0:
64,192,12945,1,0,0:0:0:0:
448,192,13102,1,0,0:0:0:0:
320,192,13102,1,0,0:0:0:0:
64,192,13260,1,0,0:0:0:0:
320,192,13418,1,0,0:0:0:0:
192,192,13418,128,0,13576:0:0:0:0:
64,192,13734,128,0,14050:0:0:0:0:
448,192,13734,128,0,13892:0:0:0:0:
192,192,13892,1,0,0:0:0:0:
448,192,14050,1,0,0:0:0:0:
320,192,14050,128,0,14208:0:0:0:0:
64,192,14208,128,0,14366:0:0:0:0:
192,192,14366,1,0,0:0:0:0:
320,192,14366,1,0,0:0:0:0:
448,192,14523,1,0,0:0:0:0:
448,192,14681,1,0,0:0:0:0:
64,192,14681,1,0,0:0:0:0:
192,192,14839,1,0,0:0:0:0:
64,192,14997,1,0,0:0:0:0:
320,192,14997,128,0,15155:0:0:0:0:
448,192,14997,128,0,15155:0:0:0:0:
192,192,15313,1,0,0:0:0:0:
320,192,15313,128,0,15471:0:0:0:0:
192,192,15471,128,0,15629:0:0:0:0:
64,192,15629,1,0,0:0:0:0:
448,192,15629,1,0,0:0:0:0:
320,192,15787,1,0,0:0:0:0:
64,192,15945,1,0,0:0:0:0:
192,192,15945,1,0,0:0:0:0:
448,192,16102,128,0,16260:0:0:0:0:
320,192,16260,1,0,0:0:0:0:
192,192,16260,128,0,16418:0:0:0:0:
320,192,16418,128,0,16576:0:0:0:0:
448,192,16576,1,0,0:0:0:0:
64,192,16576,128,0,16734:0:0:0:0:
448,192,16734,128,0,16892:0:0:0:0:
64,192,16892,1,0,0:0:0:0:
192,192,16892,1,0,0:0:0:0:
192,192,17050,128,0,17366:0:0:0:0:
320,192,17208,1,0,0:0:0:0:
448,192,17208,1,0,0:0:0:0:
320,192,17366,1,0,0:0:0:0:
64,192,17523,1,0,0:0:0:0:
448,192,17523,1,0,0:0:0:0:
64,192,17681,128,0,17839:0:0:0:0:
192,192,17839,1,0,0:0:0:0:
320,192,17839,1,0,0:0:0:0:
320,192,17997,128,0,18155:0:0:0:0:
192,192,18155,1,0,0:0:0:0:
64,192,18155,1,0,0:0:0:0:
320,192,18313,1,0,0:0:0:0:
448,192,18471,1,0,0:0:0:0:
64,192,18471,1,0,0:0:0:0:
192,192,18629,1,0,0:0:0:0:
320,192,18787,128,0,18945:0:0:0:0:
448,192,18787,128,0,18945:0:0:0:0:
64,192,18945,1,0,0:0:0:0:
192,192,19102,1,0,0:0:0:0:
320,192,19102,128,0,19260:0:0:0:0:
448,192,19260,128,0,19418:0:0:0:0:
192,192,19418,128,0,19734:0:0:0:0:
64,192,19418,128,0,19576:0:0:0:0:
320,192,19576,1,0,0:0:0:0:
448,192,19734,1,0,0:0:0:0:
64,192,19734,128,0,19892:0:0:0:0:
320,192,19892,1,0,0:0:0:0:
192,192,20050,1,0,0:0:0:0:
64,192,20050,1,0,0:0:0:0:
448,192,20050,1,0,0:0:0:0:
192,192,20208,1,0,0:0:0:0:
448,192,20366,1,0,0:0:0:0:
320,192,20366,128,0,20523:0:0:0:0:
192,192,20523,1,0,0:0:0:0:
448,192,20681,1,0,0:0:0:0:
64,192,20681,1,0,0:0:0:0:
320,192,20839,1,0,0:0:0:0:
64,192,20997,1,0,0:0:0:0:
192,192,20997,128,0,21155:0:0:0:0:
448,192,21313,128,0,21471:0:0:0:0:
64,192,21313,128,0,21629:0:0:0:0:
192,192,21471,1,0,0:0:0:0:
448,192,21629,1,0,0:0:0:0:
320,192,21629,128,0,21787:0:0:0:0:
64,192,21787,128,0,21945:0:0:0:0:
192,192,21945,1,0,0:0:0:0:
320,192,21945,1,0,0:0:0:0:
448,192,22102,1,0,0:0:0:0:
448,192,22260,1,0,0:0:0:0:
64,192,22260,1,0,0:0:0:0:
192,192,22418,1,0,0:0:0:0:
448,192,22576,1,0,0:0:0:0:
320,192,22576,1,0,0:0:0:0:
64,192,22734,1,0,0:0:0:0:
192,192,22892,128,0,23050:0:0:0:0:
320,192,22892,1,0,0:0:0:0:
448,192,23050,1,0,0:0:0:0:
64,192,23208,1,0,0:0:0:0:
192,192,23208,1,0,0:0:0:0:
448,192,23366,1,0,0:0:0:0:
192,192,23523,1,0,0:0:0:0:
320,192,23523,128,0,23681:0:0:0:0:
448,192,23839,128,0,24155:0:0:0:0:
64,192,23839,128,0,23997:0:0:0:0:
320,192,23997,1,0,0:0:0:0:
64,192,24155,1,0,0:0:0:0:
192,192,24155,128,0,24313:0:0:0:0:
448,192,24313,128,0,24471:0:0:0:0:
320,192,24471,1,0,0:0:0:0:
192,192,24471,1,0,0:0:0:0:
64,192,24629,1,0,0:0:0:0:
64,192,24787,1,0,0:0:0:0:
448,192,24787,1,0,0:0:0:0:
320,192,24945,1,0,0:0:0:0:
64,192,25102,1,0,0:0:0:0:
192,192,25102,1,0,0:0:0:0:
448,192,25102,1,0,0:0:0:0:
64,192,25260,128,0,25418:0:0:0:0:
192,192,25418,1,0,0:0:0:0:
320,192,25418,1,0,0:0:0:0:
320,192,25576,128,0,25734:0:0:0:0:
448,192,25734,1,0,0:0:0:0:
192,192,25734,1,0,0:0:0:0:
192,192,25892,128,0,26050:0:0:0:0:
320,192,26050,1,0,0:0:0:0:
448,192,26050,1,0,0:0:0:0:
448,192,26208,128,0,26366:0:0:0:0:
320,192,26366,1,0,0:0:0:0:
192,192,26366,128,0,26681:0:0:0:0:
320,192,26523,128,0,26681:0:0:0:0:
64,192,26681,1,0,0:0:0:0:
448,192,26681,128,0,26997:0:0:0:0:
64,192,26839,128,0,26997:0:0:0:0:
192,192,26997,1,0,0:0:0:0:
320,192,26997,1,0,0:0:0:0:
320,192,27155,128,0,27471:0:0:0:0:
192,192,27313,1,0,0:0:0:0:
448,192,27313,1,0,0:0:0:0:
64,192,27471,1,0,0:0:0:0:
448,192,27629,1,0,0:0:0:0:
320,192,27629,128,0,27787:0:0:0:0:
448,192,27787,128,0,27945:0:0:0:0:
320,192,27945,1,0,0:0:0:0:
192,192,27945,128,0,28102:0:0:0:0:
320,192,28102,128,0,28260:0:0:0:0:
64,192,28260,1,0,0:0:0:0:
448,192,28260,128,0,28418:0:0:0:0:
64,192,28418,128,0,28576:0:0:0:0:
192,192,28576,1,0,0:0:0:0:
320,192,28576,128,0,28734:0:0:0:0:
192,192,28734,128,0,28892:0:0:0:0:
64,192,28892,128,0,29208:0:0:0:0:
448,192,28892,1,0,0:0:0:0:
448,192,29050,128,0,29208:0:0:0:0:
192,192,29208,1,0,0:0:0:0:
320,192,29208,128,0,29523:0:0:0:0:
192,192,29366,128,0,29523:0:0:0:0:
64,192,29523,1,0,0:0:0:0:
448,192,29523,128,0,29681:0:0:0:0:
64,192,29681,128,0,29997:0:0:0:0:
320,192,29839,1,0,0:0:0:0:
192,192,29839,128,0,29997:0:0:0:0:
320,192,29997,128,0,30155:0:0:0:0:
192,192,30155,5,0,0:0:0:0:
448,192,30155,1,0,0:0:0:0:
64,192,30155,128,0,30313:0:0:0:0:
320,192,30313,128,0,30471:0:0:0:0:
64,192,30471,1,0,0:0:0:0:
192,192,30471,128,0,30629:0:0:0:0:
320,192,30629,1,0,0:0:0:0:
64,192,30787,1,0,0:0:0:0:
448,192,30787,128,0,30945:0:0:0:0:
192,192,30945,128,0,31102:0:0:0:0:
448,192,31102,1,0,0:0:0:0:
320,192,31102,128,0,31260:0:0:0:0:
192,192,31260,1,0,0:0:0:0:
64,192,31418,128,0,31576:0:0:0:0:
448,192,31418,128,0,31734:0:0:0:0:
320,192,31576,1,0,0:0:0:0:
64,192,31734,1,0,0:0:0:0:
192,192,31734,128,0,31892:0:0:0:0:
448,192,31892,128,0,32050:0:0:0:0:
320,192,32050,1,0,0:0:0:0:
192,192,32050,1,0,0:0:0:0:
64,192,32208,1,0,0:0:0:0:
64,192,32366,1,0,0:0:0:0:
448,192,32366,1,0,0:0:0:0:
320,192,32523,1,0,0:0:0:0:
64,192,32681,1,0,0:0:0:0:
192,192,32681,128,0,32839:0:0:0:0:
448,192,32839,128,0,32997:0:0:0:0:
320,192,32997,128,0,33155:0:0:0:0:
192,192,32997,1,0,0:0:0:0:
64,192,33155,1,0,0:0:0:0:
448,192,33313,1,0,0:0:0:0:
320,192,33313,128,0,33471:0:0:0:0:
64,192,33471,128,0,33629:0:0:0:0:
192,192,33629,128,0,33787:0:0:0:0:
448,192,33629,1,0,0:0:0:0:
320,192,33787,1,0,0:0:0:0:
448,192,33945,128,0,34260:0:0:0:0:
64,192,33945,128,0,34102:0:0:0:0:
320,192,34102,1,0,0:0:0:0:
192,192,34260,128,0,34418:0:0:0:0:
64,192,34260,1,0,0:0:0:0:
448,192,34418,128,0,34576:0:0:0:0:
192,192,34576,1,0,0:0:0:0:
320,192,34576,1,0,0:0:0:0:
64,192,34734,1,0,0:0:0:0:
448,192,34892,1,0,0:0:0:0:
64,192,34892,1,0,0:0:0:0:
320,192,35050,1,0,0:0:0:0:
64,192,35208,128,0,35366:0:0:0:0:
192,192,35208,128,0,35366:0:0:0:0:
448,192,35208,1,0,0:0:0:0:
192,192,35523,128,0,35681:0:0:0:0:
320,192,35523,1,0,0:0:0:0:
320,192,35681,128,0,35839:0:0:0:0:
64,192,35839,1,0,0:0:0:0:
448,192,35839,1,0,0:0:0:0:
192,192,35997,1,0,0:0:0:0:
320,192,36155,1,0,0:0:0:0:
448,192,36155,1,0,0:0:0:0:
64,192,36313,128,0,36471:0:0:0:0:
320,192,36471,128,0,36787:0:0:0:0:
192,192,36471,1,0,0:0:0:0:
192,192,36629,128,0,36787:0:0:0:0:
448,192,36787,128,0,36945:0:0:0:0:
64,192,36787,1,0,0:0:0:0:
64,192,36945,128,0,37102:0:0:0:0:
320,192,37102,1,0,0:0:0:0:
448,192,37102,1,0,0:0:0:0:
320,192,37260,128,0,37576:0:0:0:0:
64,192,37418,1,0,0:0:0:0:
192,192,37418,1,0,0:0:0:0:
192,192,37576,1,0,0:0:0:0:
64,192,37734,1,0,0:0:0:0:
448,192,37734,1,0,0:0:0:0:
448,192,37892,128,0,38050:0:0:0:0:
192,192,38050,1,0,0:0:0:0:
320,192,38050,1,0,0:0:0:0:
192,192,38208,128,0,38366:0:0:0:0:
448,192,38366,1,0,0:0:0:0:
320,192,38366,1,0,0:0:0:0:
192,192,38523,1,0,0:0:0:0:
448,192,38681,1,0,0:0:0:0:
64,192,38681,1,0,0:0:0:0:
320,192,38839,1,0,0:0:0:0:
64,192,38997,128,0,39155:0:0:0:0:
192,192,38997,128,0,39155:0:0:0:0:
448,192,39155,1,0,0:0:0:0:
192,192,39313,128,0,39629:0:0:0:0:
320,192,39313,1,0,0:0:0:0:
64,192,39471,128,0,39629:0:0:0:0:
448,192,39629,128,0,39787:0:0:0:0:
320,192,39629,128,0,39945:0:0:0:0:
192,192,39787,1,0,0:0:0:0:
448,192,39945,128,0,40102:0:0:0:0:
64,192,39945,1,0,0:0:0:0:
192,192,40102,1,0,0:0:0:0:
64,192,40260,1,0,0:0:0:0:
320,192,40260,1,0,0:0:0:0:
448,192,40260,128,0,40576:0:0:0:0:
320,192,40418,128,0,40576:0:0:0:0:
192,192,40576,1,0,0:0:0:0:
64,192,40576,128,0,40892:0:0:0:0:
192,192,40734,128,0,40892:0:0:0:0:
448,192,40892,1,0,0:0:0:0:
320,192,40892,128,0,41208:0:0:0:0:
448,192,41050,128,0,41208:0:0:0:0:
64,192,41208,1,0,0:0:0:0:
192,192,41208,128,0,41523:0:0:0:0:
64,192,41366,128,0,41523:0:0:0:0:
320,192,41523,128,0,41839:0:0:0:0:
448,192,41523,1,0,0:0:0:0:
448,192,41681,128,0,41839:0:0:0:0:
192,192,41839,1,0,0:0:0:0:
64,192,41839,128,0,42155:0:0:0:0:
192,192,41997,128,0,42155:0:0:0:0:
320,192,42155,128,0,42313:0:0:0:0:
448,192,42155,128,0,42313:0:0:0:0:
192,192,42313,1,0,0:0:0:0:
64,192,42471,1,0,0:0:0:0:
448,192,42471,1,0,0:0:0:0:
320,192,42629,128,0,42787:0:0:0:0:
192,192,42787,1,0,0:0:0:0:
64,192,42787,128,0,43102:0:0:0:0:
192,192,42945,128,0,43102:0:0:0:0:
320,192,43102,1,0,0:0:0:0:
448,192,43102,128,0,43418:0:0:0:0:
320,192,43260,128,0,43418:0:0:0:0:
64,192,43418,1,0,0:0:0:0:
192,192,43418,128,0,43734:0:0:0:0:
64,192,43576,128,0,43734:0:0:0:0:
448,192,43734,1,0,0:0:0:0:
320,192,43734,128,0,44050:0:0:0:0:
448,192,43892,128,0,44050:0:0:0:0:
192,192,44050,128,0,44366:0:0:0:0:
64,192,44050,1,0,0:0:0:0:
64,192,44208,128,0,44366:0:0:0:0:
320,192,44366,1,0,0:0:0:0:
448,192,44366,128,0,44681:0:0:0:0:
320,192,44523,128,0,44681:0:0:0:0:
192,192,44681,128,0,44839:0:0:0:0:
64,192,44681,128,0,44839:0:0:0:0:
320,192,44839,1,0,0:0:0:0:
448,192,44997,128,0,45155:0:0:0:0:
192,192,44997,128,0,45313:0:0:0:0:
320,192,45155,128,0,45313:0:0:0:0:
448,192,45313,1,0,0:0:0:0:
64,192,45313,128,0,45629:0:0:0:0:
448,192,45471,128,0,45629:0:0:0:0:
192,192,45629,1,0,0:0:0:0:
320,192,45629,128,0,45945:0:0:0:0:
192,192,45787,128,0,45945:0:0:0:0:
64,192,45945,1,0,0:0:0:0:
448,192,45945,128,0,46260:0:0:0:0:
64,192,46102,128,0,46260:0:0:0:0:
320,192,46260,1,0,0:0:0:0:
192,192,46260,128,0,46576:0:0:0:0:
320,192,46418,128,0,46576:0:0:0:0:
64,192,46576,1,0,0:0:0:0:
448,192,46576,128,0,46892:0:0:0:0:
64,192,46734,128,0,46892:0:0:0:0:
320,192,46892,1,0,0:0:0:0:
192,192,46892,128,0,47208:0:0:0:0:
320,192,47050,128,0,47208:0:0:0:0:
64,192,47208,128,0,47366:0:0:0:0:
448,192,47208,128,0,47366:0:0:0:0:
192,192,47366,1,0,0:0:0:0:
448,192,47523,1,0,0:0:0:0:
320,192,47523,1,0,0:0:0:0:
192,192,47681,128,0,47839:0:0:0:0:
448,192,47839,128,0,48155:0:0:0:0:
64,192,47839,1,0,0:0:0:0:
64,192,47997,128,0,48155:0:0:0:0:
320,192,48155,1,0,0:0:0:0:
192,192,48155,128,0,48471:0:0:0:0:
320,192,48313,128,0,48471:0:0:0:0:
448,192,48471,1,0,0:0:0:0:
64,192,48471,128,0,48787:0:0:0:0:
448,192,48629,128,0,48787:0:0:0:0:
192,192,48787,1,0,0:0:0:0:
320,192,48787,128,0,49102:0:0:0:0:
192,192,48945,128,0,49102:0:0:0:0:
448,192,49102,1,0,0:0:0:0:
64,192,49102,128,0,49418:0:0:0:0:
448,192,49260,128,0,49418:0:0:0:0:
192,192,49418,1,0,0:0:0:0:
320,192,49418,128,0,49734:0:0:0:0:
192,192,49576,128,0,49734:0:0:0:0:
448,192,49734,128,0,49892:0:0:0:0:
64,192,49734,128,0,49892:0:0:0:0:
192,192,49892,1,0,0:0:0:0:
64,192,50050,128,0,50208:0:0:0:0:
320,192,50050,128,0,50366:0:0:0:0:
448,192,50208,1,0,0:0:0:0:
64,192,50366,128,0,50681:0:0:0:0:
448,192,50366,1,0,0:0:0:0:
192,192,50366,1,0,0:0:0:0:
192,192,50523,128,0,50681:0:0:0:0:
320,192,50681,128,0,50839:0:0:0:0:
448,192,50681,128,0,50839:0:0:0:0:
64,192,50839,1,0,0:0:0:0:
320,192,50997,1,0,0:0:0:0:
448,192,50997,128,0,51313:0:0:0:0:
320,192,51155,128,0,51313:0:0:0:0:
192,192,51313,128,0,51471:0:0:0:0:
64,192,51313,128,0,51471:0:0:0:0:
320,192,51471,1,0,0:0:0:0:
448,192,51629,128,0,51787:0:0:0:0:
64,192,51629,128,0,51945:0:0:0:0:
192,192,51787,1,0,0:0:0:0:
448,192,51945,1,0,0:0:0:0:
320,192,51945,128,0,52102:0:0:0:0:
192,192,52102,128,0,52260:0:0:0:0:
320,192,52260,1,0,0:0:0:0:
64,192,52260,1,0,0:0:0:0:
448,192,52418,1,0,0:0:0:0:
448,192,52576,1,0,0:0:0:0:
64,192,52576,1,0,0:0:0:0:
192,192,52734,1,0,0:0:0:0:
448,192,52892,1,0,0:0:0:0:
320,192,52892,128,0,53208:0:0:0:0:
64,192,52892,1,0,0:0:0:0:
64,192,53050,128,0,53208:0:0:0:0:
192,192,53208,128,0,53366:0:0:0:0:
448,192,53208,128,0,53366:0:0:0:0:
320,192,53366,1,0,0:0:0:0:
64,192,53523,1,0,0:0:0:0:
192,192,53523,128,0,53839:0:0:0:0:
448,192,53681,128,0,53839:0:0:0:0:
320,192,53839,128,0,53997:0:0:0:0:
64,192,53839,128,0,53997:0:0:0:0:
192,192,53997,1,0,0:0:0:0:
64,192,54155,128,0,54471:0:0:0:0:
448,192,54155,128,0,54313:0:0:0:0:
192,192,54313,1,0,0:0:0:0:
320,192,54471,128,0,54629:0:0:0:0:
448,192,54471,1,0,0:0:0:0:
192,192,54629,128,0,54787:0:0:0:0:
320,192,54787,128,0,54945:0:0:0:0:
64,192,54787,128,0,54945:0:0:0:0:
448,192,54945,1,0,0:0:0:0:
192,192,55102,128,0,55418:0:0:0:0:
448,192,55102,128,0,55260:0:0:0:0:
64,192,55260,1,0,0:0:0:0:
64,192,55418,1,0,0:0:0:0:
320,192,55418,1,0,0:0:0:0:
448,192,55418,128,0,55734:0:0:0:0:
320,192,55576,128,0,55734:0:0:0:0:
192,192,55734,128,0,55892:0:0:0:0:
64,192,55734,128,0,55892:0:0:0:0:
448,192,55892,1,0,0:0:0:0:
192,192,56050,1,0,0:0:0:0:
64,192,56050,128,0,56366:0:0:0:0:
192,192,56208,128,0,56366:0:0:0:0:
448,192,56366,128,0,56523:0:0:0:0:
320,192,56366,128,0,56523:0:0:0:0:
192,192,56523,1,0,0:0:0:0:
64,192,56681,128,0,56839:0:0:0:0:
448,192,56681,128,0,56997:0:0:0:0:
320,192,56839,1,0,0:0:0:0:
64,192,56997,1,0,0:0:0:0:
192,192,56997,128,0,57155:0:0:0:0:
320,192,57155,128,0,57313:0:0:0:0:
192,192,57313,1,0,0:0:0:0:
448,192,57313,1,0,0:0:0:0:
64,192,57471,1,0,0:0:0:0:
64,192,57629,1,0,0:0:0:0:
448,192,57629,1,0,0:0:0:0:
320,192,57787,1,0,0:0:0:0:
64,192,57945,1,0,0:0:0:0:
192,192,57945,128,0,58260:0:0:0:0:
448,192,57945,1,0,0:0:0:0:
448,192,58102,128,0,58260:0:0:0:0:
320,192,58260,128,0,58418:0:0:0:0:
64,192,58260,128,0,58418:0:0:0:0:
192,192,58418,1,0,0:0:0:0:
448,192,58576,1,0,0:0:0:0:
320,192,58576,128,0,58734:0:0:0:0:
64,192,58734,1,0,0:0:0:0:
