osu file format v14

[General]
AudioFilename: audio.mp3
AudioLeadIn: 0
PreviewTime: -1
Countdown: 1
SampleSet: Normal
StackLeniency: 0.7
Mode: 0
LetterboxInBreaks: 0
WidescreenStoryboard: 1

[Editor]
DistanceSpacing: 1
BeatDivisor: 4
GridSize: 4
TimelineZoom: 1.9

[Metadata]
Title:Hitorigoto DAYO!
TitleUnicode:Hitorigoto DAYO!
Artist:Joeyekid
ArtistUnicode:Joeyekid
Creator:Nakagawa Koiwai
Version:EroSpac3-Extra
Source:Joeyekid, ClariS
Tags:
BeatmapID:1447830
BeatmapSetID:683407

[Difficulty]
HPDrainRate:6
CircleSize:4
OverallDifficulty:8
ApproachRate:9.3
SliderMultiplier:1.4
SliderTickRate:1

[Events]
//Background and Video events
0,0,"seph.png",0,0
//Break Periods
//Storyboard Layer 0 (Background)
//Storyboard Layer 1 (Fail)
//Storyboard Layer 2 (Pass)
//Storyboard Layer 3 (Foreground)
//Storyboard Sound Samples

[TimingPoints]
1523,363.636363636364,4,1,0,100,1,0
1523,-100,4,1,0,50,0,0
2977,-100,4,1,0,70,0,0
5886,-66.6666666666667,4,1,0,100,0,0
8432,-100,4,1,0,100,0,0
11704,-66.6666666666667,4,1,0,100,0,0
12432,-100,4,1,0,100,0,0
13159,-111.111111111111,4,1,0,100,0,1
14250,-100,4,1,0,100,0,1
17159,-100,4,1,0,100,0,1
18795,-66.6666666666667,4,1,0,100,0,0
30977,-58.8235294117647,4,1,0,100,0,0
36432,-133.333333333333,4,1,0,100,0,0
37341,-200,4,1,0,100,0,0

[HitObjects]
276,188,1523,5,0,0:0:0:0:
140,136,1704,1,0,0:0:0:0:
140,140,2432,2,0,L|88:292,1,140
88,308,2977,5,0,0:0:0:0:
340,224,3159,1,0,0:0:0:0:
404,64,3886,2,0,L|248:64,1,140
112,92,4432,5,0,0:0:0:0:
264,228,4613,1,0,0:0:0:0:
112,92,4795,2,0,B|72:84|72:84|16:100,1,70
92,208,5159,2,0,B|132:220|132:220|168:204,1,70
212,300,5523,1,0,0:0:0:0:
212,300,5704,1,0,0:0:0:0:
296,148,5886,2,0,P|216:40|140:152,1,315.000012016297
392,280,6613,2,0,B|472:280|472:280|432:200,2,157.500006008148
272,280,7341,1,0,0:0:0:0:
388,280,7523,1,0,0:0:0:0:
136,56,7704,5,0,0:0:0:0:
104,104,8432,2,0,L|144:272,1,140
160,272,8977,1,0,0:0:0:0:
416,168,9159,1,0,0:0:0:0:
416,224,9886,6,0,L|288:128,1,140
272,104,10432,1,0,0:0:0:0:
104,40,10613,1,0,0:0:0:0:
80,208,10795,2,0,B|48:232|48:232|64:280,1,70
160,280,11159,2,0,B|192:304|192:304|176:336,1,70
416,320,11523,1,0,0:0:0:0:
376,160,11704,2,0,P|304:48|224:160,1,315.000012016297
88,232,12432,2,0,B|48:272|48:272|96:288,2,105
224,72,13159,6,0,P|272:32|336:48,1,125.999996154785
384,168,13704,1,0,0:0:0:0:
432,240,13886,1,0,0:0:0:0:
328,232,14068,1,0,0:0:0:0:
72,48,14250,1,0,0:0:0:0:
88,216,14432,2,0,L|128:304,1,70
232,144,14795,2,0,L|280:72,1,70
368,216,15159,2,0,L|408:304,1,70
416,48,15523,1,0,0:0:0:0:
416,48,15613,1,0,0:0:0:0:
416,48,15704,1,0,0:0:0:0:
280,128,16068,5,0,0:0:0:0:
296,136,16159,1,0,0:0:0:0:
312,144,16250,2,0,B|352:144|352:144|376:168,1,70
392,240,16613,1,0,0:0:0:0:
416,312,16704,1,0,0:0:0:0:
336,288,16795,1,0,0:0:0:0:
128,216,16977,5,0,0:0:0:0:
200,120,17159,1,0,0:0:0:0:
200,120,17250,1,0,0:0:0:0:
200,120,17341,1,0,0:0:0:0:
288,224,17523,1,0,0:0:0:0:
312,264,17613,1,0,0:0:0:0:
312,312,17704,1,0,0:0:0:0:
352,120,17886,1,0,0:0:0:0:
400,64,17977,1,0,0:0:0:0:
464,32,18068,1,0,0:0:0:0:
416,224,18250,5,0,0:0:0:0:
416,224,18341,1,0,0:0:0:0:
416,224,18432,1,0,0:0:0:0:
216,168,18613,1,0,0:0:0:0:
128,208,18704,1,0,0:0:0:0:
64,272,18795,2,0,B|40:328|40:328|104:336,1,105
64,64,19341,5,0,0:0:0:0:
192,88,19523,2,0,B|240:88|240:88|264:144,1,105.000004005432
80,176,19886,2,0,B|72:224|72:224|152:256,1,105.000004005432
448,312,20250,1,0,0:0:0:0:
408,232,20432,1,0,0:0:0:0:
344,304,20613,2,0,B|288:304|288:304|248:344,1,105.000004005432
312,200,20977,2,0,B|280:144|280:144|304:96,1,105.000004005432
408,232,21341,2,0,B|464:192|464:192|520:216,1,105.000004005432
448,56,21704,5,0,0:0:0:0:
448,56,21795,1,0,0:0:0:0:
448,56,21886,1,0,0:0:0:0:
128,56,22250,5,0,0:0:0:0:
104,72,22341,1,0,0:0:0:0:
80,88,22432,2,0,B|40:120|40:120|64:168,1,105.000004005432
160,304,22795,1,0,0:0:0:0:
160,304,22886,1,0,0:0:0:0:
160,304,22977,1,0,0:0:0:0:
232,96,23159,1,0,0:0:0:0:
172,140,23250,1,0,0:0:0:0:
248,168,23341,1,0,0:0:0:0:
340,232,23523,5,0,0:0:0:0:
408,240,23613,1,0,0:0:0:0:
456,288,23704,1,0,0:0:0:0:
328,40,23886,1,0,0:0:0:0:
280,96,23977,1,0,0:0:0:0:
248,168,24068,1,0,0:0:0:0:
404,168,24250,5,0,0:0:0:0:
376,128,24341,1,0,0:0:0:0:
328,104,24432,1,0,0:0:0:0:
280,96,24523,1,0,0:0:0:0:
232,112,24613,1,0,0:0:0:0:
176,104,24704,1,0,0:0:0:0:
132,76,24795,1,0,0:0:0:0:
132,76,25159,6,0,L|56:148,1,105.000004005432
236,200,25523,2,0,L|188:296,1,105.000004005432
400,272,25886,2,0,L|424:388,1,105.000004005432
132,76,26250,1,0,0:0:0:0:
236,200,26432,1,0,0:0:0:0:
400,272,26613,1,0,0:0:0:0:
292,64,26795,2,0,B|352:52|352:52|408:96,1,105.000004005432
236,200,27159,2,0,B|240:264|240:264|192:312,1,105.000004005432
128,76,27523,2,0,B|56:76|56:76|12:36,1,105.000004005432
252,212,27886,5,0,0:0:0:0:
292,236,27977,1,0,0:0:0:0:
332,260,28068,1,0,0:0:0:0:
283,26,28250,1,0,0:0:0:0:
128,239,28432,1,0,0:0:0:0:
378,158,28613,1,0,0:0:0:0:
128,76,28795,1,0,0:0:0:0:
328,256,28977,1,0,0:0:0:0:
328,256,29159,1,0,0:0:0:0:
224,160,29341,5,0,0:0:0:0:
224,160,29704,1,0,0:0:0:0:
268,80,29795,1,0,0:0:0:0:
352,48,29886,1,0,0:0:0:0:
332,172,30068,1,0,0:0:0:0:
300,260,30159,1,0,0:0:0:0:
216,316,30250,2,0,B|160:316|160:316|128:280,1,105.000004005432
60,128,30613,5,0,0:0:0:0:
160,168,30977,2,0,P|180:112|248:112,1,119.000002269745
232,176,31341,2,0,L|136:80,1,105.000004005432
80,40,31704,1,0,0:0:0:0:
264,92,31886,6,0,P|304:52|336:100,1,119.000002269745
360,204,32250,2,0,P|304:208|312:268,1,119.000002269745
264,92,32613,1,0,0:0:0:0:
264,92,32795,1,0,0:0:0:0:
164,244,32977,1,0,0:0:0:0:
132,280,33068,1,0,0:0:0:0:
104,312,33159,1,0,0:0:0:0:
360,192,33341,1,0,0:0:0:0:
408,192,33432,1,0,0:0:0:0:
456,192,33523,1,0,0:0:0:0:
104,312,33704,5,0,0:0:0:0:
456,192,33886,1,0,0:0:0:0:
132,280,34068,1,0,0:0:0:0:
408,192,34250,1,0,0:0:0:0:
164,244,34432,1,0,0:0:0:0:
360,192,34613,1,0,0:0:0:0:
168,124,34795,6,0,L|120:84,2,59.5000011348725
296,100,35159,2,0,L|340:60,2,59.5000011348725
136,216,35523,1,0,0:0:0:0:
136,216,35613,1,0,0:0:0:0:
136,216,35704,1,0,0:0:0:0:
332,208,35886,1,0,0:0:0:0:
360,240,35977,1,0,0:0:0:0:
384,280,36068,1,0,0:0:0:0:
136,216,36250,1,0,0:0:0:0:
144,164,36341,1,0,0:0:0:0:
168,124,36432,6,0,P|224:88|276:84,2,105.000004005432
256,180,37341,2,0,L|284:220,1,35
