osu file format v14

[General]
AudioFilename: audio.mp3
AudioLeadIn: 0
PreviewTime: 22159
Countdown: 0
SampleSet: Soft
StackLeniency: 0.7
Mode: 0
LetterboxInBreaks: 0
WidescreenStoryboard: 0

[Editor]
DistanceSpacing: 0.4
BeatDivisor: 4
GridSize: 16
TimelineZoom: 3.199999

[Metadata]
Title:Shapes
TitleUnicode:Shapes
Artist:Joey Trap
ArtistUnicode:Joey Trap
Creator:wafer
Version:Geometry
Source:
Tags:english rap hip hop professor mayflower
BeatmapID:2333176
BeatmapSetID:1116883

[Difficulty]
HPDrainRate:5
CircleSize:4
OverallDifficulty:9
ApproachRate:9
SliderMultiplier:3.2
SliderTickRate:1

[Events]
//Background and Video events
0,0,"clowning.png",0,0
//Break Periods
//Storyboard Layer 0 (Background)
//Storyboard Layer 1 (Fail)
//Storyboard Layer 2 (Pass)
//Storyboard Layer 3 (Foreground)
//Storyboard Layer 4 (Overlay)
//Storyboard Sound Samples

[TimingPoints]
12,352.941176470588,4,2,1,80,1,0
22247,-222.222222222221,4,2,1,60,0,0
22600,-52.6315789473684,4,2,1,73,0,0
23306,-100,4,2,1,73,0,0
24011,-142.857142857143,4,2,1,73,0,0
24364,-52.6315789473684,4,2,1,73,0,0
24894,-50,4,2,1,73,0,0
25247,-222.222222222221,4,2,1,73,0,0
25433,335.195530726257,4,2,1,73,1,0
25851,-222.222222222221,4,2,0,5,0,0
25935,408.163265306122,4,2,0,50,1,0
25935,-222.222222222221,4,2,0,50,0,0
26139,352.941176470588,4,2,0,50,1,0
26139,-500,4,2,0,50,0,0
26315,-500,4,2,0,40,0,0
26845,285.714285714286,4,2,0,40,1,0
26987,319.148936170213,4,2,0,40,1,0
27146,401.33779264214,4,2,0,40,1,0
27346,433.212996389892,4,2,0,40,1,0
27562,361.44578313253,4,2,0,40,1,0
27923,334.261838440111,4,2,0,40,1,0
28247,352.941176470588,4,2,1,73,1,0
28247,-52.6315789473684,4,2,1,73,0,0
28953,-181.818181818181,4,2,1,73,0,0
29747,-181.818181818181,4,2,1,5,0,0
29835,-181.818181818181,4,2,1,73,0,0
29923,-181.818181818181,4,2,1,5,0,0
30011,-52.6315789473684,4,2,1,73,0,0
30541,-50,4,2,1,73,0,0
31070,-52.6315789473684,4,2,1,73,0,0
31423,-200,4,2,1,73,0,0
32835,-52.6315789473684,4,2,1,73,0,0
33364,-50,4,2,1,73,0,0
33894,-125,4,2,2,73,0,0
34953,-250,4,2,2,73,0,0
35306,-200,4,2,2,73,0,0
35659,-125,4,2,2,73,0,0
36188,-166.666666666667,4,2,2,73,0,0
36717,-125,4,2,2,73,0,0
37070,-166.666666666667,4,2,2,73,0,0
38482,-66.6666666666667,4,2,2,73,0,0
38659,-66.6666666666667,4,2,1,73,0,0
39011,-83.3333333333333,4,2,1,73,0,0
39894,-200.000000000001,4,2,1,73,0,0
40247,-166.666666666667,4,2,1,73,0,0
40600,-250.000000000001,4,2,1,73,0,0
41306,-125,4,2,1,73,0,0
41835,-166.666666666667,4,2,1,73,0,0
42364,-52.6315789473684,4,2,1,73,0,0
42717,-142.857142857143,4,2,1,73,0,0
42806,-142.857142857143,4,2,1,5,0,0
42894,-142.857142857143,4,2,1,73,0,0
42982,-142.857142857143,4,2,1,5,0,0
43070,-142.857142857143,4,2,1,73,0,0
44129,-43.4782608695652,4,2,1,73,0,0
44482,-500,4,2,1,73,0,0
45188,-500,4,2,0,58,0,0
50482,-43.4782608695652,4,2,0,58,0,0
50835,-250,4,2,2,65,0,0
52247,-333.333333333333,4,2,2,65,0,0
52600,-166.666666666667,4,2,2,65,0,0
53129,-125,4,2,2,65,0,0
53659,-250,4,2,2,65,0,0
55070,-333.333333333333,4,2,2,65,0,0
55423,-166.666666666667,4,2,2,65,0,0
55953,-125,4,2,2,65,0,0
56129,-125,4,2,1,65,0,0
56502,352.941176470588,4,2,1,73,1,0
56502,-52.6315789473684,4,2,1,73,0,0
57208,-100,4,2,1,73,0,0
57913,-142.857142857143,4,2,1,73,0,0
58002,-142.857142857143,4,2,1,5,0,0
58090,-142.857142857143,4,2,1,73,0,0
58179,-142.857142857143,4,2,1,5,0,0
58266,-52.6315789473684,4,2,1,73,0,0
58796,-50,4,2,1,73,0,0
59149,-222.222222222221,4,2,1,73,0,0
59679,-142.857142857143,4,2,1,73,0,0
59810,-142.857142857143,4,2,1,5,0,0
59854,-142.857142857143,4,2,1,73,0,0
60031,-500,4,2,1,73,0,0
61090,-166.666666666667,4,2,1,73,0,0
61443,-125,4,2,1,73,0,0
62149,-52.6315789473684,4,2,1,73,0,0
62855,-181.818181818181,4,2,1,73,0,0
63649,-142.857142857143,4,2,1,5,0,0
63737,-181.818181818181,4,2,1,73,0,0
63826,-181.818181818181,4,2,1,5,0,0
63913,-52.6315789473684,4,2,1,73,0,0
64443,-50,4,2,1,73,0,0
64972,-52.6315789473684,4,2,1,73,0,0
65325,-200,4,2,1,73,0,0
66737,-52.6315789473684,4,2,1,73,0,0
67266,-50,4,2,1,73,0,0
67796,-125,4,2,2,73,0,0
68855,-250,4,2,2,73,0,0
69208,-200,4,2,2,73,0,0
69561,-125,4,2,2,73,0,0
70090,-166.666666666667,4,2,2,73,0,0
70619,-125,4,2,2,73,0,0
70972,-166.666666666667,4,2,2,73,0,0
72384,-125,4,2,2,73,0,0
72913,-166.666666666667,4,2,2,73,0,0
73443,-166.666666666667,4,2,1,73,0,0
73796,-200.000000000001,4,2,1,73,0,0
74149,-166.666666666667,4,2,1,73,0,0
74502,-250.000000000001,4,2,1,73,0,0
75208,-125,4,2,1,73,0,0
75737,-166.666666666667,4,2,1,73,0,0
76266,-52.6315789473684,4,2,1,73,0,0
76620,-142.857142857143,4,2,1,73,0,0
76708,-142.857142857143,4,2,1,5,0,0
76796,-142.857142857143,4,2,1,73,0,0
76884,-142.857142857143,4,2,1,5,0,0
76973,-142.857142857143,4,2,1,73,0,0
78031,-43.4782608695652,4,2,1,73,0,0
78384,-500,4,2,1,73,0,0
79090,-500,4,2,0,58,0,0
84384,-43.4782608695652,4,2,0,58,0,0
84737,-250,4,2,2,65,0,0
86149,-333.333333333333,4,2,2,65,0,0
86502,-166.666666666667,4,2,2,65,0,0
87031,-125,4,2,2,65,0,0
87561,-250,4,2,2,65,0,0
88972,-333.333333333333,4,2,2,65,0,0
89325,-166.666666666667,4,2,2,65,0,0
89855,-125,4,2,2,65,0,0
90384,-83.3333333333333,4,2,1,70,0,0
90473,-83.3333333333333,4,2,1,5,0,0
90561,-83.3333333333333,4,2,1,70,0,0
90649,-83.3333333333333,4,2,1,5,0,0
90737,-142.857142857143,4,2,1,70,0,0
91090,-142.857142857143,4,2,1,70,0,0
91443,-200,4,2,1,70,0,0
92149,-125,4,2,1,70,0,0
92678,-100,4,2,1,70,0,0
93207,-83.3333333333333,4,2,1,70,0,0
93561,-142.857142857143,4,2,1,70,0,0
93914,-142.857142857143,4,2,1,70,0,0
94267,-200,4,2,1,70,0,0
94973,-125,4,2,1,70,0,0
95502,-100,4,2,1,70,0,0
96031,-83.3333333333333,4,2,1,70,0,0
96384,-100,4,2,1,70,0,0
96737,-142.857142857143,4,2,1,70,0,0
97090,-200,4,2,1,70,0,0
97796,-125,4,2,1,70,0,0
98326,-100,4,2,1,70,0,0
98854,-83.3333333333333,4,2,1,70,0,0
99208,-142.857142857143,4,2,1,70,0,0
99561,-142.857142857143,4,2,1,70,0,0
99914,-200,4,2,1,70,0,0
100620,-125,4,2,1,70,0,0
101149,-100,4,2,1,70,0,0
101679,-83.3333333333333,4,2,1,70,0,0
102032,-142.857142857143,4,2,1,70,0,0
102385,-142.857142857143,4,2,1,70,0,0
102738,-200,4,2,1,70,0,0
103443,-125,4,2,1,70,0,0
103973,-100,4,2,1,70,0,0
104502,-83.3333333333333,4,2,1,70,0,0
104855,-142.857142857143,4,2,1,70,0,0
105208,-142.857142857143,4,2,1,70,0,0
105561,-200,4,2,1,70,0,0
106267,-125,4,2,1,70,0,0
106796,-100,4,2,1,70,0,0
107326,-166.666666666667,4,2,2,70,0,0
109090,-166.666666666667,4,2,2,70,0,0
109620,-125,4,2,2,70,0,0
110149,-166.666666666667,4,2,2,70,0,0
112443,-125,4,2,2,70,0,0
112973,-166.666666666667,4,2,3,70,0,0
113061,-166.666666666667,4,2,3,60,0,0
114737,-166.666666666667,4,2,3,60,0,0
114826,-166.666666666667,4,2,3,60,0,0
115267,-125,4,2,3,60,0,0
115355,-125,4,2,3,60,0,0
115796,-166.666666666667,4,2,3,60,0,0
115884,-166.666666666667,4,2,3,60,0,0
117561,-166.666666666667,4,2,3,60,0,0
117649,-166.666666666667,4,2,3,60,0,0
118090,-125,4,2,3,60,0,0
118179,-125,4,2,3,58,0,0
118620,-125,4,2,0,58,0,0
124707,-333.333333333333,4,2,0,46,0,0

[Colours]
Combo1 : 112,112,112
Combo2 : 255,89,89
Combo3 : 199,199,199
Combo4 : 255,140,140

[HitObjects]
21,41,22247,6,0,P|11:66|33:102,1,71.9999978027344
272,77,22600,6,0,B|259:46|259:46|118:109|118:109|180:251|180:251|323:187|323:187|275:82,1,607.999983764649,10|2,0:1|0:0,0:0:0:0:
222,149,23129,1,0,0:0:0:0:
439,329,23306,6,0,P|485:279|403:312,1,240,10|0,0:0|0:0,0:0:0:0:
435,289,23659,1,2,0:0:0:0:
435,289,23835,1,0,0:0:0:0:
216,87,24011,6,0,L|222:151,1,55.9999982910157,2|0,0:0|0:0,0:0:0:0:
262,288,24188,2,0,L|257:233,1,55.9999982910157,2|0,0:0|0:0,0:0:0:0:
138,384,24364,6,0,L|114:-30,1,303.999991882324,10|2,0:1|0:0,0:0:0:0:
73,7,24717,1,10,0:0:0:0:
118,375,24894,2,0,L|142:-39,1,320,10|2,0:1|0:0,0:0:0:0:
256,192,25159,12,0,25851,0:0:0:0:
470,298,25935,5,2,0:0:0:0:
468,303,26139,1,2,0:2:0:0:
479,318,26315,1,2,0:2:0:0:
388,375,26491,6,0,L|378:342,1,32,2|2,0:2|0:2,0:0:0:0:
348,215,26845,1,2,0:2:0:0:
355,200,26987,1,2,0:0:0:0:
325,117,27146,5,2,0:0:0:0:
313,102,27346,1,2,0:0:0:0:
486,146,27562,5,2,0:2:0:0:
471,166,27923,1,2,0:2:0:0:
88,170,28247,6,0,B|-4:145|-4:145|28:21|28:21|213:71|213:71|180:194|180:194|118:178,1,607.999983764649,10|2,0:1|0:0,0:0:0:0:
87,248,28776,1,0,0:0:0:0:
297,256,28953,6,0,P|268:273|202:324,2,88.000002685547,10|2|2,0:0|0:0|0:0,0:0:0:0:
313,262,29482,1,0,0:0:0:0:
445,358,29659,6,0,P|437:326|435:302,1,44.0000013427735,2|0,0:0|0:0,0:0:0:0:
483,237,29835,2,0,P|491:205|493:181,1,44.0000013427735,2|0,0:0|0:0,0:0:0:0:
36,157,30011,6,0,P|252:110|494:76,1,455.999987823487,10|0,0:1|0:0,0:0:0:0:
337,133,30364,1,10,0:0:0:0:
493,60,30541,2,0,P|267:91|44:140,1,320,10|2,0:1|0:0,0:0:0:0:
512,314,31070,6,0,B|409:331|332:237|332:237|248:123|93:264,1,455.999987823487,10|0,0:1|0:0,0:0:0:0:
251,266,31423,2,0,P|195:283|175:313,1,80,2|0,0:0|0:0,0:0:0:0:
367,111,31776,5,10,0:0:0:0:
378,235,31953,1,2,0:0:0:0:
470,42,32129,21,2,0:0:0:0:
0,51,32482,1,2,0:0:0:0:
118,101,32659,1,2,0:0:0:0:
4,271,32835,6,0,B|18:222|61:191|141:163|221:222|219:298|172:323|111:270,1,303.999991882324,10|2,0:1|0:0,0:0:0:0:
65,345,33188,1,10,0:0:0:0:
16,190,33364,2,0,B|42:146|91:127|176:121|238:198|216:271|147:305|119:216,1,320,10|2,0:1|0:0,0:0:0:0:
115,56,33717,1,0,0:0:0:0:
284,78,33894,6,0,B|237:54|237:54|248:145|248:145|328:101|328:101|305:89,1,256,10|2,0:1|0:0,0:0:0:0:
316,6,34423,1,0,0:0:0:0:
448,103,34600,5,10,0:0:0:0:
411,34,34776,1,2,0:0:0:0:
445,197,34953,6,0,P|476:164|465:120,1,96,2|0,0:0|0:0,0:0:0:0:
457,128,35306,2,0,P|463:193|470:267,1,120,2|0,0:0|0:0,0:0:0:0:
356,364,35659,6,0,P|368:236|379:109,1,256,10|10,0:1|0:0,0:0:0:0:
226,135,36188,2,0,P|234:231|244:327,1,191.999994140625,10|0,0:1|0:0,0:0:0:0:
8,162,36717,5,8,0:1:0:0:
41,226,36894,1,2,0:0:0:0:
8,289,37070,2,0,L|36:153,1,95.9999970703126,2|0,0:0|0:0,0:0:0:0:
113,61,37423,5,10,0:0:0:0:
39,7,37600,1,2,0:0:0:0:
105,101,37776,5,2,0:0:0:0:
105,101,37953,1,8,0:3:0:0:
258,55,38129,5,2,0:0:0:0:
190,14,38306,1,2,0:0:0:0:
480,96,38482,6,0,B|398:35|232:48|199:168|230:260|321:293|365:247|355:156,1,480.000018310548,10|0,0:1|0:0,0:0:0:0:
180,240,38923,1,0,3:0:0:0:
107,269,39011,6,0,B|226:231|181:318|287:327,2,191.999994140625,2|0|8,3:3|0:0|0:0,0:0:0:0:
7,88,39541,5,8,0:1:0:0:
89,165,39717,1,2,0:0:0:0:
215,101,39894,6,0,P|156:85|91:73,1,120,2|0,0:0|0:0,0:0:0:0:
302,55,40247,2,0,P|337:19|307:59,1,143.999995605469,10|0,0:0|0:0,0:0:0:0:
370,128,40600,6,0,P|410:106|423:61,1,96,2|0,0:0|0:0,0:0:0:0:
416,51,40953,1,2,0:0:0:0:
487,111,41129,1,2,0:0:0:0:
511,266,41306,6,0,P|386:236|260:213,1,256,10|10,0:1|0:0,0:0:0:0:
499,279,41835,2,0,P|406:257|312:239,1,191.999994140625,10|0,0:1|0:0,0:0:0:0:
15,65,42364,6,0,P|67:74|278:387,1,455.999987823487,8|0,0:1|0:0,0:0:0:0:
193,349,42717,6,0,P|199:323|199:285,1,55.9999982910157,2|0,0:0|0:0,0:0:0:0:
121,183,42894,2,0,P|141:201|163:232,1,55.9999982910157
127,292,43070,5,10,0:0:0:0:
281,215,43247,1,2,0:0:0:0:
329,137,43423,5,2,0:0:0:0:
304,296,43600,1,8,0:3:0:0:
390,267,43776,2,0,P|398:321|366:365,1,111.999996582031,2|2,0:0|0:0,0:0:0:0:
33,110,44129,6,0,B|99:-61|369:-33|412:122|372:242|253:285|265:-119|179:149|327:-119,1,552.000010528565,10|0,0:1|0:0,0:0:0:0:
249,38,44482,6,0,L|238:106,1,64,10|2,0:0|0:0,0:0:0:0:
13,215,45188,5,2,0:0:0:0:
75,259,45541,1,2,0:0:0:0:
161,280,45894,1,2,0:0:0:0:
243,244,46247,1,2,0:0:0:0:
307,283,46600,1,2,0:0:0:0:
307,283,47129,2,0,L|309:324,2,32,2|0|0,0:0|0:0|0:0,0:0:0:0:
301,207,47659,1,2,0:0:0:0:
492,174,48011,5,2,0:0:0:0:
430,130,48364,1,2,0:0:0:0:
344,109,48717,1,2,0:0:0:0:
262,145,49070,1,2,0:0:0:0:
198,106,49423,1,2,0:0:0:0:
287,34,49953,1,2,0:0:0:0:
287,34,50482,6,0,B|307:47|336:83|336:135|368:185|322:243|285:264|381:277|298:320|124:406|131:261|91:171|87:175|140:84,1,552.000010528565,2|0,0:0|0:0,0:0:0:0:
102,142,50835,6,0,P|80:84|21:63,2,128,10|2|10,0:1|0:0|0:0,0:0:0:0:
24,146,51894,1,2,0:0:0:0:
17,296,52247,2,0,P|13:260|4:226,1,71.9999978027344,2|0,0:0|0:0,0:0:0:0:
18,219,52600,6,0,P|85:305|180:280,1,191.999994140625,8|8,0:1|0:0,0:0:0:0:
309,316,53129,2,0,P|412:235|382:121,1,256,8|0,0:1|0:0,0:0:0:0:
235,130,53659,6,0,P|243:91|320:51,2,128,10|2|10,0:1|0:0|0:0,0:0:0:0:
313,133,54718,1,2,0:0:0:0:
332,212,54894,1,8,0:3:0:0:
504,316,55071,2,0,P|469:307|434:303,1,71.9999978027344,2|0,0:0|0:0,0:0:0:0:
419,325,55423,6,0,L|224:355,1,191.999994140625,8|8,0:1|0:0,0:0:0:0:
142,288,55953,2,0,L|-14:264,1,128,8|2,0:1|3:3,0:0:0:0:
15,268,56306,1,0,0:0:0:0:
357,58,56502,6,0,B|371:26|371:26|512:90|512:90|449:231|449:231|307:168|307:168|352:70,1,607.999983764649,10|2,0:1|0:0,0:0:0:0:
409,129,57031,1,0,0:0:0:0:
91,346,57208,6,0,P|45:296|127:329,1,240,10|0,0:0|0:0,0:0:0:0:
95,306,57561,1,2,0:0:0:0:
95,306,57737,1,0,0:0:0:0:
413,302,57914,6,0,L|354:275,1,55.9999982910157,2|0,0:0|0:0,0:0:0:0:
214,239,58090,2,0,L|264:262,1,55.9999982910157,2|0,0:0|0:0,0:0:0:0:
512,36,58267,6,0,P|351:52|62:87,1,303.999991882324,10|2,0:1|0:0,0:0:0:0:
63,52,58620,1,10,0:0:0:0:
479,92,58796,2,0,P|304:71|131:54,1,320,10|2,0:1|0:0,0:0:0:0:
160,56,59326,1,10,0:1:0:0:
76,136,59502,1,2,0:0:0:0:
20,188,59679,6,0,P|36:232|55:274,1,83.9999974365235,2|0,0:0|0:0,0:0:0:0:
42,298,59855,5,0,0:0:0:0:
44,303,60031,1,10,0:0:0:0:
33,318,60208,1,2,0:0:0:0:
147,302,60384,5,2,0:0:0:0:
233,348,60561,1,8,0:3:0:0:
285,221,60737,1,2,0:0:0:0:
225,257,60914,1,2,0:0:0:0:
381,381,61090,6,0,P|363:274|349:199,1,143.999995605469,10|0,0:1|0:0,0:0:0:0:
385,165,61443,1,10,0:0:0:0:
463,312,61620,2,0,P|481:205|495:130,1,128,10|2,0:1|0:0,0:0:0:0:
88,214,62149,6,0,B|-4:239|-4:239|28:363|28:363|213:313|213:313|180:190|180:190|118:206,1,607.999983764649,10|2,0:1|0:0,0:0:0:0:
87,136,62679,1,0,0:0:0:0:
268,77,62855,6,0,P|239:60|173:9,2,88.000002685547,10|2|2,0:0|0:0|0:0,0:0:0:0:
284,71,63384,1,0,0:0:0:0:
471,43,63561,6,0,L|461:99,1,44.0000013427735,2|0,0:0|0:0,0:0:0:0:
503,153,63737,2,0,L|513:209,1,44.0000013427735,2|0,0:0|0:0,0:0:0:0:
71,306,63914,6,0,B|272:202|267:391|426:408|529:225,1,455.999987823487,10|0,0:1|0:0,0:0:0:0:
261,218,64267,1,10,0:0:0:0:
471,266,64443,2,0,B|459:312|330:372|308:204|184:366,1,320,10|2,0:1|0:0,0:0:0:0:
26,85,64973,6,0,B|245:56|245:56|278:78|278:78|488:39,1,455.999987823487,10|0,0:1|0:0,0:0:0:0:
228,133,65326,2,0,L|108:148,1,120,2|0,0:0|0:0,0:0:0:0:
316,50,65679,5,10,0:0:0:0:
291,199,65855,1,2,0:0:0:0:
470,42,66031,21,2,0:0:0:0:
0,51,66384,1,2,0:0:0:0:
185,14,66561,5,2,0:0:0:0:
100,227,66737,6,0,B|151:192|231:190|278:237|284:276|277:300|277:300|262:331|222:364|167:228,1,303.999991882324,10|2,0:1|0:0,0:0:0:0:
215,130,67090,1,10,0:0:0:0:
59,343,67267,2,0,B|80:285|145:238|210:249|237:277|245:301|245:301|251:335|237:385|115:304,1,320,10|2,0:1|0:0,0:0:0:0:
92,111,67620,1,0,0:0:0:0:
235,95,67796,6,0,B|196:129|196:129|183:39|183:39|271:60|271:60|252:77,1,256,10|2,0:1|0:0,0:0:0:0:
300,155,68326,1,0,0:0:0:0:
228,278,68502,5,10,0:0:0:0:
297,241,68679,1,2,0:0:0:0:
124,268,68855,6,0,L|223:293,1,96,2|0,0:0|0:0,0:0:0:0:
228,278,69208,6,0,P|236:335|196:376,1,120,2|0,0:0|0:0,0:0:0:0:
352,256,69561,6,0,B|397:238|453:234|509:251|530:304|513:355|449:313|434:279,1,256,10|10,0:1|0:0,0:0:0:0:
323,186,70090,2,0,P|334:281|345:377,1,191.999994140625,10|0,0:1|0:0,0:0:0:0:
490,62,70620,5,10,0:1:0:0:
426,95,70796,1,2,0:0:0:0:
363,62,70973,2,0,L|499:90,1,95.9999970703126,2|0,0:0|0:0,0:0:0:0:
370,164,71326,5,10,0:0:0:0:
284,130,71502,1,2,0:0:0:0:
264,52,71679,5,2,0:0:0:0:
264,52,71855,1,8,0:3:0:0:
133,29,72031,5,2,0:0:0:0:
190,105,72208,1,2,0:0:0:0:
259,139,72384,6,0,P|136:174|16:219,1,256,10|10,0:1|0:0,0:0:0:0:
115,359,72914,2,0,P|168:342|91:293,1,191.999994140625,10|0,0:1|0:0,0:0:0:0:
501,252,73443,5,10,0:1:0:0:
419,329,73620,1,2,0:0:0:0:
293,265,73796,6,0,P|355:250|417:237,1,120,2|0,0:0|0:0,0:0:0:0:
461,135,74149,2,0,P|496:99|466:139,1,143.999995605469,10|0,0:0|0:0,0:0:0:0:
380,144,74502,6,0,P|371:98|358:36,1,96,2|0,0:0|0:0,0:0:0:0:
342,40,74855,1,2,0:0:0:0:
271,100,75031,1,2,0:0:0:0:
0,53,75208,6,0,B|54:24|130:53|79:153|117:216|227:204,1,256,10|10,0:1|0:0,0:0:0:0:
0,87,75737,2,0,B|37:66|91:87|55:157|81:201|158:192,1,191.999994140625,10|0,0:1|0:0,0:0:0:0:
512,183,76267,6,0,P|477:168|150:357,1,455.999987823487,10|0,0:1|0:0,0:0:0:0:
235,353,76620,6,0,P|246:325|286:295,1,55.9999982910157,2|0,0:0|0:0,0:0:0:0:
387,244,76796,2,0,P|359:247|334:260,1,55.9999982910157
330,333,76973,5,10,0:0:0:0:
182,165,77149,1,2,0:0:0:0:
155,78,77326,5,2,0:0:0:0:
127,237,77502,1,8,0:3:0:0:
0,168,77679,2,0,P|54:176|98:144,1,111.999996582031,2|2,0:0|0:0,0:0:0:0:
512,319,78031,6,0,B|342:388|512:137|274:158|80:291|201:452|-2:339,1,552.000010528565,10|0,0:1|0:0,0:0:0:0:
48,363,78384,2,0,L|34:297,1,64,2|0,0:3|0:0,0:0:0:0:
7,121,79090,5,2,0:0:0:0:
69,77,79443,1,2,0:0:0:0:
155,56,79796,1,2,0:0:0:0:
237,92,80149,1,2,0:0:0:0:
301,53,80502,1,2,0:0:0:0:
301,53,81031,2,0,L|303:12,2,32,2|0|0,0:0|0:0|0:0,0:0:0:0:
369,106,81561,1,2,0:0:0:0:
512,184,81914,5,2,0:0:0:0:
431,211,82267,1,2,0:0:0:0:
371,273,82620,1,2,0:0:0:0:
292,273,82973,1,2,0:0:0:0:
227,331,83326,1,2,0:0:0:0:
104,254,83855,1,2,0:0:0:0:
104,254,84384,2,0,B|40:188|262:157|452:112|482:82|468:31|397:52|318:143,1,552.000010528565,2|0,0:0|0:0,0:0:0:0:
317,161,84737,6,0,L|342:303,2,128,10|2|10,0:1|0:0|0:0,0:0:0:0:
409,211,85796,1,2,0:0:0:0:
350,361,86149,2,0,P|314:357|285:333,1,71.9999978027344,2|0,0:0|0:0,0:0:0:0:
229,285,86502,6,0,B|136:267|151:349|51:330,1,191.999994140625,8|8,0:1|0:0,0:0:0:0:
208,96,87031,2,0,B|79:128|146:223|8:258,1,256,8|0,0:1|0:0,0:0:0:0:
22,134,87561,6,0,L|-3:-8,2,128,10|2|10,0:1|0:0|0:0,0:0:0:0:
88,65,88620,1,2,0:0:0:0:
209,178,88973,2,0,P|173:174|144:150,1,71.9999978027344,2|0,0:0|0:0,0:0:0:0:
208,96,89326,6,0,L|413:72,1,191.999994140625,8|8,0:1|0:0,0:0:0:0:
511,185,89855,2,0,L|384:171,1,128,8|2,0:1|0:0,0:0:0:0:
384,171,90384,6,0,P|373:194|402:253,1,95.9999970703126,10|0,0:1|0:0,0:0:0:0:
511,185,90561,2,0,P|522:162|493:103,1,95.9999970703126
272,101,90737,2,0,L|426:67,1,111.999996582031,2|0,0:0|0:0,0:0:0:0:
166,27,91090,1,10,0:0:0:0:
166,27,91443,2,0,P|133:67|63:63,1,120,2|0,0:0|0:0,0:0:0:0:
53,48,91796,5,2,0:0:0:0:
177,140,91973,1,0,0:0:0:0:
106,169,92149,6,0,L|65:337,1,128,8|2,0:1|0:0,0:0:0:0:
197,357,92502,1,8,0:0:0:0:
415,317,92678,2,0,B|394:233|394:233|290:233|290:233|311:317|311:317|368:317,1,320,8|0,0:1|0:0,0:0:0:0:
512,14,93207,6,0,B|426:-14|419:81|324:55,1,191.999994140625,10|0,0:1|0:0,0:0:0:0:
160,144,93561,2,0,L|177:292,1,111.999996582031,2|0,0:0|0:0,0:0:0:0:
335,287,93914,2,0,L|352:144,1,111.999996582031,10|0,0:0|0:0,0:0:0:0:
244,290,94267,2,0,P|211:330|141:326,1,120,2|0,0:0|0:0,0:0:0:0:
118,324,94620,5,2,0:0:0:0:
76,197,94796,1,0,0:0:0:0:
215,24,94973,6,0,L|201:185,1,128,8|2,0:1|0:0,0:0:0:0:
264,261,95326,1,8,0:0:0:0:
216,0,95502,2,0,L|230:161,1,160,8|2,0:1|0:0,0:0:0:0:
26,162,96031,6,0,L|73:355,1,191.999994140625,10|2,0:1|0:0,0:0:0:0:
147,192,96384,2,0,B|219:190|219:190|177:298,1,160,2|0,0:0|0:0,0:0:0:0:
153,379,96737,2,0,L|205:222,1,111.999996582031,10|2,0:0|0:0,0:0:0:0:
293,213,97090,2,0,P|295:155|252:117,1,120,2|0,0:0|0:0,0:0:0:0:
238,99,97443,5,2,0:0:0:0:
400,43,97620,1,2,0:0:0:0:
400,275,97796,6,0,L|379:149,1,128,10|2,0:1|0:0,0:0:0:0:
400,43,98149,1,10,0:0:0:0:
512,370,98326,2,0,B|488:330|410:327|450:392|311:336,1,160,10|2,0:1|0:0,0:0:0:0:
25,141,98854,6,0,P|67:236|91:329,1,191.999994140625,10|2,0:1|0:0,0:0:0:0:
172,230,99208,2,0,P|186:185|251:161,1,111.999996582031,2|0,0:0|0:0,0:0:0:0:
152,93,99561,1,10,0:0:0:0:
59,47,99737,1,2,0:0:0:0:
132,109,99914,1,2,0:0:0:0:
76,49,100090,1,8,0:3:0:0:
220,20,100267,6,0,P|207:66|206:102,1,80,2|2,0:0|0:0,0:0:0:0:
374,71,100620,6,0,B|393:113|393:113|330:141|330:141|301:78|301:78|365:49|365:49|364:50,1,256,10|10,0:1|0:0,0:0:0:0:
430,292,101149,2,0,B|405:346|405:346|488:382|488:382|524:300|524:300|442:263|442:263|444:263,1,320,10|0,0:1|0:0,0:0:0:0:
226,361,101679,5,10,0:1:0:0:
312,293,101855,1,2,0:0:0:0:
317,142,102031,1,2,0:0:0:0:
317,142,102384,5,10,0:0:0:0:
199,104,102561,1,2,0:0:0:0:
89,206,102737,1,2,0:0:0:0:
89,206,103090,2,0,L|95:113,1,80,2|2,0:0|0:0,0:0:0:0:
101,358,103443,6,0,P|120:299|172:263,1,128,10|2,0:1|0:0,0:0:0:0:
192,347,103796,1,10,0:0:0:0:
268,122,103973,2,0,P|430:119|508:253,1,320,10|0,0:1|0:0,0:0:0:0:
338,286,104502,5,10,0:1:0:0:
252,218,104679,1,2,0:0:0:0:
247,67,104855,1,2,0:0:0:0:
247,67,105208,5,10,0:0:0:0:
129,29,105384,1,2,0:0:0:0:
19,131,105561,1,2,0:0:0:0:
57,202,105737,1,8,0:3:0:0:
3,309,105914,2,0,P|44:287|28:331,1,120,2|0,0:0|0:0,0:0:0:0:
110,364,106267,6,0,P|163:333|389:246,1,256,10|10,0:1|0:0,0:0:0:0:
512,206,106796,2,0,P|356:264|209:343,1,320,10|0,0:1|0:0,0:0:0:0:
189,226,107326,6,0,P|180:168|165:95,2,95.9999970703126,10|2|2,0:1|0:0|0:0,0:0:0:0:
258,113,108031,2,0,P|267:55|282:-18,2,95.9999970703126,10|2|2,0:0|0:0|0:0,0:0:0:0:
90,50,108737,1,2,0:0:0:0:
90,50,108914,1,2,0:0:0:0:
0,22,109090,6,0,L|35:220,1,191.999994140625,10|10,0:1|0:0,0:0:0:0:
156,132,109620,2,0,L|110:389,1,256,10|0,0:1|0:0,0:0:0:0:
227,227,110149,6,0,P|285:218|358:203,2,95.9999970703126,10|2|2,0:1|0:0|0:0,0:0:0:0:
388,277,110855,2,0,P|446:286|519:301,2,95.9999970703126,10|2|2,0:0|0:0|0:0,0:0:0:0:
436,127,111561,1,2,0:0:0:0:
436,127,111737,1,2,0:0:0:0:
512,53,111914,6,0,P|418:69|314:88,1,191.999994140625,10|10,0:1|0:0,0:0:0:0:
297,192,112443,2,0,P|174:171|39:146,1,256,10|0,0:1|0:0,0:0:0:0:
204,0,112973,6,0,P|195:58|180:131,2,95.9999970703126,10|2|2,0:1|0:0|0:0,0:0:0:0:
252,227,113679,2,0,B|240:255|240:255|252:283|252:283|264:255|264:255|252:223,2,95.9999970703126,2|2|2,0:0|0:0|0:0,0:0:0:0:
131,341,114384,1,2,0:0:0:0:
131,341,114561,1,2,0:0:0:0:
213,292,114737,6,0,P|270:295|316:337,1,95.9999970703126,10|2,0:1|0:0,0:0:0:0:
301,316,115090,1,2,0:0:0:0:
362,180,115267,2,0,P|417:209|443:272,1,128,10|2,0:1|0:0,0:0:0:0:
501,75,115796,6,0,P|443:84|370:99,2,95.9999970703126,10|2|2,0:1|0:0|0:0,0:0:0:0:
311,66,116502,2,0,P|253:57|180:42,2,95.9999970703126,2|2|2,0:0|0:0|0:0,0:0:0:0:
160,148,117208,1,2,0:0:0:0:
160,148,117384,1,2,0:0:0:0:
27,147,117561,6,0,P|57:195|116:215,1,95.9999970703126,10|2,0:1|0:0,0:0:0:0:
90,212,117914,1,2,0:0:0:0:
0,331,118090,2,0,P|52:365|120:357,1,128,10|2,0:1|0:0,0:0:0:0:
256,192,118620,5,2,0:0:0:0:
329,120,118973,1,2,0:0:0:0:
428,142,119326,1,2,0:0:0:0:
415,243,119679,1,2,0:0:0:0:
415,243,120031,1,2,0:0:0:0:
367,190,120561,1,2,0:0:0:0:
367,190,121090,1,2,0:0:0:0:
256,192,121443,5,2,0:0:0:0:
183,120,121796,1,2,0:0:0:0:
84,142,122149,1,2,0:0:0:0:
97,243,122502,1,2,0:0:0:0:
97,243,122855,1,2,0:0:0:0:
145,190,123384,1,2,0:0:0:0:
145,190,123914,1,2,0:0:0:0:
232,18,124707,6,0,L|247:95,1,71.9999978027344
