osu file format v14

[General]
AudioFilename: audio.mp3
AudioLeadIn: 0
PreviewTime: 22159
Countdown: 0
SampleSet: Soft
StackLeniency: 0.6
Mode: 0
LetterboxInBreaks: 0
WidescreenStoryboard: 1

[Editor]
DistanceSpacing: 1.3
BeatDivisor: 1
GridSize: 16
TimelineZoom: 3.199999

[Metadata]
Title:Shapes
TitleUnicode:Shapes
Artist:Joey Trap
ArtistUnicode:Joey Trap
Creator:wafer
Version:Normal
Source:
Tags:english rap hip hop professor mayflower
BeatmapID:2333499
BeatmapSetID:1116883

[Difficulty]
HPDrainRate:3
CircleSize:3.4
OverallDifficulty:5
ApproachRate:5.6
SliderMultiplier:1.2
SliderTickRate:1

[Events]
//Background and Video events
0,0,"clowning.png",0,0
//Break Periods
//Storyboard Layer 0 (Background)
//Storyboard Layer 1 (Fail)
//Storyboard Layer 2 (Pass)
//Storyboard Layer 3 (Foreground)
//Storyboard Layer 4 (Overlay)
//Storyboard Sound Samples

[TimingPoints]
12,352.941176470588,4,2,1,80,1,0
22247,-100,4,2,1,60,0,0
22600,-100,4,2,1,73,0,0
25247,-97.3709834469328,4,2,1,73,0,0
25433,335.195530726257,4,2,1,73,1,0
25923,-100,4,2,1,50,0,0
25935,408.163265306122,4,2,0,50,1,0
25935,-100,4,2,0,50,0,0
26139,352.941176470588,4,2,0,50,1,0
26306,-100,4,2,0,40,0,0
26845,285.714285714286,4,2,0,40,1,0
26987,319.148936170213,4,2,0,40,1,0
27146,401.33779264214,4,2,0,40,1,0
27346,433.212996389892,4,2,0,40,1,0
27562,361.44578313253,4,2,0,40,1,0
27923,334.261838440111,4,2,0,40,1,0
28247,352.941176470588,4,2,1,73,1,0
28247,-100,4,2,1,73,0,0
33894,-111.111111111111,4,2,2,73,0,0
38482,-90.9090909090909,4,2,2,73,0,0
38659,-90.9090909090909,4,2,1,73,0,0
39011,-111.111111111111,4,2,1,73,0,0
42364,-100,4,2,1,73,0,0
44129,-100,4,2,1,73,0,0
45188,-100,4,2,0,58,0,0
46600,-142.857142857143,4,2,0,58,0,0
50835,-125,4,2,2,65,0,0
56129,-125,4,2,1,65,0,0
56502,352.941176470588,4,2,1,73,1,0
56502,-100,4,2,1,73,0,0
67796,-111.111111111111,4,2,2,73,0,0
73443,-111.111111111111,4,2,1,73,0,0
76266,-100,4,2,1,73,0,0
79090,-100,4,2,0,58,0,0
80501,-142.857142857143,4,2,0,58,0,0
84737,-125,4,2,2,65,0,0
90383,-111.111111111111,4,2,1,70,0,0
107325,-125,4,2,2,70,0,0
112973,-125,4,2,3,70,0,0
113061,-125,4,2,3,60,0,0
114737,-125,4,2,3,60,0,0
114826,-125,4,2,3,60,0,0
115267,-125,4,2,3,60,0,0
115355,-125,4,2,3,60,0,0
115796,-125,4,2,3,60,0,0
115884,-125,4,2,3,60,0,0
117561,-125,4,2,3,60,0,0
117649,-125,4,2,3,60,0,0
118090,-125,4,2,3,60,0,0
118179,-125,4,2,3,58,0,0
118620,-142.857142857143,4,2,0,58,0,0
124708,-142.857142857143,4,2,0,46,0,0

[Colours]
Combo1 : 112,112,112
Combo2 : 255,89,89
Combo3 : 199,199,199
Combo4 : 255,140,140

[HitObjects]
20,57,22247,6,0,P|63:67|80:93,1,60
62,130,22600,6,0,L|196:106,1,120,10|2,0:1|0:0,0:0:0:0:
251,27,23306,2,0,P|285:39|296:82,1,60,10|2,0:0|0:0,0:0:0:0:
305,111,23659,1,2,0:0:0:0:
419,133,24011,1,2,0:0:0:0:
419,133,24188,1,2,0:0:0:0:
419,133,24364,6,0,L|428:262,1,120,10|10,0:1|0:0,0:0:0:0:
396,297,24894,2,0,L|405:366,1,60,10|2,0:1|0:0,0:0:0:0:
345,371,25247,2,0,B|208:384|273:278|104:287,1,240
481,296,28247,6,0,B|425:276|435:332|362:323,1,120,10|2,0:1|0:0,0:0:0:0:
265,353,28953,2,0,P|231:341|220:298,1,60,10|2,0:0|0:0,0:0:0:0:
211,269,29306,1,2,0:0:0:0:
122,227,29659,1,2,0:0:0:0:
122,227,29835,1,2,0:0:0:0:
122,227,30011,6,0,L|104:88,1,120,10|10,0:1|0:0,0:0:0:0:
129,58,30541,2,0,L|138:-11,1,60,10|2,0:1|0:0,0:0:0:0:
226,59,31070,6,0,P|283:50|314:-8,1,120,10|2,0:1|0:0,0:0:0:0:
428,35,31776,2,0,P|435:69|402:101,1,60,10|2,0:0|0:0,0:0:0:0:
379,129,32129,1,2,0:0:0:0:
414,241,32482,1,2,0:0:0:0:
414,241,32659,1,2,0:0:0:0:
414,241,32835,6,0,B|324:243|393:278|287:295,1,120,10|10,0:1|0:0,0:0:0:0:
260,311,33364,2,0,P|225:328|202:324,1,60,10|2,0:1|0:0,0:0:0:0:
105,318,33894,6,0,P|102:282|151:220,1,107.999996704102,10|2,0:1|0:0,0:0:0:0:
220,167,34600,2,0,P|225:139|223:109,2,53.9999983520508,10|2|2,0:0|0:0|0:0,0:0:0:0:
303,216,35306,1,2,0:0:0:0:
388,262,35659,2,0,P|403:199|421:149,1,107.999996704102,10|10,0:1|0:0,0:0:0:0:
448,114,36188,1,10,0:1:0:0:
448,114,36364,1,2,0:0:0:0:
371,37,36717,6,0,P|336:27|266:65,1,107.999996704102,8|2,0:1|0:0,0:0:0:0:
220,150,37423,2,0,P|225:178|223:208,2,53.9999983520508,10|2|2,0:0|0:0|0:0,0:0:0:0:
123,100,38129,1,2,0:0:0:0:
17,179,38482,6,0,B|77:207|49:241|109:291,1,132.00000402832,10|0,0:1|0:0,0:0:0:0:
148,264,39011,2,0,P|126:304|142:387,1,107.999996704102,2|8,3:3|0:0,0:0:0:0:
181,382,39541,6,0,L|301:360,1,107.999996704102,8|2,0:1|0:0,0:0:0:0:
364,286,40247,2,0,P|369:258|367:228,2,53.9999983520508,10|2|2,0:0|0:0|0:0,0:0:0:0:
459,337,40953,1,0,0:0:0:0:
493,234,41306,2,0,P|495:163|450:131,1,107.999996704102,10|10,0:1|0:0,0:0:0:0:
430,104,41835,1,10,0:1:0:0:
430,104,42011,1,2,0:0:0:0:
330,62,42364,6,0,B|265:47|291:90|208:80,1,120,8|2,0:1|0:0,0:0:0:0:
136,172,43070,2,0,P|130:202|132:235,2,60,10|2|2,0:0|0:0|0:0,0:0:0:0:
7,182,43776,1,2,0:0:0:0:
7,182,43953,1,2,0:0:0:0:
7,182,44129,2,0,P|23:239|32:301,1,120,10|10,0:1|0:0,0:0:0:0:
31,299,45188,5,2,0:0:0:0:
132,316,45541,1,2,0:0:0:0:
238,331,45894,1,2,0:0:0:0:
337,288,46247,1,2,0:0:0:0:
398,200,46600,2,0,P|440:170|520:166,2,125.999996154785,2|2|2,0:0|0:0|0:0,0:0:0:0:
337,288,48011,5,2,0:0:0:0:
286,209,48364,1,2,0:0:0:0:
323,124,48717,1,2,0:0:0:0:
279,47,49070,1,2,0:0:0:0:
182,63,49423,2,0,P|140:33|60:29,2,125.999996154785,2|2|2,0:0|0:0|0:0,0:0:0:0:
279,47,50835,6,0,P|314:41|357:-5,2,96,10|2|10,0:1|0:0|0:0,0:0:0:0:
244,137,51894,1,2,0:0:0:0:
298,215,52247,1,2,0:0:0:0:
391,192,52600,2,0,L|405:287,1,96,8|8,0:1|0:0,0:0:0:0:
379,328,53129,2,0,L|372:375,1,48,8|2,0:1|0:0,0:0:0:0:
283,337,53659,6,0,P|248:343|205:389,2,96,10|2|10,0:1|0:0|0:0,0:0:0:0:
325,250,54717,2,0,L|317:188,1,48,2|8,0:0|0:3,0:0:0:0:
290,163,55070,1,2,0:0:0:0:
224,92,55423,2,0,L|129:78,1,96,8|8,0:1|0:0,0:0:0:0:
88,104,55953,2,0,L|40:111,1,48,8|2,0:1|3:3,0:0:0:0:
116,203,56502,6,0,L|250:179,1,120,10|2,0:1|0:0,0:0:0:0:
310,88,57207,2,0,P|344:100|355:143,1,60,10|2,0:0|0:0,0:0:0:0:
364,172,57560,1,2,0:0:0:0:
490,191,57913,1,2,0:0:0:0:
490,191,58089,1,2,0:0:0:0:
490,191,58266,2,0,B|461:220|461:220|475:310,1,120,10|10,0:1|0:0,0:0:0:0:
419,325,58795,2,0,B|409:399,1,60,10|2,0:1|0:0,0:0:0:0:
307,323,59325,6,0,L|303:260,2,60,10|2|2,0:1|0:0|0:0,0:0:0:0:
260,361,59854,1,0,0:0:0:0:
260,361,60030,2,0,P|226:349|215:306,1,60,10|2,0:0|0:0,0:0:0:0:
182,279,60383,2,0,P|149:263|111:286,1,60,2|8,0:0|0:3,0:0:0:0:
81,307,60736,1,2,0:0:0:0:
44,192,61090,6,0,L|26:53,1,120,10|10,0:1|0:0,0:0:0:0:
87,60,61619,2,0,L|97:-23,1,60,10|2,0:1|0:0,0:0:0:0:
176,88,62149,6,0,P|230:101|252:159,1,120,10|2,0:1|0:0,0:0:0:0:
367,190,62854,2,0,L|364:253,1,60,10|2,0:0|0:0,0:0:0:0:
357,309,63207,1,2,0:0:0:0:
257,373,63560,1,2,0:0:0:0:
257,373,63736,1,2,0:0:0:0:
256,372,63913,6,0,P|212:334|153:333,1,120,10|10,0:1|0:0,0:0:0:0:
106,296,64442,2,0,P|70:298|45:323,1,60,10|2,0:1|0:0,0:0:0:0:
30,194,64972,6,0,P|60:144|117:134,1,120,10|2,0:1|0:0,0:0:0:0:
235,159,65678,2,0,P|263:152|280:128,1,60,10|2,0:0|0:0,0:0:0:0:
298,71,66030,1,2,0:0:0:0:
422,105,66383,1,2,0:0:0:0:
422,105,66560,1,2,0:0:0:0:
422,105,66737,6,0,B|436:234,1,120,10|10,0:1|0:0,0:0:0:0:
404,276,67266,2,0,B|395:353,1,60,10|2,0:1|0:0,0:0:0:0:
292,361,67796,6,0,P|256:364|194:315,1,107.999996704102,10|2,0:1|0:0,0:0:0:0:
222,219,68502,2,0,P|217:191|219:161,2,53.9999983520508,10|2|2,0:0|0:0|0:0,0:0:0:0:
329,232,69207,1,2,0:0:0:0:
395,146,69560,2,0,L|416:25,1,107.999996704102,10|10,0:1|0:0,0:0:0:0:
378,0,70089,1,10,0:1:0:0:
378,0,70266,1,2,0:0:0:0:
302,77,70619,6,0,P|267:87|197:49,1,107.999996704102,10|2,0:1|0:0,0:0:0:0:
95,53,71325,2,0,P|90:25|92:-5,2,53.9999983520508,10|2|2,0:0|0:0|0:0,0:0:0:0:
34,142,72030,1,2,0:0:0:0:
128,208,72384,2,0,L|135:326,1,107.999996704102,10|10,0:1|0:0,0:0:0:0:
186,331,72913,2,0,L|174:389,1,53.9999983520508,10|2,0:1|0:0,0:0:0:0:
272,337,73443,6,0,L|392:315,1,107.999996704102,10|2,0:1|0:0,0:0:0:0:
485,331,74148,2,0,P|486:357|481:384,2,53.9999983520508,10|2|2,0:0|0:0|0:0,0:0:0:0:
508,225,74854,1,2,0:0:0:0:
476,121,75207,2,0,P|450:78|384:56,1,107.999996704102,10|10,0:1|0:0,0:0:0:0:
354,24,75736,2,0,P|324:29|298:62,1,53.9999983520508,10|2,0:1|0:0,0:0:0:0:
280,162,76266,6,0,B|215:147|241:190|158:180,1,120,10|2,0:1|0:0,0:0:0:0:
86,272,76972,2,0,P|80:305|82:341,2,60,10|2|2,0:0|0:0|0:0,0:0:0:0:
0,171,77678,1,2,0:0:0:0:
0,171,77854,1,2,0:0:0:0:
0,171,78031,2,0,P|13:129|92:106,1,120,10|2,0:1|0:3,0:0:0:0:
79,102,79089,5,2,0:0:0:0:
170,144,79442,1,2,0:0:0:0:
268,185,79795,1,2,0:0:0:0:
375,170,80148,1,2,0:0:0:0:
456,232,80501,2,0,P|486:274|490:354,2,125.999996154785,2|2|2,0:0|0:0|0:0,0:0:0:0:
375,170,81913,5,2,0:0:0:0:
296,221,82266,1,2,0:0:0:0:
211,184,82619,1,2,0:0:0:0:
134,228,82972,1,2,0:0:0:0:
49,191,83325,2,0,P|19:149|15:69,2,125.999996154785,2|2|2,0:0|0:0|0:0,0:0:0:0:
134,228,84737,6,0,P|169:234|212:280,2,96,10|2|10,0:1|0:0|0:0,0:0:0:0:
136,324,85795,1,2,0:0:0:0:
225,358,86148,1,2,0:0:0:0:
305,305,86501,2,0,L|400:291,1,96,8|8,0:1|0:0,0:0:0:0:
441,266,87030,2,0,L|488:259,1,48,8|2,0:1|0:0,0:0:0:0:
454,169,87560,6,0,P|460:134|506:91,2,96,10|2|10,0:1|0:0|0:0,0:0:0:0:
441,266,88619,2,0,P|418:255|401:237,1,48,2|8,0:0|0:3,0:0:0:0:
361,214,88972,1,2,0:0:0:0:
291,146,89325,2,0,L|196:132,1,96,8|8,0:1|0:0,0:0:0:0:
156,107,89854,2,0,L|109:100,1,48,8|2,0:1|0:0,0:0:0:0:
133,209,90383,6,0,P|162:219|186:245,1,53.9999983520508,10|0,0:1|0:0,0:0:0:0:
200,284,90736,1,2,0:0:0:0:
277,359,91090,2,0,P|316:344|336:277,1,107.999996704102,10|2,0:0|0:0,0:0:0:0:
445,300,91795,2,0,P|454:270|479:251,1,53.9999983520508,2|0,0:0|0:0,0:0:0:0:
508,216,92148,6,0,L|512:101,1,107.999996704102,8|8,0:1|0:0,0:0:0:0:
482,62,92678,2,0,L|479:-6,1,53.9999983520508,8|2,0:1|0:0,0:0:0:0:
376,38,93207,6,0,L|310:48,1,53.9999983520508,10|0,0:1|0:0,0:0:0:0:
280,80,93560,1,2,0:0:0:0:
232,188,93913,2,0,P|193:173|173:106,1,107.999996704102,10|2,0:0|0:0,0:0:0:0:
146,66,94442,1,8,0:3:0:0:
146,66,94619,2,0,L|79:50,1,53.9999983520508,2|0,0:0|0:0,0:0:0:0:
50,86,94972,6,0,L|67:216,1,107.999996704102,8|8,0:1|0:0,0:0:0:0:
48,245,95501,2,0,L|37:323,1,53.9999983520508,8|2,0:1|0:0,0:0:0:0:
141,336,96030,6,0,L|131:270,1,53.9999983520508,10|2,0:1|0:0,0:0:0:0:
175,249,96383,1,2,0:0:0:0:
233,157,96737,2,0,L|211:38,1,107.999996704102,10|2,0:0|0:0,0:0:0:0:
316,19,97442,2,0,P|345:12|383:35,1,53.9999983520508,2|2,0:0|0:0,0:0:0:0:
400,62,97796,6,0,L|414:169,1,107.999996704102,10|10,0:1|0:0,0:0:0:0:
436,218,98325,2,0,L|425:296,1,53.9999983520508,10|2,0:1|0:0,0:0:0:0:
348,344,98854,6,0,P|317:341|287:322,1,53.9999983520508,10|2,0:1|0:0,0:0:0:0:
264,288,99207,1,2,0:0:0:0:
164,329,99560,2,0,P|139:295|69:293,1,107.999996704102,10|2,0:0|0:0,0:0:0:0:
35,263,100089,1,8,0:3:0:0:
35,263,100266,2,0,P|33:236|22:211,1,53.9999983520508,2|2,0:0|0:0,0:0:0:0:
53,167,100619,6,0,L|158:142,1,107.999996704102,10|10,0:1|0:0,0:0:0:0:
192,96,101148,2,0,L|265:113,1,53.9999983520508,10|2,0:1|0:0,0:0:0:0:
336,50,101678,6,0,P|396:54|432:111,1,107.999996704102,10|2,0:1|0:0,0:0:0:0:
498,169,102384,2,0,P|489:210|427:241,1,107.999996704102,10|2,0:0|0:0,0:0:0:0:
352,311,103089,2,0,P|330:328|300:324,1,53.9999983520508,2|2,0:0|0:0,0:0:0:0:
253,308,103443,6,0,L|125:296,1,107.999996704102,10|10,0:1|0:0,0:0:0:0:
101,266,103972,2,0,L|37:272,1,53.9999983520508,10|2,0:1|0:0,0:0:0:0:
22,165,104501,6,0,P|52:111|118:103,1,107.999996704102,10|2,0:1|0:0,0:0:0:0:
179,31,105207,2,0,P|220:24|271:72,1,107.999996704102,10|2,0:0|0:0,0:0:0:0:
318,85,105736,1,8,0:3:0:0:
318,85,105913,2,0,L|331:137,1,53.9999983520508,2|2,0:0|0:0,0:0:0:0:
375,168,106266,6,0,L|363:296,1,107.999996704102,10|10,0:1|0:0,0:0:0:0:
385,325,106795,2,0,L|391:389,1,53.9999983520508,10|2,0:1|0:0,0:0:0:0:
297,352,107325,6,0,P|278:338|251:333,2,48,10|2|2,0:1|0:0|0:0,0:0:0:0:
385,325,108031,2,0,P|404:311|431:306,2,48,10|2|2,0:0|0:0|0:0,0:0:0:0:
334,243,108737,2,0,P|315:229|288:224,2,48,2|2|10,0:0|0:0|0:1,0:0:0:0:
412,187,109442,1,10,0:0:0:0:
412,187,109619,2,0,L|461:173,1,48,10|2,0:1|0:0,0:0:0:0:
492,84,110148,6,0,P|506:65|511:38,2,48,10|2|2,0:1|0:0|0:0,0:0:0:0:
398,62,110854,2,0,P|384:43|379:16,2,48,10|2|2,0:0|0:0|0:0,0:0:0:0:
371,102,111383,1,8,0:3:0:0:
371,102,111560,2,0,P|385:121|390:148,2,48,2|2|10,0:0|0:0|0:1,0:0:0:0:
282,79,112266,1,10,0:0:0:0:
282,79,112442,2,0,L|233:65,1,48,10|2,0:1|0:0,0:0:0:0:
139,67,112972,6,0,P|125:48|120:21,2,48,10|2|2,0:1|0:0|0:0,0:0:0:0:
88,148,113678,2,0,P|74:167|69:194,2,48,2|2|2,0:0|0:0|0:0,0:0:0:0:
177,184,114384,2,0,P|191:165|196:138,2,48,2|2|10,0:0|0:0|0:1,0:0:0:0:
135,272,115089,1,2,0:0:0:0:
135,272,115266,2,0,L|149:321,1,48,10|2,0:1|0:0,0:0:0:0:
241,342,115796,6,0,P|227:361|222:388,2,48,10|2|2,0:1|0:0|0:0,0:0:0:0:
255,247,116501,2,0,P|269:228|274:201,2,48,2|2|2,0:0|0:0|0:0,0:0:0:0:
330,307,117207,2,0,P|349:321|376:326,2,48,2|2|10,0:0|0:0|0:1,0:0:0:0:
255,247,117913,1,2,0:0:0:0:
255,247,118089,2,0,L|269:198,1,48,10|2,0:1|0:0,0:0:0:0:
339,111,118619,5,2,0:0:0:0:
240,94,118972,1,2,0:0:0:0:
134,79,119325,1,2,0:0:0:0:
35,122,119678,1,2,0:0:0:0:
7,214,120031,2,0,L|18:340,2,125.999996154785,2|2|2,0:0|0:0|0:0,0:0:0:0:
35,122,121442,5,2,0:0:0:0:
134,79,121795,1,2,0:0:0:0:
240,94,122148,1,2,0:0:0:0:
339,111,122501,1,2,0:0:0:0:
426,170,122854,2,0,L|415:296,2,125.999996154785,2|2|2,0:0|0:0|0:0,0:0:0:0:
512,0,124707,5,0,0:0:0:0:
