osu file format v14

[General]
AudioFilename: audio.mp3
AudioLeadIn: 0
PreviewTime: 45634
Countdown: 1
SampleSet: Soft
StackLeniency: 0.7
Mode: 0
LetterboxInBreaks: 0
WidescreenStoryboard: 1

[Editor]
DistanceSpacing: 1.3
BeatDivisor: 4
GridSize: 4
TimelineZoom: 1

[Metadata]
Title:Picky
TitleUnicode:Picky
Artist:Joey Montana
ArtistUnicode:Joey Montana
Creator:ezek
Version:Picky Girl
Source:
Tags:reggaeton latin latino HappyRocket88
BeatmapID:950150
BeatmapSetID:441733

[Difficulty]
HPDrainRate:6
CircleSize:4
OverallDifficulty:6
ApproachRate:8
SliderMultiplier:2.1
SliderTickRate:1

[Events]
//Background and Video events
Video,0,"PickyRocket.avi"
0,0,"PickyBG.jpg",0,0
//Break Periods
2,87179,93951
2,118068,126770
2,159252,160876
//Storyboard Layer 0 (Background)
//Storyboard Layer 1 (Fail)
//Storyboard Layer 2 (Pass)
//Storyboard Layer 3 (Foreground)
//Storyboard Sound Samples

[TimingPoints]
14907,643.507545125967,4,2,2,60,1,0
40647,-100,4,2,2,80,0,1
40808,-100,4,2,2,60,0,0
45795,-100,4,2,2,70,0,1
66387,-100,4,2,2,60,0,0
71535,-100,4,2,2,80,0,1
71696,-100,4,2,2,60,0,0
76683,-200,4,2,2,60,0,0
79257,-100,4,2,2,60,0,0
97275,-100,4,2,2,70,0,1
117868,-100,4,2,2,60,0,0
143608,-100,4,2,2,80,0,1
143769,-100,4,2,2,60,0,0
148756,-100,4,2,2,70,0,1
159052,-100,4,2,2,60,0,0
161626,-100,4,2,2,70,0,1
169348,-133.333333333333,4,2,2,60,0,0
187367,-100,4,2,0,40,0,0
188010,-100,4,2,0,30,0,0
188654,-100,4,2,0,20,0,0
189297,-100,4,2,0,10,0,0
189619,-100,4,2,0,5,0,0

[Colours]
Combo1 : 255,224,130
Combo2 : 0,202,0
Combo3 : 18,124,255
Combo4 : 255,128,255
SliderBorder : 0,173,239
SliderTrackOverride : 0,0,0

[HitObjects]
104,340,14906,6,0,P|120:264|104:184,1,157.5,0|2,1:0|0:0,0:0:0:0:
68,124,15550,2,0,L|164:80,1,105,0|0,1:0|0:0,0:0:0:0:
368,132,16194,2,0,B|364:168|412:192|412:192|364:216|368:252,1,157.5,0|2,1:0|0:0,0:0:0:0:
368,324,16837,2,0,P|316:340|268:324,1,105,0|0,1:0|0:0,0:0:0:0:
64,280,17481,6,0,P|128:256|212:280,1,157.5,0|2,1:0|0:0,0:0:0:0:
192,352,18124,2,0,L|88:352,1,105,0|0,1:0|0:0,0:0:0:0:
4,156,18768,2,0,P|24:140|48:128,1,52.5,0|0,1:0|0:0,0:0:0:0:
144,152,19089,2,0,P|124:168|100:180,1,52.5,0|2,0:0|0:0,0:0:0:0:
108,80,19411,2,0,B|144:56|184:68|184:68|212:76,1,105,0|0,1:0|0:0,0:0:0:0:
276,104,19894,1,0,0:0:0:0:
276,104,20055,6,0,B|336:116|336:116|392:128|428:100,1,157.5,0|2,1:0|0:0,0:0:0:0:
480,48,20698,2,0,L|496:160,1,105,0|0,1:0|0:0,0:0:0:0:
400,328,21342,2,0,P|336:352|252:328,1,157.5,0|2,1:0|0:0,0:0:0:0:
196,280,21985,2,0,P|144:264|96:280,1,105,0|0,1:0|0:0,0:0:0:0:
40,76,22629,6,0,P|104:100|188:76,1,157.5,0|2,1:0|0:0,0:0:0:0:
248,36,23272,2,0,L|356:64,1,105,0|0,1:0|0:0,0:0:0:0:
448,192,23916,2,0,L|372:168,1,78.75,0|0,1:0|2:0,2:0:0:0:
416,312,24720,6,0,P|392:332|364:340,1,52.5
264,280,25042,1,0,0:0:0:0:
264,280,25203,6,0,L|320:292,1,52.5,2|0,0:0|0:0,0:0:0:0:
184,284,25524,2,0,P|172:252|172:232,1,52.5,0|8,0:0|0:0,0:0:0:0:
208,168,25846,2,0,P|160:188|108:180,1,105,2|8,0:0|0:0,0:0:0:0:
272,128,26490,2,0,P|320:108|424:120,1,157.5,2|8,0:0|0:0,0:0:0:0:
476,172,27133,1,2,0:0:0:0:
476,172,27294,2,0,L|460:228,1,52.5,0|8,0:0|0:0,0:0:0:0:
444,296,27616,1,0,0:0:0:0:
352,252,27777,6,0,P|328:248|300:252,1,52.5,2|0,0:0|0:0,0:0:0:0:
192,296,28098,2,0,P|216:300|244:296,1,52.5,0|8,0:0|0:0,0:0:0:0:
128,244,28420,2,0,P|112:288|128:344,1,105,2|8,0:0|0:0,0:0:0:0:
192,296,28903,1,0,0:0:0:0:
192,296,29064,2,0,L|296:296,1,105,2|0,0:0|0:0,0:0:0:0:
368,216,29546,1,8,0:0:0:0:
368,216,29707,2,0,P|372:188|368:164,1,52.5
304,76,30029,2,0,P|300:104|304:128,1,52.5,8|0,0:0|0:0,0:0:0:0:
380,32,30351,6,0,L|220:32,1,157.5,2|8,0:0|0:0,0:0:0:0:
148,32,30994,1,0,0:0:0:0:
148,32,31316,1,8,0:0:0:0:
60,200,31638,2,0,B|80:272|80:272|60:352,1,157.5,2|8,0:0|0:0,0:0:0:0:
132,364,32281,2,0,L|144:312,1,52.5
132,188,32603,2,0,L|144:240,1,52.5,8|0,0:0|0:0,0:0:0:0:
208,272,32925,6,0,L|260:272,1,52.5,2|0,0:0|0:0,0:0:0:0:
348,336,33246,2,0,L|296:336,1,52.5,0|8,0:0|0:0,0:0:0:0:
388,272,33568,2,0,L|440:272,1,52.5,2|0,0:0|0:0,0:0:0:0:
324,216,33890,1,8,0:0:0:0:
200,56,34212,6,0,P|152:48|96:60,1,105
152,156,34694,1,0,0:0:0:0:
152,156,34855,2,0,L|152:260,1,105
432,336,35499,6,0,P|448:256|432:180,1,157.5,0|8,1:0|0:0,0:0:0:0:
400,120,36142,1,0,1:0:0:0:
400,120,36464,1,8,0:0:0:0:
192,152,36786,2,0,L|136:144,1,52.5,0|0,1:0|0:0,0:0:0:0:
236,88,37108,2,0,L|288:96,1,52.5,0|8,0:0|0:0,0:0:0:0:
264,240,37429,2,0,L|152:224,1,105,0|8,1:0|0:0,0:0:0:0:
88,236,37912,1,0,0:0:0:0:
88,236,38073,6,0,P|100:272|120:288,1,52.5,0|0,1:0|0:0,0:0:0:0:
112,164,38395,2,0,P|100:128|80:112,1,52.5,0|8,0:0|0:0,0:0:0:0:
196,156,38716,2,0,B|248:168|248:168|300:156,1,105,0|8,1:0|0:0,0:0:0:0:
244,344,39360,2,0,P|268:348|296:344,1,52.5,0|0,1:0|0:0,0:0:0:0:
392,288,39682,2,0,P|368:284|340:288,1,52.5,0|8,0:0|0:0,0:0:0:0:
440,348,40003,2,0,L|464:244,1,105,0|8,1:0|0:0,0:0:0:0:
308,92,40647,6,0,B|272:68|228:80|228:80|144:104,1,157.5,4|8,1:0|0:0,0:0:0:0:
88,124,41290,2,0,L|188:176,1,105,0|8,1:0|0:0,0:0:0:0:
244,212,41773,1,0,0:0:0:0:
244,212,41934,2,0,L|232:268,1,52.5,0|0,1:0|0:0,0:0:0:0:
148,320,42256,2,0,L|160:264,1,52.5,0|8,0:0|0:0,0:0:0:0:
308,240,42577,2,0,L|284:344,1,105,0|8,1:0|0:0,0:0:0:0:
388,88,43221,6,0,P|348:80|332:80,1,52.5,0|0,1:0|0:0,0:0:0:0:
320,180,43543,2,0,P|360:188|376:188,1,52.5,0|8,0:0|0:0,0:0:0:0:
468,128,43864,2,0,P|476:88|476:72,1,52.5,0|0,1:0|0:0,0:0:0:0:
448,204,44186,2,0,P|440:244|440:260,1,52.5,8|0,0:0|0:0,0:0:0:0:
372,324,44508,1,0,1:0:0:0:
372,324,44669,1,0,0:0:0:0:
280,288,44830,2,0,L|224:280,1,52.5,0|8,0:0|0:0,0:0:0:0:
104,260,45151,2,0,P|88:212|104:160,1,105,0|8,1:0|0:0,0:0:0:0:
103,161,45795,6,0,P|115:125|115:101,1,52.5,0|0,1:0|0:0,0:0:0:0:
112,36,46117,1,0,0:0:0:0:
196,108,46277,1,8,0:0:0:0:
196,108,46438,2,0,L|248:112,1,52.5,0|0,1:0|0:0,0:0:0:0:
336,180,46760,2,0,L|284:176,1,52.5,8|0,0:0|0:0,0:0:0:0:
384,120,47082,2,0,L|460:124,1,52.5,0|0,1:0|0:0,0:0:0:0:
348,320,47565,1,8,0:0:0:0:
348,320,47725,2,0,P|320:324|296:320,1,52.5,0|0,1:0|0:0,0:0:0:0:
200,260,48047,2,0,P|228:256|252:260,1,52.5,8|0,0:0|0:0,0:0:0:0:
160,324,48369,6,0,P|132:328|108:324,1,52.5,0|0,1:0|0:0,0:0:0:0:
36,304,48691,1,0,0:0:0:0:
104,224,48852,1,8,0:0:0:0:
104,224,49012,2,0,L|112:172,1,52.5,0|0,1:0|0:0,0:0:0:0:
168,84,49334,2,0,L|176:136,1,52.5,8|0,0:0|0:0,0:0:0:0:
272,192,49656,2,0,P|300:196|328:192,1,52.5,0|0,1:0|0:0,0:0:0:0:
412,132,49978,2,0,P|384:128|356:132,1,52.5,0|8,0:0|0:0,0:0:0:0:
320,272,50299,2,0,L|428:296,1,105,0|8,1:0|0:0,0:0:0:0:
260,324,50943,6,0,L|96:276,1,157.5,4|8,1:0|0:0,0:0:0:0:
40,260,51586,2,0,P|56:208|40:160,1,105,0|8,1:0|0:0,0:0:0:0:
8,96,52069,1,0,0:0:0:0:
8,96,52230,2,0,P|48:88|68:92,1,52.5,0|0,1:0|0:0,0:0:0:0:
272,60,52713,1,2,0:0:0:0:
272,60,52873,2,0,L|324:64,1,52.5,0|0,1:0|0:0,0:0:0:0:
400,136,53195,2,0,L|348:132,1,52.5,8|0,0:0|0:0,0:0:0:0:
240,152,53517,6,0,P|224:204|240:252,1,105,0|0,1:0|0:0,0:0:0:0:
300,304,54000,1,8,0:0:0:0:
300,304,54160,2,0,L|356:316,1,52.5,0|0,1:0|0:0,0:0:0:0:
220,320,54482,2,0,L|164:308,1,52.5,8|0,0:0|0:0,0:0:0:0:
276,372,54804,1,0,1:0:0:0:
276,372,54965,1,0,0:0:0:0:
239,250,55126,2,0,P|228:224|224:192,1,52.5,0|8,0:0|0:0,0:0:0:0:
280,96,55447,2,0,P|304:136|312:196,1,105,0|8,1:0|0:0,0:0:0:0:
312,192,56091,6,0,L|372:184,1,52.5,0|0,1:0|0:0,0:0:0:0:
436,172,56413,1,0,0:0:0:0:
400,296,56574,1,8,0:0:0:0:
400,296,56734,2,0,P|376:300|348:296,1,52.5,0|0,1:0|0:0,0:0:0:0:
236,264,57056,2,0,P|260:260|292:264,1,52.5,8|0,0:0|0:0,0:0:0:0:
184,316,57378,2,0,P|155:320|131:316,1,52.5,0|0,1:0|0:0,0:0:0:0:
280,156,57861,1,8,0:0:0:0:
280,156,58022,2,0,P|256:152|228:156,1,52.5,0|0,1:0|0:0,0:0:0:0:
116,196,58343,2,0,P|140:200|168:196,1,52.5,8|0,0:0|0:0,0:0:0:0:
56,156,58665,6,0,P|32:152|4:156,1,52.5,0|0,1:0|0:0,0:0:0:0:
32,228,58987,1,0,0:0:0:0:
32,228,59148,1,8,0:0:0:0:
140,124,59309,2,0,L|136:72,1,52.5,0|0,1:0|0:0,0:0:0:0:
228,155,59630,2,0,L|232:208,1,52.5,8|0,0:0|0:0,0:0:0:0:
316,124,59952,2,0,L|312:72,1,52.5,0|0,1:0|0:0,0:0:0:0:
380,32,60274,1,0,0:0:0:0:
380,32,60435,1,8,0:0:0:0:
460,104,60596,2,0,B|472:156|472:156|460:208,1,105,0|8,1:0|0:0,0:0:0:0:
292,332,61239,6,0,B|248:340|216:320|216:320|184:300|140:312,1,157.5,0|8,1:0|0:0,0:0:0:0:
72,344,61883,2,0,P|44:348|20:344,1,52.5,0|0,1:0|0:0,0:0:0:0:
48,276,62204,1,8,0:0:0:0:
48,276,62365,1,0,0:0:0:0:
152,232,62526,2,0,P|176:228|208:232,1,52.5,0|0,1:0|0:0,0:0:0:0:
100,56,63009,1,8,0:0:0:0:
100,56,63170,2,0,P|72:60|48:56,1,52.5,0|0,1:0|0:0,0:0:0:0:
172,32,63491,2,0,P|200:28|224:32,1,52.5,8|0,0:0|0:0,0:0:0:0:
220,196,63813,6,0,P|192:160|196:104,1,105,0|0,1:0|0:0,0:0:0:0:
268,140,64296,1,8,0:0:0:0:
268,140,64457,2,0,L|320:148,1,52.5,0|0,1:0|0:0,0:0:0:0:
392,228,64778,2,0,L|340:220,1,52.5,8|0,0:0|0:0,0:0:0:0:
248,276,65100,2,0,L|300:284,1,52.5,0|0,1:0|0:0,0:0:0:0:
356,332,65422,1,2,0:0:0:0:
356,332,65744,1,2,0:0:0:0:
52,240,66387,6,0,B|16:168|52:88,1,157.5,0|8,1:0|0:0,0:0:0:0:
104,36,67031,2,0,B|132:32|132:32|160:36,1,52.5,0|0,1:0|0:0,0:0:0:0:
248,96,67352,2,0,B|220:100|220:100|192:96,1,52.5,8|0,0:0|0:0,0:0:0:0:
288,36,67674,2,0,B|316:32|316:32|344:36,1,52.5,0|0,1:0|0:0,0:0:0:0:
412,56,67996,1,0,0:0:0:0:
412,56,68157,1,8,0:0:0:0:
340,132,68318,2,0,P|324:184|340:232,1,105,0|8,1:0|0:0,0:0:0:0:
164,348,68961,6,0,B|200:276|164:196,1,157.5,0|8,1:0|0:0,0:0:0:0:
112,144,69605,2,0,P|108:116|112:92,1,52.5,0|0,1:0|0:0,0:0:0:0:
160,36,69926,1,8,0:0:0:0:
160,36,70087,1,0,0:0:0:0:
236,112,70248,2,0,L|288:120,1,52.5,0|0,1:0|0:0,0:0:0:0:
380,68,70570,2,0,L|328:60,1,52.5,0|8,0:0|0:0,0:0:0:0:
260,188,70892,2,0,P|244:240|260:288,1,105,0|8,1:0|0:0,0:0:0:0:
48,312,71535,6,0,B|12:240|48:160,1,157.5,4|8,1:0|0:0,0:0:0:0:
108,116,72179,2,0,L|160:132,1,52.5,0|0,1:0|0:0,0:0:0:0:
256,88,72500,2,0,L|204:72,1,52.5,8|0,0:0|0:0,0:0:0:0:
260,164,72822,2,0,L|312:180,1,52.5,0|0,1:0|0:0,0:0:0:0:
372,140,73144,1,0,0:0:0:0:
372,140,73305,1,8,0:0:0:0:
344,244,73466,2,0,B|320:284|332:298|344:312|320:348,1,105,0|8,1:0|0:0,0:0:0:0:
188,184,74109,6,0,P|128:176|76:248,1,157.5,0|8,1:0|0:0,0:0:0:0:
132,296,74753,2,0,P|88:320|36:308,1,105,0|8,1:0|0:0,0:0:0:0:
4,212,75235,1,0,0:0:0:0:
4,212,75396,2,0,L|12:160,1,52.5,0|0,1:0|0:0,0:0:0:0:
96,104,75718,2,0,L|104:52,1,52.5,0|8,0:0|0:0,0:0:0:0:
168,164,76040,2,0,L|152:268,1,105,0|8,1:0|0:0,0:0:0:0:
220,91,76683,6,0,P|272:63|384:143,1,210,4|0,1:0|0:0,0:0:0:0:
440,344,78936,5,0,0:0:0:0:
440,344,79257,6,0,B|460:272|460:272|440:192,1,157.5,0|8,1:0|0:0,0:0:0:0:
384,140,79901,2,0,B|368:88|368:88|384:40,1,105,0|8,1:0|0:0,0:0:0:0:
448,92,80383,1,0,0:0:0:0:
448,92,80544,2,0,L|496:112,1,52.5,0|0,1:0|0:0,0:0:0:0:
488,211,80866,2,0,L|440:191,1,52.5,0|8,0:0|0:0,0:0:0:0:
312,140,81188,2,0,P|252:144|216:180,1,105,0|8,1:0|0:0,0:0:0:0:
112,352,81831,6,0,P|196:344|244:292,1,157.5,4|8,1:0|0:0,0:0:0:0:
272,224,82475,2,0,P|308:256|316:312,1,105,0|8,1:0|0:0,0:0:0:0:
244,292,82957,1,0,0:0:0:0:
216,172,83118,2,0,P|240:152|264:148,1,52.5,0|0,1:0|0:0,0:0:0:0:
376,148,83440,2,0,P|352:168|328:172,1,52.5,0|8,0:0|0:0,0:0:0:0:
384,76,83762,2,0,P|436:108|448:148,1,105,0|8,1:0|0:0,0:0:0:0:
340,332,84405,6,0,L|288:340,1,52.5,0|0,1:0|0:0,0:0:0:0:
212,264,84727,2,0,L|264:272,1,52.5,0|8,0:0|0:0,0:0:0:0:
180,336,85049,2,0,P|140:296|136:244,1,105,0|8,1:0|0:0,0:0:0:0:
152,44,85692,2,0,P|200:84|212:176,1,157.5,0|8,1:0|0:0,0:0:0:0:
180,240,86336,1,0,1:0:0:0:
380,176,86658,1,8,0:0:0:0:
380,176,86979,5,0,3:0:0:0:
64,108,94701,6,0,P|92:104|116:108,1,52.5,0|0,3:0|0:0,0:0:0:0:
176,148,95023,2,0,P|204:152|228:148,1,52.5,0|0,0:0|3:0,0:0:0:0:
284,103,95345,2,0,P|309:98|335:102,1,52.5,2|0,0:0|0:0,0:0:0:0:
396,143,95667,2,0,P|421:147|447:143,1,52.5
420,76,95988,1,2,0:0:0:0:
420,76,96149,1,0,0:0:0:0:
335,102,96310,1,0,0:0:0:0:
335,102,96471,1,0,0:0:0:0:
252,140,96632,2,0,L|152:172,1,105,2|0,0:0|0:0,0:0:0:0:
348,260,97275,6,0,L|408:268,1,52.5,0|0,1:0|0:0,0:0:0:0:
472,284,97597,1,0,0:0:0:0:
356,340,97758,1,8,0:0:0:0:
356,340,97919,2,0,L|300:328,1,52.5,0|0,1:0|0:0,0:0:0:0:
240,296,98241,2,0,P|236:268|240:244,1,52.5,8|0,0:0|0:0,0:0:0:0:
276,128,98562,2,0,P|280:156|276:180,1,52.5,0|0,1:0|0:0,0:0:0:0:
64,168,99045,1,8,0:0:0:0:
64,168,99206,2,0,L|48:108,1,52.5,0|0,1:0|0:0,0:0:0:0:
144,172,99528,2,0,L|132:224,1,52.5,8|0,0:0|0:0,0:0:0:0:
120,100,99849,6,0,P|144:96|176:104,1,52.5,0|0,1:0|0:0,0:0:0:0:
232,144,100171,1,0,0:0:0:0:
292,60,100332,1,8,0:0:0:0:
292,60,100493,2,0,L|360:48,1,52.5,0|0,1:0|0:0,0:0:0:0:
408,120,100815,2,0,L|340:132,1,52.5,8|0,0:0|0:0,0:0:0:0:
320,216,101137,2,0,L|388:204,1,52.5,0|0,1:0|0:0,0:0:0:0:
320,292,101458,1,0,0:0:0:0:
320,292,101619,1,8,0:0:0:0:
228,260,101780,2,0,P|200:256|168:268,1,52.5,0|0,1:0|0:0,0:0:0:0:
80,320,102102,2,0,P|108:324|140:312,1,52.5,8|0,0:0|0:0,0:0:0:0:
76,200,102424,6,0,P|76:236|120:208,1,105,4|0,1:0|0:0,0:0:0:0:
120,144,102906,1,8,0:0:0:0:
120,144,103067,2,0,P|100:128|72:124,1,52.5,0|0,1:0|0:0,0:0:0:0:
184,180,103389,2,0,P|204:196|232:200,1,52.5,8|0,0:0|0:0,0:0:0:0:
232,128,103711,1,0,1:0:0:0:
232,128,103871,1,0,0:0:0:0:
428,48,104193,1,8,0:0:0:0:
428,48,104354,2,0,L|504:64,1,52.5,0|0,1:0|0:0,0:0:0:0:
384,108,104676,2,0,L|308:92,1,52.5,8|0,0:0|0:0,0:0:0:0:
228,76,104998,6,0,P|212:124|228:176,1,105,0|0,1:0|0:0,0:0:0:0:
288,272,105480,1,8,0:0:0:0:
288,272,105641,2,0,P|292:248|288:220,1,52.5,0|0,1:0|0:0,0:0:0:0:
220,244,105963,2,0,L|164:244,1,52.5,8|0,0:0|0:0,0:0:0:0:
72,188,106285,2,0,L|128:188,1,52.5,0|0,1:0|0:0,0:0:0:0:
28,248,106606,1,2,0:0:0:0:
28,248,106928,1,2,0:0:0:0:
152,340,107572,6,0,P|176:344|204:340,1,52.5,0|0,1:0|0:0,0:0:0:0:
272,308,107893,1,0,0:0:0:0:
180,252,108054,1,8,0:0:0:0:
180,252,108215,2,0,L|128:236,1,52.5,0|0,1:0|0:0,0:0:0:0:
120,132,108537,2,0,L|172:148,1,52.5,8|0,0:0|0:0,0:0:0:0:
244,72,108859,2,0,L|192:56,1,52.5,0|0,1:0|0:0,0:0:0:0:
364,184,109341,1,8,0:0:0:0:
364,184,109502,2,0,B|388:188|388:188|416:184,1,52.5,0|0,1:0|0:0,0:0:0:0:
296,152,109824,2,0,B|272:148|272:148|244:152,1,52.5,8|0,0:0|0:0,0:0:0:0:
276,252,110146,6,0,L|328:264,1,52.5,0|0,1:0|0:0,0:0:0:0:
400,280,110467,1,0,0:0:0:0:
308,340,110628,1,8,0:0:0:0:
308,340,110789,2,0,L|256:328,1,52.5,0|0,1:0|0:0,0:0:0:0:
160,284,111111,2,0,P|156:256|160:232,1,52.5,8|0,0:0|0:0,0:0:0:0:
204,124,111433,2,0,P|208:152|204:176,1,52.5,0|0,1:0|0:0,0:0:0:0:
148,80,111754,2,0,P|144:52|148:28,1,52.5,0|8,0:0|0:0,0:0:0:0:
136,152,112076,2,0,L|32:192,1,105,0|8,1:0|0:0,0:0:0:0:
204,175,112720,6,0,L|352:120,1,157.5,0|8,1:0|0:0,0:0:0:0:
420,96,113363,2,0,B|460:200,1,105,0|8,1:0|0:0,0:0:0:0:
484,264,113846,1,0,0:0:0:0:
484,264,114007,2,0,L|436:284,1,52.5,0|0,1:0|0:0,0:0:0:0:
224,248,114489,1,8,0:0:0:0:
224,248,114650,2,0,L|276:232,1,52.5,0|0,1:0|0:0,0:0:0:0:
224,324,114972,2,0,L|172:340,1,52.5,8|0,0:0|0:0,0:0:0:0:
76,296,115294,6,0,P|56:224|76:144,1,157.5,0|8,1:0|0:0,0:0:0:0:
136,104,115937,2,0,L|188:116,1,52.5,0|0,1:0|0:0,0:0:0:0:
288,72,116259,2,0,L|236:60,1,52.5,8|0,0:0|0:0,0:0:0:0:
308,144,116581,2,0,L|468:180,1,157.5,0|8,1:0|0:0,0:0:0:0:
484,248,117224,1,0,1:0:0:0:
440,96,117546,1,8,0:0:0:0:
440,96,117868,5,2,0:0:0:0:
228,168,127520,6,0,P|204:164|176:168,1,52.5
288,212,127842,2,0,P|312:216|340:212,1,52.5
276,108,128164,6,0,P|200:88|124:108,1,157.5,0|8,1:0|0:0,0:0:0:0:
60,136,128807,2,0,B|44:184|44:184|60:236,1,105,0|8,1:0|0:0,0:0:0:0:
240,348,129451,2,0,L|400:348,1,157.5,0|8,1:0|0:0,0:0:0:0:
460,308,130094,2,0,P|476:256|460:208,1,105,0|8,1:0|0:0,0:0:0:0:
400,260,130577,1,0,0:0:0:0:
400,260,130738,6,0,L|348:260,1,52.5,0|0,1:0|0:0,0:0:0:0:
244,208,131060,2,0,L|296:208,1,52.5,0|8,0:0|0:0,0:0:0:0:
176,256,131381,2,0,P|160:204|176:156,1,105,0|8,1:0|0:0,0:0:0:0:
248,84,131864,1,0,0:0:0:0:
248,84,132025,2,0,L|304:92,1,52.5,0|0,1:0|0:0,0:0:0:0:
88,92,132508,1,8,0:0:0:0:
88,92,132668,2,0,P|84:60|88:32,1,52.5,0|0,1:0|0:0,0:0:0:0:
112,164,132990,2,0,P|116:196|112:224,1,52.5,8|0,0:0|0:0,0:0:0:0:
32,288,133312,6,0,P|76:268|128:288,1,105,0|0,1:0|0:0,0:0:0:0:
80,344,133795,1,8,0:0:0:0:
184,328,133955,2,0,L|292:344,1,105,0|8,1:0|0:0,0:0:0:0:
428,188,134599,2,0,L|320:172,1,105,0|0,1:0|0:0,0:0:0:0:
252,156,135082,1,8,0:0:0:0:
252,156,135242,2,0,P|248:124|252:96,1,52.5,0|0,1:0|0:0,0:0:0:0:
276,224,135564,2,0,P|280:256|276:284,1,52.5,8|0,0:0|0:0,0:0:0:0:
324,172,135886,6,0,L|376:168,1,52.5,0|0,1:0|0:0,0:0:0:0:
204,212,136208,2,0,L|152:216,1,52.5,0|8,0:0|0:0,0:0:0:0:
100,124,136529,2,0,L|160:120,1,52.5,0|0,1:0|0:0,0:0:0:0:
228,116,136851,1,8,0:0:0:0:
184,320,137173,2,0,B|152:328|152:328|120:336|80:324,1,105,2|2,0:0|0:0,0:0:0:0:
328,320,137816,2,0,B|360:328|360:328|392:336|432:324,1,105,2|2,0:0|0:0,0:0:0:0:
328,128,138460,6,0,B|284:132|256:104|256:104|228:132|184:128,1,157.5,0|8,1:0|0:0,0:0:0:0:
112,152,139103,2,0,L|156:52,1,105,0|8,1:0|0:0,0:0:0:0:
152,268,139747,2,0,P|124:276|96:276,1,52.5,0|0,1:0|0:0,0:0:0:0:
216,232,140069,2,0,P|244:224|272:224,1,52.5,0|8,0:0|0:0,0:0:0:0:
200,328,140390,2,0,P|152:348|92:352,1,105,0|8,1:0|0:0,0:0:0:0:
308,292,141034,6,0,L|368:296,1,52.5,0|0,1:0|0:0,0:0:0:0:
416,204,141356,2,0,L|356:200,1,52.5,0|8,0:0|0:0,0:0:0:0:
276,148,141677,1,0,1:0:0:0:
276,148,141838,1,0,0:0:0:0:
344,64,141999,2,0,L|400:68,1,52.5,8|0,0:0|0:0,0:0:0:0:
492,116,142321,2,0,P|492:144|484:176,1,52.5,0|0,1:0|0:0,0:0:0:0:
410,255,142643,2,0,P|410:227|418:195,1,52.5,0|8,0:0|0:0,0:0:0:0:
472,300,142965,2,0,P|432:328|376:324,1,105,0|8,1:0|0:0,0:0:0:0:
232,184,143608,6,0,P|140:180|112:232,1,157.5,4|8,1:0|0:0,0:0:0:0:
184,236,144252,2,0,L|296:248,1,105,0|8,1:0|0:0,0:0:0:0:
396,216,144734,1,0,0:0:0:0:
396,216,144895,2,0,P|400:188|396:160,1,52.5,0|0,1:0|0:0,0:0:0:0:
340,72,145217,2,0,P|336:100|340:128,1,52.5,0|8,0:0|0:0,0:0:0:0:
416,48,145539,2,0,L|312:28,1,105,0|8,1:0|0:0,0:0:0:0:
132,136,146182,6,0,L|80:120,2,52.5,0|0|0,3:0|0:0|0:0,0:0:0:0:
204,156,146665,1,0,0:0:0:0:
188,84,146826,2,0,L|176:32,2,52.5,2|0|0,0:0|0:0|0:0,0:0:0:0:
204,156,147308,1,0,0:0:0:0:
260,108,147469,2,0,L|304:80,2,52.5,0|0|0,3:0|0:0|0:0,0:0:0:0:
204,156,147952,1,0,3:0:0:0:
224,228,148113,2,0,L|248:332,1,105,2|0,0:0|0:0,0:0:0:0:
416,204,148756,6,0,P|420:180|416:152,1,52.5,0|0,1:0|0:0,0:0:0:0:
372,92,149078,1,0,0:0:0:0:
316,184,149239,1,8,0:0:0:0:
316,184,149400,2,0,P|312:208|316:236,1,52.5,0|0,1:0|0:0,0:0:0:0:
256,148,149721,2,0,L|256:96,1,52.5,8|0,0:0|0:0,0:0:0:0:
192,188,150043,2,0,P|195:213|191:239,1,52.5,0|0,1:0|0:0,0:0:0:0:
68,72,150526,1,8,0:0:0:0:
68,72,150687,2,0,L|120:64,1,52.5,0|0,1:0|0:0,0:0:0:0:
72,148,151008,2,0,L|20:156,1,52.5,8|0,0:0|0:0,0:0:0:0:
108,216,151330,6,0,P|132:220|160:236,1,52.5,0|0,1:0|0:0,0:0:0:0:
200,292,151652,1,0,0:0:0:0:
256,204,151813,1,8,0:0:0:0:
256,204,151974,2,0,P|272:184|296:172,1,52.5,0|0,1:0|0:0,0:0:0:0:
400,176,152295,2,0,P|384:196|360:208,1,52.5,8|0,0:0|0:0,0:0:0:0:
376,104,152617,2,0,P|392:84|416:72,1,52.5,0|0,1:0|0:0,0:0:0:0:
488,72,152939,1,0,0:0:0:0:
360,24,153100,1,8,0:0:0:0:
360,24,153261,2,0,L|304:28,1,52.5,0|0,1:0|0:0,0:0:0:0:
200,80,153582,2,0,L|256:76,1,52.5,8|0,0:0|0:0,0:0:0:0:
168,156,153904,6,0,B|128:136|120:88|120:88|104:100,1,105,4|0,1:0|0:0,0:0:0:0:
52,148,154387,1,8,0:0:0:0:
52,148,154548,2,0,P|36:120|32:96,1,52.5,0|0,1:0|0:0,0:0:0:0:
76,216,154869,2,0,P|92:244|96:268,1,52.5,8|0,0:0|0:0,0:0:0:0:
76,336,155191,1,0,1:0:0:0:
76,336,155352,1,0,0:0:0:0:
280,264,155674,1,8,0:0:0:0:
280,264,155835,2,0,P|308:260|332:264,1,52.5,0|0,1:0|0:0,0:0:0:0:
392,308,156156,1,8,0:0:0:0:
392,308,156317,1,0,0:0:0:0:
448,220,156478,6,0,P|468:144|448:68,1,157.5,0|8,1:0|0:0,0:0:0:0:
380,40,157122,2,0,L|328:32,1,52.5,0|0,1:0|0:0,0:0:0:0:
232,80,157443,2,0,L|284:88,1,52.5,8|0,0:0|0:0,0:0:0:0:
188,136,157765,2,0,B|144:128|108:124|108:124|72:140|60:180,1,157.5,0|8,1:0|0:0,0:0:0:0:
40,252,158409,2,0,B|84:272|92:260|104:248|144:264,1,105,0|8,1:0|0:0,0:0:0:0:
376,336,159052,5,0,1:0:0:0:
352,60,161626,6,0,P|380:56|404:60,1,52.5,0|0,1:0|0:0,0:0:0:0:
476,80,161948,1,0,0:0:0:0:
408,160,162109,1,8,0:0:0:0:
408,160,162270,2,0,L|400:212,1,52.5,0|0,1:0|0:0,0:0:0:0:
344,300,162591,2,0,L|336:248,1,52.5,8|0,0:0|0:0,0:0:0:0:
240,192,162913,2,0,P|212:188|184:192,1,52.5,0|0,1:0|0:0,0:0:0:0:
100,252,163235,2,0,P|128:256|156:252,1,52.5,0|8,0:0|0:0,0:0:0:0:
192,112,163557,2,0,L|84:88,1,105,0|8,1:0|0:0,0:0:0:0:
252,60,164200,6,0,L|416:108,1,157.5,0|8,1:0|0:0,0:0:0:0:
472,124,164844,2,0,P|456:176|472:224,1,105,0|8,1:0|0:0,0:0:0:0:
508,288,165326,1,0,0:0:0:0:
508,288,165487,2,0,P|468:296|448:292,1,52.5,0|0,1:0|0:0,0:0:0:0:
240,324,165970,1,2,0:0:0:0:
240,324,166131,2,0,L|188:320,1,52.5,0|0,1:0|0:0,0:0:0:0:
112,248,166453,2,0,L|164:252,1,52.5,8|0,0:0|0:0,0:0:0:0:
272,232,166774,6,0,P|288:180|272:132,1,105,0|0,1:0|0:0,0:0:0:0:
212,80,167257,1,8,0:0:0:0:
212,80,167418,2,0,L|156:68,1,52.5,0|0,1:0|0:0,0:0:0:0:
292,64,167740,2,0,L|348:76,1,52.5,8|0,0:0|0:0,0:0:0:0:
236,12,168061,1,0,1:0:0:0:
236,12,168222,1,0,0:0:0:0:
273,134,168383,2,0,P|284:160|288:192,1,52.5,0|8,0:0|0:0,0:0:0:0:
232,288,168705,2,0,P|208:248|200:188,1,105,0|8,1:0|0:0,0:0:0:0:
328,80,169348,6,0,L|448:96,1,118.125004506111,2|8,0:0|0:0,0:0:0:0:
484,136,169992,2,0,P|488:176|472:224,1,78.7500030040742,2|8,0:0|0:0,0:0:0:0:
360,324,170635,2,0,B|328:336|304:320|304:320|280:304|244:316,1,118.125004506111,2|8,0:0|0:0,0:0:0:0:
188,333,171279,2,0,P|180:297|188:257,1,78.7500030040742,2|8,0:0|0:0,0:0:0:0:
236,115,171922,6,0,P|252:167|236:227,1,118.125004506111,2|8,0:0|0:0,0:0:0:0:
189,257,172566,2,0,L|109:270,1,78.7500030040742,2|8,0:0|0:0,0:0:0:0:
64,251,173048,1,0,0:0:0:0:
64,251,173209,2,0,P|52:199|64:135,1,118.125004506111,2|8,0:0|0:0,0:0:0:0:
112,108,173853,2,0,P|120:68|112:28,1,78.7500030040742,2|8,0:0|0:0,0:0:0:0:
304,140,174496,6,0,P|332:180|400:164,1,118.125004506111,2|8,0:0|0:0,0:0:0:0:
424,124,175140,2,0,P|456:116|500:124,1,78.7500030040742,2|8,0:0|0:0,0:0:0:0:
472,280,175783,2,0,L|352:300,1,118.125004506111,2|8,0:0|0:0,0:0:0:0:
300,312,176427,1,2,0:0:0:0:
300,312,176749,1,8,0:0:0:0:
156,240,177070,6,0,L|276:220,1,118.125004506111,2|8,0:0|0:0,0:0:0:0:
314,184,177714,2,0,B|326:144|326:144|314:104,1,78.7500030040742
300,60,178197,1,0,0:0:0:0:
300,60,178357,2,0,P|360:56|412:84,2,118.125004506111
184,144,179644,6,0,P|124:148|72:120,2,118.125004506111,2|0|0,0:0|0:0|0:0,0:0:0:0:
300,60,180931,2,0,P|360:56|412:84,2,118.125004506111
256,196,182218,6,0,B|256:248|256:248|252:252|252:252|260:252|260:252|256:256|256:256|256:304,1,118.125004506111,2|0,0:0|0:0,0:0:0:0:
308,96,183184,1,0,0:0:0:0:
308,96,183505,2,0,B|252:76|252:76|196:96,2,118.125004506111,2|0|0,0:0|0:0|0:0,0:0:0:0:
256,192,184792,12,0,189619,0:0:0:0:
