osu file format v14

[General]
AudioFilename: audio.mp3
AudioLeadIn: 0
PreviewTime: 45634
Countdown: 1
SampleSet: Soft
StackLeniency: 0.7
Mode: 0
LetterboxInBreaks: 0
WidescreenStoryboard: 1

[Editor]
Bookmarks: 184794
DistanceSpacing: 1.3
BeatDivisor: 4
GridSize: 4
TimelineZoom: 1

[Metadata]
Title:Picky
TitleUnicode:Picky
Artist:Joey Montana
ArtistUnicode:Joey Montana
Creator:ezek
Version:Average Girl
Source:
Tags:reggaeton latin latino HappyRocket88
BeatmapID:955895
BeatmapSetID:441733

[Difficulty]
HPDrainRate:4
CircleSize:3
OverallDifficulty:4
ApproachRate:5
SliderMultiplier:1.6
SliderTickRate:1

[Events]
//Background and Video events
Video,0,"PickyRocket.avi"
0,0,"PickyBG.jpg",0,0
//Break Periods
2,87179,93501
2,118068,126320
2,159252,160426
//Storyboard Layer 0 (Background)
//Storyboard Layer 1 (Fail)
//Storyboard Layer 2 (Pass)
//Storyboard Layer 3 (Foreground)
//Storyboard Sound Samples

[TimingPoints]
14907,643.507545125967,4,2,2,60,1,0
40647,-100,4,2,2,80,0,1
40808,-100,4,2,2,60,0,0
45795,-100,4,2,2,70,0,1
66387,-100,4,2,2,60,0,0
71535,-100,4,2,2,80,0,1
71696,-100,4,2,2,60,0,0
76683,-133.333333333333,4,2,2,60,0,0
79257,-100,4,2,2,60,0,0
97275,-100,4,2,2,70,0,1
117868,-100,4,2,2,60,0,0
143608,-100,4,2,2,80,0,1
143769,-100,4,2,2,60,0,0
148756,-100,4,2,2,70,0,1
159052,-100,4,2,2,60,0,0
161626,-100,4,2,2,70,0,1
169348,-133.333333333333,4,2,2,60,0,0
187367,-100,4,2,0,40,0,0
188010,-100,4,2,0,30,0,0
188654,-100,4,2,0,20,0,0
189297,-100,4,2,0,10,0,0
189619,-100,4,2,0,5,0,0

[Colours]
Combo1 : 255,224,130
Combo2 : 0,202,0
Combo3 : 18,124,255
Combo4 : 255,128,255
SliderBorder : 0,173,239
SliderTrackOverride : 0,0,0

[HitObjects]
64,176,14906,6,0,B|124:176|124:176|180:176|212:136,1,160,0|0,1:0|1:0,0:0:0:0:
256,40,15872,1,0,0:0:0:0:
300,136,16194,2,0,B|332:176|388:176|388:176|448:176,1,160,0|0,1:0|1:0,0:0:0:0:
488,272,17159,1,0,0:0:0:0:
488,272,17481,2,0,B|396:272|396:272|336:304,1,160,0|0,1:0|1:0,0:0:0:0:
256,368,18446,1,0,0:0:0:0:
176,304,18768,2,0,B|116:272|116:272|24:272,1,160,0|0,1:0|1:0,0:0:0:0:
64,176,19733,1,0,0:0:0:0:
64,176,20055,6,0,P|144:160|184:96,1,160,0|0,1:0|1:0,0:0:0:0:
256,20,21020,1,0,0:0:0:0:
328,97,21342,2,0,P|371:162|448:176,1,160,0|0,1:0|1:0,0:0:0:0:
504,264,22307,1,0,0:0:0:0:
420,328,22629,2,0,L|260:336,2,160,0|0|0,1:0|1:0|1:0,0:0:0:0:
64,188,25203,6,0,P|48:136|64:72,2,120,2|8|10,0:0|0:0|0:0,0:0:0:0:
152,132,26490,2,0,L|316:128,1,160,2|2,0:0|0:0,0:0:0:0:
408,84,27455,1,8,0:0:0:0:
496,140,27777,2,0,P|512:88|496:24,2,120,2|8|8,0:0|0:0|0:0,0:0:0:0:
428,220,29064,2,0,L|264:224,1,160,2|2,0:0|0:0,0:0:0:0:
168,260,30029,1,8,0:0:0:0:
80,204,30351,6,0,P|64:256|80:320,2,120,2|8|8,0:0|0:0|0:0,0:0:0:0:
140,120,31638,2,0,B|216:88|216:144|300:120,1,160,2|2,0:0|0:0,0:0:0:0:
368,44,32603,1,8,0:0:0:0:
368,44,32925,2,0,P|376:100|416:148,2,120,2|8|8,0:0|0:0|0:0,0:0:0:0:
472,60,34212,1,0,0:0:0:0:
376,244,34855,1,0,0:0:0:0:
376,244,35499,6,0,B|312:244|312:244|268:284,2,120,0|8|8,1:0|0:0|0:0,0:0:0:0:
344,344,36786,2,0,L|184:308,1,160,0|0,1:0|1:0,0:0:0:0:
88,280,37751,1,8,0:0:0:0:
156,204,38073,2,0,B|172:144|172:144|156:88,2,120,0|8|8,1:0|0:0|0:0,0:0:0:0:
84,128,39360,2,0,L|224:52,1,160,0|0,1:0|1:0,0:0:0:0:
328,64,40325,1,8,0:0:0:0:
404,136,40647,6,0,B|404:164|384:192|384:192|404:220|404:248,2,120,4|8|8,1:0|0:0|0:0,0:0:0:0:
328,64,41934,2,0,L|292:136,1,80,0|0,1:0|0:0,0:0:0:0:
200,184,42577,2,0,L|164:256,1,80,0|8,1:0|0:0,0:0:0:0:
76,312,43221,2,0,P|60:256|76:196,2,120,0|8|8,1:0|0:0|0:0,0:0:0:0:
164,255,44508,2,0,P|180:199|164:139,2,120,0|8|8,1:0|0:0|0:0,0:0:0:0:
200,352,45795,6,0,P|256:332|312:352,1,120,0|8,1:0|0:0,0:0:0:0:
256,204,46760,1,8,0:0:0:0:
256,204,47082,2,0,L|256:84,2,120,0|8|8,1:0|0:0|0:0,0:0:0:0:
344,260,48369,2,0,B|400:276|400:276|460:260,1,120,0|8,1:0|0:0,0:0:0:0:
372,128,49334,1,8,0:0:0:0:
372,128,49656,2,0,B|316:112|316:112|256:128,2,120,0|8|8,1:0|0:0|0:0,0:0:0:0:
456,188,50943,6,0,P|472:136|456:72,2,120,4|8|8,1:0|0:0|0:0,0:0:0:0:
360,228,52230,2,0,L|208:276,1,160,0|0,1:0|1:0,0:0:0:0:
108,308,53195,1,8,0:0:0:0:
108,308,53517,2,0,P|92:256|108:192,1,120,0|8,1:0|0:0,0:0:0:0:
228,92,54482,1,8,0:0:0:0:
228,92,54804,2,0,L|348:80,2,120,0|8|8,1:0|0:0|0:0,0:0:0:0:
180,184,56091,6,0,P|134:136|125:79,2,120,0|8|8,1:0|0:0|0:0,0:0:0:0:
276,228,57378,2,0,P|322:276|331:333,1,120,0|8,1:0|0:0,0:0:0:0:
452,228,58343,1,8,0:0:0:0:
452,228,58665,2,0,L|468:104,1,120,0|8,1:0|0:0,0:0:0:0:
346,207,59630,1,8,0:0:0:0:
346,207,59952,2,0,L|330:331,2,120,0|8|8,1:0|0:0|0:0,0:0:0:0:
312,108,61239,6,0,B|256:92|256:92|196:108,2,120,0|8|8,1:0|0:0|0:0,0:0:0:0:
346,207,62526,2,0,L|188:256,1,160,0|0,1:0|1:0,0:0:0:0:
96,216,63491,1,8,0:0:0:0:
96,216,63813,2,0,P|76:160|96:104,2,120,0|8|8,1:0|0:0|0:0,0:0:0:0:
136,312,65100,2,0,B|168:336|168:336|208:336,1,80,0|0,1:0|0:0,0:0:0:0:
241,237,65744,1,2,0:0:0:0:
448,268,66387,6,0,B|400:280|368:260|368:260|336:240,2,120,0|8|8,1:0|0:0|0:0,0:0:0:0:
416,168,67674,2,0,B|372:148|372:148|316:128|268:168,1,160,0|0,1:0|1:0,0:0:0:0:
180,224,68639,1,8,0:0:0:0:
124,312,68961,6,0,P|176:332|236:312,2,120,0|8|8,1:0|0:0|0:0,0:0:0:0:
72,220,70248,2,0,B|56:140|56:140|72:64,1,160,0|0,1:0|1:0,0:0:0:0:
176,84,71213,1,8,0:0:0:0:
176,84,71535,6,0,B|204:88|236:72|236:72|268:88|292:84,2,120,4|8|8,1:0|0:0|0:0,0:0:0:0:
120,172,72822,2,0,L|276:208,1,160,0|0,1:0|1:0,0:0:0:0:
376,232,73787,1,8,0:0:0:0:
468,292,74109,2,0,P|484:240|468:176,2,120,0|8|8,1:0|0:0|0:0,0:0:0:0:
376,232,75396,2,0,P|360:180|376:116,2,120,0|8|8,1:0|0:0|0:0,0:0:0:0:
312,328,76683,6,0,B|260:356|200:340|200:340|136:320|80:356,1,240.000009155274,4|0,1:0|0:0,0:0:0:0:
168,128,78936,5,0,0:0:0:0:
168,128,79257,6,0,B|104:128|104:128|64:168,2,120,0|8|8,1:0|0:0|0:0,0:0:0:0:
256,188,80544,2,0,P|272:128|256:72,1,120,0|8,1:0|0:0,0:0:0:0:
360,188,81510,1,8,0:0:0:0:
360,188,81831,2,0,P|344:248|360:304,2,120,4|8|8,1:0|0:0|0:0,0:0:0:0:
460,152,83118,2,0,P|476:96|460:36,2,120,0|8|8,1:0|0:0|0:0,0:0:0:0:
372,96,84405,6,0,L|252:96,1,120,0|8,1:0|0:0,0:0:0:0:
104,144,85371,1,8,0:0:0:0:
104,144,85692,2,0,B|88:192|106:202|124:212|108:260,2,120,0|8|8,1:0|0:0|0:0,0:0:0:0:
152,52,86979,5,0,3:0:0:0:
384,112,94701,5,0,3:0:0:0:
308,40,95023,1,0,0:0:0:0:
204,40,95345,1,2,0:0:0:0:
128,112,95667,1,0,0:0:0:0:
88,208,95988,2,0,P|128:216|168:208,1,80,2|0,0:0|0:0,0:0:0:0:
268,180,96632,2,0,P|307:172|346:180,1,80,2|0,0:0|0:0,0:0:0:0:
436,236,97275,6,0,P|456:180|436:124,1,120,0|8,1:0|0:0,0:0:0:0:
296,60,98241,1,8,0:0:0:0:
296,60,98562,2,0,B|232:60|232:60|188:96,2,120,0|8|8,1:0|0:0|0:0,0:0:0:0:
328,160,99849,2,0,B|284:196|284:196|220:196,1,120,0|8,1:0|0:0,0:0:0:0:
76,136,100815,1,8,0:0:0:0:
76,136,101137,2,0,L|8:36,2,120,0|8|8,1:0|0:0|0:0,0:0:0:0:
108,236,102424,6,0,L|176:336,2,120,4|8|8,1:0|0:0|0:0,0:0:0:0:
184,164,103711,2,0,P|255:135|328:164,1,160,0|0,1:0|1:0,0:0:0:0:
404,236,104676,1,8,0:0:0:0:
404,236,104998,2,0,L|336:336,2,120,0|8|8,1:0|0:0|0:0,0:0:0:0:
468,152,106285,2,0,B|484:96|484:96|468:36,2,120,0|8|8,1:0|0:0|0:0,0:0:0:0:
384,96,107572,6,0,L|264:96,1,120,0|8,1:0|0:0,0:0:0:0:
120,148,108537,1,8,0:0:0:0:
120,148,108859,2,0,P|100:92|120:36,2,120,0|8|8,1:0|0:0|0:0,0:0:0:0:
192,224,110146,2,0,P|212:280|192:336,1,120,0|8,1:0|0:0,0:0:0:0:
328,256,111111,1,8,0:0:0:0:
328,256,111433,2,0,L|456:248,1,120,0|8,1:0|0:0,0:0:0:0:
332,140,112398,1,8,0:0:0:0:
332,140,112720,6,0,L|204:148,2,120,0|8|8,1:0|0:0|0:0,0:0:0:0:
404,64,114007,2,0,B|372:32|312:36|312:36|240:40,1,160,0|0,1:0|1:0,0:0:0:0:
148,44,114972,1,8,0:0:0:0:
84,128,115294,2,0,B|48:100|44:56|44:56|12:36,2,120,0|8|8,1:0|0:0|0:0,0:0:0:0:
168,192,116581,2,0,B|204:220|208:264|208:264|240:284,2,120,0|8|8,1:0|0:0|0:0,0:0:0:0:
104,276,117868,5,2,0:0:0:0:
256,232,127520,6,0,L|256:152,1,80
200,64,128164,6,0,B|256:40|256:40|312:64,2,120,0|8|8,1:0|0:0|0:0,0:0:0:0:
152,156,129451,2,0,L|184:312,1,160,0|0,1:0|1:0,0:0:0:0:
256,240,130416,1,8,0:0:0:0:
328,312,130738,2,0,L|360:156,1,160,0|0,1:0|1:0,0:0:0:0:
316,60,131703,1,8,0:0:0:0:
316,60,132025,2,0,P|380:52|432:76,2,120,0|8|8,1:0|0:0|0:0,0:0:0:0:
232,132,133312,6,0,P|168:140|116:116,2,120,0|8|8,1:0|0:0|0:0,0:0:0:0:
168,52,134599,2,0,L|72:180,1,160,0|0,1:0|1:0,0:0:0:0:
8,264,135564,1,8,0:0:0:0:
112,268,135886,2,0,B|152:268|152:268|180:296,1,80,0|0,1:0|0:0,0:0:0:0:
268,348,136529,2,0,B|308:348|308:348|336:320,1,80,0|8,1:0|0:0,0:0:0:0:
356,220,137173,2,0,P|332:144|356:68,1,160,0|0,1:0|1:0,0:0:0:0:
456,44,138138,1,8,0:0:0:0:
354,69,138460,6,0,L|234:53,2,120,0|8|8,1:0|0:0|0:0,0:0:0:0:
336,172,139747,2,0,L|456:188,2,120,0|8|8,1:0|0:0|0:0,0:0:0:0:
240,208,141034,2,0,P|220:260|240:320,1,120,0|8,1:0|0:0,0:0:0:0:
108,236,141999,1,8,0:0:0:0:
108,236,142321,2,0,P|128:184|108:124,2,120,0|8|8,1:0|0:0|0:0,0:0:0:0:
20,180,143608,6,0,P|0:128|20:68,2,120,4|8|8,1:0|0:0|0:0,0:0:0:0:
108,236,144895,2,0,B|188:236|188:236|220:312,1,160,0|0,1:0|1:0,0:0:0:0:
116,332,145860,1,8,0:0:0:0:
16,356,146182,2,0,P|4:320|16:280,1,80,2|0,3:0|0:0,0:0:0:0:
108,236,146826,2,0,P|120:200|108:160,1,80,2|0,0:0|0:0,0:0:0:0:
48,76,147469,2,0,P|104:56|164:72,2,120,0|0|0,3:0|3:0|0:0,0:0:0:0:
108,160,148756,6,0,B|132:180|172:176|172:176|168:204|184:228,1,120,0|8,1:0|0:0,0:0:0:0:
268,356,149721,1,8,0:0:0:0:
356,300,150043,2,0,L|476:320,2,120,0|8|8,1:0|0:0|0:0,0:0:0:0:
292,216,151330,2,0,L|172:196,2,120,0|8|8,1:0|0:0|0:0,0:0:0:0:
384,168,152617,2,0,P|404:112|384:56,1,120,0|8,1:0|0:0,0:0:0:0:
232,88,153582,1,8,0:0:0:0:
232,88,153904,6,0,B|184:104|164:72|112:88,2,120,4|8|8,1:0|0:0|0:0,0:0:0:0:
304,164,155191,2,0,L|272:320,1,160,0|0,1:0|1:0,0:0:0:0:
168,336,156156,1,8,0:0:0:0:
168,336,156478,2,0,P|112:356|56:336,2,120,0|8|8,1:0|0:0|0:0,0:0:0:0:
112,248,157765,2,0,L|112:124,2,120,0|8|8,1:0|0:0|0:0,0:0:0:0:
168,336,159052,5,0,1:0:0:0:
308,344,161626,6,0,B|340:352|372:344|372:344|428:328,2,120,0|8|8,1:0|0:0|0:0,0:0:0:0:
204,344,162913,2,0,B|172:352|140:344|140:344|84:328,2,120,0|8|8,1:0|0:0|0:0,0:0:0:0:
256,252,164200,2,0,B|260:208|260:208|252:180|252:180|256:132,2,120,0|8|8,1:0|0:0|0:0,0:0:0:0:
160,216,165487,2,0,P|144:148|160:60,1,160,0|0,1:0|1:0,0:0:0:0:
256,24,166453,1,8,0:0:0:0:
352,60,166774,6,0,P|368:136|352:216,1,160,0|0,1:0|1:0,0:0:0:0:
256,252,167740,1,8,0:0:0:0:
160,292,168061,2,0,L|36:308,2,120,0|8|8,1:0|0:0|0:0,0:0:0:0:
256,252,169348,1,2,0:0:0:0:
412,260,169992,5,0,0:0:0:0:
448,192,170314,1,0,0:0:0:0:
412,124,170635,1,2,0:0:0:0:
256,128,171279,2,0,P|224:116|200:96,1,60.0000022888184
136,60,171922,6,0,B|120:88|128:120|128:120|120:152,2,90.0000034332277,2|0|0,0:0|0:0|0:0,0:0:0:0:
203,100,173209,2,0,P|227:118|256:128,1,60.0000022888184,2|0,0:0|0:0,0:0:0:0:
336,128,173853,1,0,0:0:0:0:
296,280,174496,2,0,B|340:280|340:280|376:252,2,90.0000034332277,2|0|0,0:0|0:0|0:0,0:0:0:0:
216,280,175783,2,0,B|172:280|172:280|136:252,2,90.0000034332277,2|0|0,0:0|0:0|0:0,0:0:0:0:
256,212,177070,6,0,L|256:120,2,90.0000034332277,2|0|0,0:0|0:0|0:0,0:0:0:0:
296,280,178357,1,2,0:0:0:0:
372,300,178679,1,0,0:0:0:0:
448,320,179001,1,0,0:0:0:0:
360,192,179644,6,0,P|344:152|360:108,1,90.0000034332277,2|0,0:0|0:0,0:0:0:0:
256,52,180610,1,0,0:0:0:0:
256,52,180931,2,0,P|272:92|256:136,2,90.0000034332277,2|0|0,0:0|0:0|0:0,0:0:0:0:
180,68,182218,2,0,B|132:68|132:68|112:104,1,90.0000034332277,2|0,0:0|0:0,0:0:0:0:
68,212,183184,1,0,0:0:0:0:
68,212,183505,2,0,L|148:272,2,90.0000034332277,2|0|0,0:0|0:0|0:0,0:0:0:0:
256,192,184792,12,0,189619,0:0:0:0:
