osu file format v14

[General]
AudioFilename: audio.mp3
AudioLeadIn: 0
PreviewTime: 637
Countdown: 0
SampleSet: Normal
StackLeniency: 0.7
Mode: 1
LetterboxInBreaks: 0
WidescreenStoryboard: 1

[Editor]
Bookmarks: 3068,6500,8250,11471,13332,16018,17629,20576,21980,22846,23564,25552,27510,29493,31185,35753,37630,40027
DistanceSpacing: 0.7
BeatDivisor: 3
GridSize: 4
TimelineZoom: 1.130323

[Metadata]
Title:I Harmonized xQcOW's "15 Minute Delay" Rant
TitleUnicode:I Harmonized xQcOW's "15 Minute Delay" Rant
Artist:Joey Barrett
ArtistUnicode:Joey Barrett
Creator:[-Bird-]
Version:Futsuu
Source:
Tags:novelty jazz english piano twitch arien666 marksman666 iamveryfat félix felix lengyel
BeatmapID:3734265
BeatmapSetID:1819772

[Difficulty]
HPDrainRate:9
CircleSize:2
OverallDifficulty:2
ApproachRate:10
SliderMultiplier:1.4
SliderTickRate:1

[Events]
//Background and Video events
0,0,"xqc1.jpg",0,0
Video,0,"havoc was here.mp4"
//Break Periods
//Storyboard Layer 0 (Background)
//Storyboard Layer 1 (Fail)
//Storyboard Layer 2 (Pass)
//Storyboard Layer 3 (Foreground)
//Storyboard Layer 4 (Overlay)
//Storyboard Sound Samples

[TimingPoints]
633,641.711229946524,4,1,0,69,1,0
633,-62.333332,4,1,0,69,0,0
1220,344.827586206897,4,1,0,69,1,8
1220,-116,4,1,0,69,0,8
1516,361.44578313253,4,1,0,69,1,8
1516,-110.666664,4,1,0,69,0,8
2239,414.507772020725,4,1,0,69,1,8
2239,-96.5,4,1,0,69,0,8
3068,567.000567000567,4,1,0,69,1,0
3068,-70.54666,4,1,0,69,0,0
5574,695.652173913044,4,1,0,69,1,8
5574,-57.5,4,1,0,69,0,8
6500,695.652173913044,4,1,0,69,1,8
6500,-57.5,4,1,0,69,0,0
6678,857.142857142857,4,1,0,69,1,8
6678,-46.666668,4,1,0,69,0,8
6975,681.818181818182,4,1,0,69,1,8
6975,-59.166668,4,1,0,69,0,8
8250,676.056338028169,4,1,0,69,1,0
8250,-59.166668,4,1,0,69,0,8
9354,714.285714285714,4,1,0,69,1,8
9354,-56,4,1,0,69,0,8
9984,640.34151547492,4,1,0,69,1,0
9984,-62.46667,4,1,0,69,0,0
10434,722.89156626506,4,1,0,69,1,8
10434,-55.333332,4,1,0,69,0,8
11469,363.636363636364,4,1,0,69,1,0
11469,-110,4,1,0,69,0,0
12004,413.793103448276,4,1,0,69,1,8
12004,-96.66667,4,1,0,69,0,8
12196,369.23076923077,4,1,0,69,1,8
12196,-108.333336,4,1,0,69,0,8
12738,428.571428571429,4,1,0,69,1,8
12738,-93.333336,4,1,0,69,0,8
13364,363.636363636363,4,1,0,69,1,0
13364,-110,4,1,0,69,0,0
13738,402.68456375839,4,1,0,69,1,8
13738,-99.333336,4,1,0,69,0,8
14140,379.746835443039,4,1,0,69,1,8
14140,-105.33333,4,1,0,69,0,8
15210,600,4,1,0,69,1,8
15210,-66.666664,4,1,0,69,0,8
16018,638.297872340426,4,1,0,69,1,0
16018,-62.666664,4,1,0,69,0,0
17087,389.61038961039,4,1,0,69,1,8
17087,-102.666664,4,1,0,69,0,8
17379,500,4,1,0,69,1,8
17379,-80,4,1,0,69,0,8
17629,468.75,4,1,0,69,1,0
17629,-85.333336,4,1,0,69,0,0
18477,413.793103448275,4,1,0,69,1,8
18477,-96.66667,4,1,0,69,0,8
18906,408.163265306122,4,1,0,69,1,8
18906,-98,4,1,0,69,0,8
19600,352.941176470589,4,1,0,69,1,8
19600,-113.333336,4,1,0,69,0,8
20217,359.281437125749,4,1,0,69,1,8
20217,-111.33333,4,1,0,69,0,8
20576,272.727272727273,4,1,0,69,1,1
20576,-146.66667,4,1,0,69,0,1
21394,333.333333333334,4,1,0,69,1,9
21394,-120,4,1,0,69,0,9
21980,300,4,1,0,69,1,1
21980,-133.33333,4,1,0,69,0,1
22580,266.666666666667,4,1,0,69,1,9
22580,-150.00002,4,1,0,69,0,9
22846,254.237288135594,4,1,0,69,1,0
22846,-157.33333,4,1,0,69,0,0
23602,344.827586206897,4,1,0,69,1,1
23602,-116,4,1,0,69,0,1
24119,-116,4,1,0,69,0,0
24420,-116.279069767442,4,1,0,69,0,1
24583,375.000000000001,4,1,0,69,1,9
24583,-106.666664,4,1,0,69,0,9
24958,-106.382978723404,4,1,0,69,0,8
25315,379.746835443039,4,1,0,69,1,9
25315,-105.33333,4,1,0,69,0,9
25552,342.857142857144,4,1,0,69,1,1
25552,-116.666664,4,1,0,69,0,1
25894,-116.279069767442,4,1,0,69,0,0
26602,392.1568627451,4,1,0,69,1,9
26602,-102,4,1,0,69,0,9
26798,-102.040816326531,4,1,0,69,0,8
27386,-102.040816326531,4,1,0,69,0,9
27510,307.692307692309,4,1,0,69,1,1
27510,-129.99998,4,1,0,69,0,1
27971,-129.87012987013,4,1,0,69,0,0
28366,279.069767441862,5,1,0,69,1,9
28366,-143.33334,5,1,0,69,0,9
28924,-142.857142857143,5,1,0,69,0,8
29517,382.775119617225,4,1,0,69,1,1
29517,-104.5,4,1,0,69,0,1
30059,400,4,1,0,69,1,9
30325,400,4,1,0,69,1,9
30525,-100,4,1,0,69,0,8
31185,400,4,1,0,69,1,1
31485,-100,4,1,0,69,0,0
31737,526.315789473684,4,1,0,69,1,8
31737,-76,4,1,0,69,0,8
32706,535.714285714286,4,1,0,69,1,8
32706,-74.666664,4,1,0,69,0,8
33255,413.793103448276,4,1,0,69,1,8
33255,-97.0873786407767,4,1,0,69,0,8
33485,521.739130434782,4,1,0,69,1,8
33485,-76.666664,4,1,0,69,0,8
33745,480,4,1,0,69,1,8
33745,-83.33333,4,1,0,69,0,8
34147,491.803278688524,4,1,0,69,1,8
34147,-81.333336,4,1,0,69,0,8
34638,500,4,1,0,69,1,8
34638,-80,4,1,0,69,0,8
34888,566.037735849056,4,1,0,69,1,8
34888,-70.666664,4,1,0,69,0,8
35753,352.941176470588,4,1,0,69,1,0
35753,-113.333336,4,1,0,69,0,0
36370,431.654676258993,4,1,0,69,1,8
36370,-92.666664,4,1,0,69,0,8
37626,461.538461538462,4,1,0,69,1,0
37626,-86.666664,4,1,0,69,0,0
38741,461.538461538462,4,1,0,69,1,8
38741,-86.666664,4,1,0,69,0,8
38971,422.535211267606,4,1,0,69,1,8
38971,-94.666664,4,1,0,69,0,8
40027,400,4,1,0,69,1,0

[HitObjects]
253,196,633,5,0,0:0:0:0:
253,196,953,1,2,0:0:0:0:
253,196,1220,1,0,0:0:0:0:
253,196,1516,1,0,0:0:0:0:
253,196,2239,1,0,0:0:0:0:
253,196,2549,1,2,0:0:0:0:
253,196,3068,1,2,0:0:0:0:
253,196,5336,1,2,0:0:0:0:
253,196,5574,1,2,0:0:0:0:
253,196,6500,1,2,0:0:0:0:
253,196,6975,1,0,0:0:0:0:
253,196,7656,1,0,0:0:0:0:
253,196,7997,1,0,0:0:0:0:
253,196,8250,1,2,0:0:0:0:
253,196,8588,1,2,0:0:0:0:
253,196,9711,1,0,0:0:0:0:
253,196,9984,1,2,0:0:0:0:
253,196,10434,1,0,0:0:0:0:
253,196,11469,1,0,0:0:0:0:
253,196,11832,1,2,0:0:0:0:
253,196,12196,1,0,0:0:0:0:
253,196,12565,1,0,0:0:0:0:
253,196,12738,1,2,0:0:0:0:
253,196,13364,1,0,0:0:0:0:
253,196,14140,1,0,0:0:0:0:
253,196,14709,1,2,0:0:0:0:
253,196,15210,1,2,0:0:0:0:
253,196,16018,1,0,0:0:0:0:
253,196,17087,1,2,0:0:0:0:
253,196,17629,1,0,0:0:0:0:
253,196,17863,1,2,0:0:0:0:
253,196,18477,1,0,0:0:0:0:
253,196,18906,1,2,0:0:0:0:
249,197,19600,1,2,0:0:0:0:
249,197,20217,1,2,0:0:0:0:
249,197,20576,1,0,0:0:0:0:
249,197,20848,1,0,0:0:0:0:
249,197,21121,1,0,0:0:0:0:
249,197,21727,1,2,0:0:0:0:
249,197,21980,1,0,0:0:0:0:
249,197,22580,1,2,0:0:0:0:
249,197,22846,1,0,0:0:0:0:
249,197,23100,1,0,0:0:0:0:
249,197,23602,1,0,0:0:0:0:
249,197,23946,1,2,0:0:0:0:
249,197,24583,1,0,0:0:0:0:
249,197,24770,1,0,0:0:0:0:
249,197,25315,1,0,0:0:0:0:
249,197,25552,1,2,0:0:0:0:
249,197,25894,1,2,0:0:0:0:
249,197,26602,1,6,0:0:0:0:
249,197,27386,1,0,0:0:0:0:
249,197,28366,1,2,0:0:0:0:
249,197,28645,1,2,0:0:0:0:
249,197,29517,1,2,0:0:0:0:
249,197,30059,1,2,0:0:0:0:
249,197,30325,1,0,0:0:0:0:
249,197,31185,1,4,0:0:0:0:
249,197,31737,1,0,0:0:0:0:
249,197,32000,1,2,0:0:0:0:
249,197,32263,1,0,0:0:0:0:
249,197,32706,1,0,0:0:0:0:
249,197,32973,1,2,0:0:0:0:
249,197,33255,1,0,0:0:0:0:
249,197,33615,1,2,0:0:0:0:
249,197,33985,1,2,0:0:0:0:
249,197,34638,1,2,0:0:0:0:
249,197,34888,1,0,0:0:0:0:
249,197,35737,1,2,0:0:0:0:
249,197,36105,1,2,0:0:0:0:
249,197,36370,1,0,0:0:0:0:
249,197,36657,1,2,0:0:0:0:
249,197,36801,1,0,0:0:0:0:
249,197,37626,1,2,0:0:0:0:
249,197,37856,1,0,0:0:0:0:
249,197,38318,1,2,0:0:0:0:
249,197,38741,1,0,0:0:0:0:
249,197,38971,1,2,0:0:0:0:
249,197,39604,1,0,0:0:0:0:
249,197,40027,1,6,0:0:0:0:
