osu file format v14

[General]
AudioFilename: audio.mp3
AudioLeadIn: 0
PreviewTime: 49205
Countdown: 0
SampleSet: Normal
StackLeniency: 0.7
Mode: 1
LetterboxInBreaks: 0
WidescreenStoryboard: 0

[Editor]
DistanceSpacing: 1.7
BeatDivisor: 4
GridSize: 32
TimelineZoom: 1.6

[Metadata]
Title:Radical Rabid Riot
TitleUnicode:Radical Rabid Riot
Artist:Joe Rikiichi, Takamiya Rion, Rindou Mikoto
ArtistUnicode:ジョー・力一、鷹宮リオン、竜胆尊
Creator:taiko_ryuki
Version:RRR Oni
Source:
Tags:八王子P Hachioji-P SMASH The PAINT!! バーチャルyoutuber にじさんじ Nijisanji 2434 virtual youtuber vtuber japanese pop jpop RRR
BeatmapID:2353227
BeatmapSetID:1126230

[Difficulty]
HPDrainRate:5
CircleSize:5
OverallDifficulty:6
ApproachRate:5
SliderMultiplier:1.4
SliderTickRate:1

[Events]
//Background and Video events
0,0,"bg.jpg",0,-35
//Break Periods
//Storyboard Layer 0 (Background)
//Storyboard Layer 1 (Fail)
//Storyboard Layer 2 (Pass)
//Storyboard Layer 3 (Foreground)
//Storyboard Layer 4 (Overlay)
//Storyboard Sound Samples

[TimingPoints]
434,342.857142857143,4,1,0,70,1,0
1805,-100,4,1,0,60,0,0
3176,-100,4,1,0,50,0,0
4543,-100,4,1,0,70,0,0
5191,-100,4,1,0,80,0,0
5876,-100,4,1,0,85,0,0
16848,-100,4,1,0,70,0,0
16891,-133.333333333333,4,1,0,70,0,0
22334,-111.111111111111,4,1,0,75,0,0
22376,-111.111111111111,4,1,0,75,0,0
25076,-100,4,1,0,80,0,0
27819,-100,4,1,0,85,0,0
38791,-100,4,1,0,70,0,0
38834,-117.647058823529,4,1,0,70,0,0
43462,-113.636363636364,4,1,0,70,0,0
43634,-109.89010989011,4,1,0,70,0,0
43805,-106.382978723404,4,1,0,70,0,0
43891,-105.263157894737,4,1,0,70,0,0
43976,-104.166666666667,4,1,0,70,0,0
44062,-103.092783505155,4,1,0,70,0,0
44148,-102.040816326531,4,1,0,70,0,0
44276,-100,4,1,0,80,0,0
48348,-100,4,1,0,75,0,0
49248,-100,4,1,0,95,0,0
49805,-100,4,1,0,95,0,1
71705,-100,4,1,0,85,0,1
71748,-100,4,1,0,85,0,0
82676,-100,4,1,0,80,0,0
84048,-100,4,1,0,60,0,0
85419,-100,4,1,0,40,0,0
86791,-100,4,1,0,60,0,0
87819,-100,4,1,0,80,0,0

[HitObjects]
256,192,434,5,4,0:0:0:0:
256,192,605,12,0,5234,0:0:0:0:
131,179,5576,5,12,0:0:0:0:
131,179,5919,1,4,0:0:0:0:
131,179,6091,1,0,0:0:0:0:
131,179,6262,1,8,0:0:0:0:
131,179,6434,1,0,0:0:0:0:
131,179,6519,1,0,0:0:0:0:
131,179,6605,1,8,0:0:0:0:
131,179,6776,1,8,0:0:0:0:
131,179,6948,1,0,0:0:0:0:
131,179,7119,1,8,0:0:0:0:
131,179,7291,1,0,0:0:0:0:
131,179,7462,1,8,0:0:0:0:
131,179,7548,1,0,0:0:0:0:
131,179,7634,1,0,0:0:0:0:
131,179,7805,1,0,0:0:0:0:
131,179,7976,1,8,0:0:0:0:
131,179,8062,1,8,0:0:0:0:
131,179,8148,1,0,0:0:0:0:
131,179,8234,1,8,0:0:0:0:
131,179,8319,1,0,0:0:0:0:
131,179,8491,1,8,0:0:0:0:
131,179,8662,1,0,0:0:0:0:
131,179,9005,1,8,0:0:0:0:
131,179,9176,1,8,0:0:0:0:
131,179,9348,1,0,0:0:0:0:
131,179,9519,1,8,0:0:0:0:
131,179,9605,1,0,0:0:0:0:
131,179,9691,1,8,0:0:0:0:
131,179,9862,1,0,0:0:0:0:
131,179,10034,1,8,0:0:0:0:
131,179,10119,1,8,0:0:0:0:
131,179,10205,1,0,0:0:0:0:
131,179,10376,1,8,0:0:0:0:
131,179,10548,1,0,0:0:0:0:
131,179,10634,1,8,0:0:0:0:
131,179,10719,1,8,0:0:0:0:
131,179,10891,1,0,0:0:0:0:
131,179,11062,1,12,0:0:0:0:
131,179,11405,1,4,0:0:0:0:
123,176,11576,1,8,0:0:0:0:
131,179,11748,1,8,0:0:0:0:
131,179,11919,1,0,0:0:0:0:
131,179,12005,1,0,0:0:0:0:
131,179,12091,1,0,0:0:0:0:
131,179,12262,1,8,0:0:0:0:
131,179,12434,1,0,0:0:0:0:
131,179,12605,1,8,0:0:0:0:
131,179,12776,1,0,0:0:0:0:
131,179,12948,1,8,0:0:0:0:
131,179,13034,1,8,0:0:0:0:
131,179,13119,1,8,0:0:0:0:
131,179,13291,1,0,0:0:0:0:
131,179,13462,1,0,0:0:0:0:
131,179,13548,1,8,0:0:0:0:
131,179,13634,1,0,0:0:0:0:
131,179,13805,1,8,0:0:0:0:
131,179,14148,1,0,0:0:0:0:
131,179,14319,1,0,0:0:0:0:
131,179,14491,1,8,0:0:0:0:
131,179,14662,1,0,0:0:0:0:
131,179,14834,1,0,0:0:0:0:
131,179,15005,1,8,0:0:0:0:
131,179,15176,1,0,0:0:0:0:
131,179,15348,1,12,0:0:0:0:
131,179,15691,1,12,0:0:0:0:
131,179,16034,1,12,0:0:0:0:
131,179,16891,1,4,0:0:0:0:
124,184,17576,1,8,0:0:0:0:
129,179,18262,1,8,0:0:0:0:
124,184,18948,1,0,0:0:0:0:
129,179,19634,1,8,0:0:0:0:
124,184,20319,1,0,0:0:0:0:
129,179,21005,1,8,0:0:0:0:
124,184,21691,1,8,0:0:0:0:
124,184,22376,1,4,0:0:0:0:
113,179,22719,1,8,0:0:0:0:
113,179,23062,1,8,0:0:0:0:
113,179,23405,1,8,0:0:0:0:
124,184,23576,1,0,0:0:0:0:
124,184,23748,1,0,0:0:0:0:
113,179,24091,1,8,0:0:0:0:
113,179,24262,1,0,0:0:0:0:
113,179,24434,1,0,0:0:0:0:
89,101,24605,1,8,0:0:0:0:
89,101,24948,1,0,0:0:0:0:
89,101,25119,1,4,0:0:0:0:
89,101,25291,1,4,0:0:0:0:
87,110,25634,1,0,0:0:0:0:
87,110,25691,1,0,0:0:0:0:
87,110,25748,1,0,0:0:0:0:
87,110,25805,1,0,0:0:0:0:
87,110,25976,1,4,0:0:0:0:
101,109,26319,1,12,0:0:0:0:
101,109,26662,1,4,0:0:0:0:
101,109,26834,1,4,0:0:0:0:
101,109,27005,1,4,0:0:0:0:
123,112,27348,1,0,0:0:0:0:
123,112,27519,1,12,0:0:0:0:
111,114,27862,1,4,0:0:0:0:
111,114,28205,1,8,0:0:0:0:
111,114,28376,1,0,0:0:0:0:
111,114,28462,1,0,0:0:0:0:
111,114,28548,1,8,0:0:0:0:
111,114,28719,1,0,0:0:0:0:
111,114,28891,1,8,0:0:0:0:
111,114,28976,1,0,0:0:0:0:
111,114,29062,1,8,0:0:0:0:
111,114,29148,1,8,0:0:0:0:
111,114,29234,1,0,0:0:0:0:
111,114,29405,1,8,0:0:0:0:
111,114,29576,1,0,0:0:0:0:
111,114,29748,1,8,0:0:0:0:
111,114,29834,1,8,0:0:0:0:
111,114,29919,1,0,0:0:0:0:
111,114,30091,1,8,0:0:0:0:
111,114,30176,1,0,0:0:0:0:
111,114,30262,1,0,0:0:0:0:
111,114,30434,1,0,0:0:0:0:
111,114,30605,1,8,0:0:0:0:
111,114,30776,1,0,0:0:0:0:
111,114,30862,1,0,0:0:0:0:
111,114,30948,1,8,0:0:0:0:
111,114,31119,1,8,0:0:0:0:
111,114,31291,1,0,0:0:0:0:
111,114,31376,1,8,0:0:0:0:
111,114,31462,1,0,0:0:0:0:
111,114,31634,1,0,0:0:0:0:
111,114,31805,1,8,0:0:0:0:
111,114,31976,1,0,0:0:0:0:
111,114,32148,1,0,0:0:0:0:
111,114,32233,1,0,0:0:0:0:
111,114,32319,1,8,0:0:0:0:
111,114,32491,1,0,0:0:0:0:
111,114,32662,1,8,0:0:0:0:
111,114,32748,1,8,0:0:0:0:
111,114,32834,1,0,0:0:0:0:
111,114,33005,1,8,0:0:0:0:
111,114,33176,1,8,0:0:0:0:
107,109,33519,1,8,0:0:0:0:
107,109,33576,1,8,0:0:0:0:
107,109,33634,1,8,0:0:0:0:
107,109,33691,1,0,0:0:0:0:
0,143,34034,1,0,0:0:0:0:
0,143,34119,1,8,0:0:0:0:
0,143,34205,1,8,0:0:0:0:
0,143,34376,1,0,0:0:0:0:
0,143,34548,1,8,0:0:0:0:
0,143,34634,1,0,0:0:0:0:
0,143,34719,1,8,0:0:0:0:
0,143,34891,1,8,0:0:0:0:
0,143,35062,1,0,0:0:0:0:
0,143,35234,1,8,0:0:0:0:
0,143,35319,1,8,0:0:0:0:
0,143,35405,1,0,0:0:0:0:
0,143,35576,1,8,0:0:0:0:
0,143,35748,1,0,0:0:0:0:
0,143,35834,1,0,0:0:0:0:
0,143,35919,1,8,0:0:0:0:
0,143,36005,1,8,0:0:0:0:
0,143,36091,1,8,0:0:0:0:
0,143,36262,1,0,0:0:0:0:
0,143,36434,1,8,0:0:0:0:
0,143,36605,1,8,0:0:0:0:
0,143,36691,1,0,0:0:0:0:
0,143,36776,1,0,0:0:0:0:
0,143,36948,1,8,0:0:0:0:
0,143,37119,1,8,0:0:0:0:
0,143,37291,1,8,0:0:0:0:
0,143,37376,1,8,0:0:0:0:
0,143,37462,1,0,0:0:0:0:
0,143,37634,1,0,0:0:0:0:
0,143,37719,1,0,0:0:0:0:
0,143,37805,1,8,0:0:0:0:
0,143,37976,1,8,0:0:0:0:
0,143,38062,1,0,0:0:0:0:
0,143,38148,1,8,0:0:0:0:
0,143,38234,1,0,0:0:0:0:
0,143,38319,1,0,0:0:0:0:
9,139,38405,1,8,0:0:0:0:
0,143,38491,1,0,0:0:0:0:
0,143,38834,1,4,0:0:0:0:
113,127,39176,1,8,0:0:0:0:
113,127,39691,1,0,0:0:0:0:
113,127,40205,1,8,0:0:0:0:
101,141,40548,1,0,0:0:0:0:
113,127,40719,1,8,0:0:0:0:
113,127,41234,1,8,0:0:0:0:
113,127,41576,1,0,0:0:0:0:
113,127,41919,1,8,0:0:0:0:
113,127,42434,1,0,0:0:0:0:
113,127,42948,1,8,0:0:0:0:
110,134,43291,1,8,0:0:0:0:
113,127,43462,1,8,0:0:0:0:
90,139,43634,1,0,0:0:0:0:
90,139,43805,1,8,0:0:0:0:
90,139,43891,1,8,0:0:0:0:
90,139,43976,1,8,0:0:0:0:
90,139,44062,1,0,0:0:0:0:
90,139,44148,1,8,0:0:0:0:
90,139,44319,1,4,0:0:0:0:
58,156,44662,1,8,0:0:0:0:
58,156,45005,1,0,0:0:0:0:
58,156,45347,1,8,0:0:0:0:
58,156,45519,1,8,0:0:0:0:
58,156,45691,1,0,0:0:0:0:
64,158,45862,1,0,0:0:0:0:
58,156,46034,1,8,0:0:0:0:
58,156,46205,1,0,0:0:0:0:
58,156,46376,1,0,0:0:0:0:
58,156,46548,1,8,0:0:0:0:
64,153,46719,1,0,0:0:0:0:
58,156,46891,1,8,0:0:0:0:
58,156,47062,1,0,0:0:0:0:
58,156,47234,1,0,0:0:0:0:
58,156,47405,1,0,0:0:0:0:
58,156,47576,1,8,0:0:0:0:
58,156,47748,1,0,0:0:0:0:
58,156,48005,1,0,0:0:0:0:
58,156,48091,1,8,0:0:0:0:
58,156,48262,1,0,0:0:0:0:
58,156,48434,1,12,0:0:0:0:
256,192,48605,12,0,49119,0:0:0:0:
50,159,49291,5,0,0:0:0:0:
50,159,49462,1,12,0:0:0:0:
50,159,49805,1,8,0:0:0:0:
56,154,50062,1,0,0:0:0:0:
56,154,50148,1,8,0:0:0:0:
54,151,50319,1,0,0:0:0:0:
56,154,50491,1,8,0:0:0:0:
55,147,50662,1,8,0:0:0:0:
57,143,50834,1,0,0:0:0:0:
56,154,50919,1,0,0:0:0:0:
56,154,51005,1,8,0:0:0:0:
54,151,51176,1,0,0:0:0:0:
56,154,51348,1,8,0:0:0:0:
56,154,51434,1,8,0:0:0:0:
56,154,51519,1,8,0:0:0:0:
56,154,51691,1,8,0:0:0:0:
56,154,52034,1,0,0:0:0:0:
54,151,52205,1,8,0:0:0:0:
56,154,52376,1,0,0:0:0:0:
56,154,52548,1,0,0:0:0:0:
56,154,52719,1,0,0:0:0:0:
56,154,52805,1,0,0:0:0:0:
56,154,52891,1,8,0:0:0:0:
54,151,53062,1,0,0:0:0:0:
54,151,53234,1,8,0:0:0:0:
56,154,53319,1,8,0:0:0:0:
56,154,53405,1,0,0:0:0:0:
56,154,53576,1,0,0:0:0:0:
56,154,53748,1,8,0:0:0:0:
54,151,53919,1,0,0:0:0:0:
54,151,54091,1,8,0:0:0:0:
54,151,54176,1,8,0:0:0:0:
56,154,54262,1,8,0:0:0:0:
56,154,54434,1,0,0:0:0:0:
54,151,54776,1,8,0:0:0:0:
54,151,54948,1,8,0:0:0:0:
54,151,55119,1,0,0:0:0:0:
56,154,55291,1,8,0:0:0:0:
36,149,55462,1,0,0:0:0:0:
36,149,55548,1,8,0:0:0:0:
36,149,55634,1,0,0:0:0:0:
36,149,55805,1,0,0:0:0:0:
36,149,55976,1,8,0:0:0:0:
36,149,56148,1,8,0:0:0:0:
36,149,56234,1,8,0:0:0:0:
36,149,56319,1,0,0:0:0:0:
36,149,56491,1,12,0:0:0:0:
36,149,56834,1,8,0:0:0:0:
36,149,57005,1,0,0:0:0:0:
36,149,57176,1,8,0:0:0:0:
36,149,57348,1,0,0:0:0:0:
36,149,57434,1,0,0:0:0:0:
36,149,57519,1,0,0:0:0:0:
36,149,57691,1,8,0:0:0:0:
36,149,57862,1,0,0:0:0:0:
36,149,58034,1,0,0:0:0:0:
36,149,58205,1,0,0:0:0:0:
36,149,58291,1,0,0:0:0:0:
36,149,58376,1,8,0:0:0:0:
36,149,58548,1,0,0:0:0:0:
36,149,58719,1,8,0:0:0:0:
36,149,58805,1,0,0:0:0:0:
36,149,58891,1,8,0:0:0:0:
36,149,59062,1,8,0:0:0:0:
36,149,59234,1,4,0:0:0:0:
36,149,59576,1,4,0:0:0:0:
36,149,59919,1,4,0:0:0:0:
36,149,60262,1,0,0:0:0:0:
36,149,60434,1,12,0:0:0:0:
36,149,60776,1,4,0:0:0:0:
16,146,61119,1,8,0:0:0:0:
28,146,61205,1,8,0:0:0:0:
16,146,61291,1,0,0:0:0:0:
28,146,61376,1,0,0:0:0:0:
16,146,61462,1,8,0:0:0:0:
16,146,61634,1,0,0:0:0:0:
16,146,61719,1,0,0:0:0:0:
16,146,61805,1,8,0:0:0:0:
16,146,61976,1,0,0:0:0:0:
16,146,62148,1,8,0:0:0:0:
16,146,62234,1,8,0:0:0:0:
16,146,62319,1,8,0:0:0:0:
16,146,62491,1,0,0:0:0:0:
16,146,62662,1,8,0:0:0:0:
16,146,62748,1,8,0:0:0:0:
16,146,62834,1,0,0:0:0:0:
16,146,62919,1,8,0:0:0:0:
16,146,63005,1,0,0:0:0:0:
16,146,63176,1,8,0:0:0:0:
16,146,63519,1,0,0:0:0:0:
16,146,63691,1,0,0:0:0:0:
16,146,63862,1,8,0:0:0:0:
16,146,64034,1,8,0:0:0:0:
16,146,64205,1,0,0:0:0:0:
16,146,64291,1,0,0:0:0:0:
16,146,64376,1,0,0:0:0:0:
16,146,64462,1,8,0:0:0:0:
16,146,64548,1,0,0:0:0:0:
16,146,64719,1,8,0:0:0:0:
16,146,65062,1,0,0:0:0:0:
16,146,65234,1,8,0:0:0:0:
16,146,65405,1,8,0:0:0:0:
16,146,65576,1,0,0:0:0:0:
16,146,65748,1,0,0:0:0:0:
16,146,65834,1,0,0:0:0:0:
16,146,65919,1,8,0:0:0:0:
16,146,66091,1,8,0:0:0:0:
16,146,66262,1,0,0:0:0:0:
16,146,66434,1,8,0:0:0:0:
16,146,66519,1,8,0:0:0:0:
16,146,66605,1,8,0:0:0:0:
16,146,66776,1,0,0:0:0:0:
16,146,66948,1,8,0:0:0:0:
16,146,67034,1,0,0:0:0:0:
16,146,67119,1,8,0:0:0:0:
16,146,67205,1,8,0:0:0:0:
16,146,67291,1,0,0:0:0:0:
16,146,67462,1,8,0:0:0:0:
16,146,67634,1,0,0:0:0:0:
16,146,67719,1,8,0:0:0:0:
16,146,67805,1,0,0:0:0:0:
16,146,67891,1,0,0:0:0:0:
16,146,67976,1,8,0:0:0:0:
16,146,68148,1,0,0:0:0:0:
16,146,68234,1,0,0:0:0:0:
16,146,68319,1,8,0:0:0:0:
16,146,68405,1,0,0:0:0:0:
16,146,68491,1,8,0:0:0:0:
16,146,68576,1,0,0:0:0:0:
16,146,68662,1,0,0:0:0:0:
16,146,68834,1,8,0:0:0:0:
16,146,69005,1,0,0:0:0:0:
16,146,69091,1,0,0:0:0:0:
16,146,69176,1,0,0:0:0:0:
16,146,69262,1,0,0:0:0:0:
16,146,69348,1,8,0:0:0:0:
16,146,69434,1,0,0:0:0:0:
16,146,69519,1,8,0:0:0:0:
16,146,69605,1,8,0:0:0:0:
16,146,69691,1,0,0:0:0:0:
16,146,69776,1,0,0:0:0:0:
16,146,69862,1,8,0:0:0:0:
16,146,69948,1,0,0:0:0:0:
16,146,70034,1,8,0:0:0:0:
16,146,70119,1,8,0:0:0:0:
16,146,70205,1,0,0:0:0:0:
16,146,70376,1,12,0:0:0:0:
16,146,70719,1,12,0:0:0:0:
16,146,71062,1,4,0:0:0:0:
10,144,71405,1,12,0:0:0:0:
131,179,71748,1,4,0:0:0:0:
131,179,72091,1,8,0:0:0:0:
131,179,72263,1,0,0:0:0:0:
131,179,72348,1,0,0:0:0:0:
131,179,72434,1,8,0:0:0:0:
131,179,72605,1,8,0:0:0:0:
131,179,72777,1,0,0:0:0:0:
131,179,72948,1,0,0:0:0:0:
131,179,73120,1,8,0:0:0:0:
131,179,73291,1,8,0:0:0:0:
131,179,73377,1,0,0:0:0:0:
131,179,73463,1,0,0:0:0:0:
131,179,73634,1,0,0:0:0:0:
131,179,73805,1,8,0:0:0:0:
131,179,73891,1,8,0:0:0:0:
131,179,73977,1,0,0:0:0:0:
131,179,74063,1,8,0:0:0:0:
131,179,74148,1,0,0:0:0:0:
131,179,74320,1,8,0:0:0:0:
131,179,74491,1,0,0:0:0:0:
131,179,74834,1,0,0:0:0:0:
131,179,75005,1,0,0:0:0:0:
131,179,75177,1,8,0:0:0:0:
131,179,75348,1,0,0:0:0:0:
131,179,75434,1,0,0:0:0:0:
131,179,75520,1,8,0:0:0:0:
131,179,75691,1,0,0:0:0:0:
131,179,75863,1,8,0:0:0:0:
131,179,75948,1,8,0:0:0:0:
131,179,76034,1,0,0:0:0:0:
131,179,76205,1,8,0:0:0:0:
131,179,76377,1,0,0:0:0:0:
131,179,76463,1,8,0:0:0:0:
131,179,76548,1,8,0:0:0:0:
131,179,76720,1,0,0:0:0:0:
131,179,76891,1,12,0:0:0:0:
131,179,77234,1,4,0:0:0:0:
131,179,77405,1,8,0:0:0:0:
131,179,77577,1,8,0:0:0:0:
131,179,77748,1,8,0:0:0:0:
131,179,77834,1,8,0:0:0:0:
131,179,77920,1,0,0:0:0:0:
131,179,78091,1,8,0:0:0:0:
131,179,78263,1,0,0:0:0:0:
131,179,78434,1,8,0:0:0:0:
131,179,78605,1,0,0:0:0:0:
131,179,78777,1,8,0:0:0:0:
131,179,78863,1,8,0:0:0:0:
131,179,78948,1,0,0:0:0:0:
131,179,79120,1,8,0:0:0:0:
131,179,79291,1,0,0:0:0:0:
131,179,79377,1,8,0:0:0:0:
131,179,79463,1,0,0:0:0:0:
131,179,79634,1,8,0:0:0:0:
131,179,79977,1,0,0:0:0:0:
131,179,80148,1,0,0:0:0:0:
131,179,80320,1,8,0:0:0:0:
131,179,80491,1,0,0:0:0:0:
131,179,80663,1,0,0:0:0:0:
131,179,80834,1,8,0:0:0:0:
131,179,81005,1,0,0:0:0:0:
131,179,81177,1,12,0:0:0:0:
131,179,81520,1,12,0:0:0:0:
131,179,81863,1,12,0:0:0:0:
256,192,82719,1,4,0:0:0:0:
256,192,82891,12,0,88205,0:0:0:0:
