osu file format v14

[General]
AudioFilename: audio.mp3
AudioLeadIn: 0
PreviewTime: 14136
Countdown: 1
SampleSet: Normal
StackLeniency: 0.7
Mode: 0
LetterboxInBreaks: 0
WidescreenStoryboard: 1

[Editor]
DistanceSpacing: 1.3
BeatDivisor: 4
GridSize: 8
TimelineZoom: 2

[Metadata]
Title:Black and White
TitleUnicode:Black and White
Artist:Joe Philips and Erin Bowman
ArtistUnicode:Joe Philips and Erin Bowman
Creator:rhythm genetics
Version:Hard
Source:Pokemon Black and White
Tags:Pokemon, opening, senpai
BeatmapID:1963559
BeatmapSetID:890155

[Difficulty]
HPDrainRate:6
CircleSize:4
OverallDifficulty:7.2
ApproachRate:8
SliderMultiplier:1.4
SliderTickRate:1

[Events]
//Background and Video events
0,0,"Pokemon_Black_and_White_HD.jpg",0,0
Video,0,"Pokemon+Black+and+White+Intro+%5B+HD+%5D.mp4"
//Break Periods
//Storyboard Layer 0 (Background)
//Storyboard Layer 1 (Fail)
//Storyboard Layer 2 (Pass)
//Storyboard Layer 3 (Foreground)
//Storyboard Sound Samples

[TimingPoints]
495,462.962962962963,4,3,0,30,1,0
726,-100,4,2,0,30,0,0
7893,-90.9090909090909,4,1,0,40,0,0
9512,-83.3333333333333,4,1,0,40,0,0
11593,-83.3333333333333,4,1,0,50,0,0
14136,-76.9230769230769,4,1,0,70,0,1
25466,-76.9230769230769,4,3,0,70,0,1
26390,-76.9230769230769,4,2,0,70,0,1
28240,-100,4,2,0,70,0,0

[Colours]
Combo1 : 255,128,0
Combo2 : 128,128,128
Combo3 : 255,255,0
Combo4 : 255,255,255

[HitObjects]
418,104,495,6,0,L|351:154,1,70
263,208,957,1,0,0:0:0:0:
142,161,1189,2,0,L|75:211,2,70
164,60,1883,2,0,L|231:10,2,70
246,123,2578,2,0,L|302:81,1,70
418,104,3041,1,0,0:0:0:0:
325,181,3504,5,0,0:0:0:0:
365,237,3735,1,0,0:0:0:0:
249,165,3967,6,0,L|239:235,1,70,0|0,2:0|2:0,2:0:0:0:
215,94,4430,2,0,L|158:135,1,70
231,18,4893,2,0,L|161:7,1,70,0|0,2:0|2:0,2:0:0:0:
89,63,5356,1,0,0:0:0:0:
88,153,5587,1,0,0:0:0:0:
75,250,5819,6,0,L|33:306,1,70
150,233,6282,2,0,L|160:302,1,70,0|0,2:0|2:0,2:0:0:0:
184,162,6745,2,0,L|240:203,1,70
330,145,7207,1,0,0:0:0:0:
396,218,7439,1,0,0:0:0:0:
465,141,7670,1,0,0:0:0:0:
440,43,7902,6,0,P|382:61|343:45,1,77.0000023498536
457,323,8828,1,0,0:0:0:0:
72,43,9754,6,0,P|130:61|169:45,1,77.0000023498536
55,323,10680,1,0,0:0:0:0:
197,215,11143,6,0,L|280:170,1,83.9999974365235
350,133,11606,2,0,P|442:171|448:235,1,167.999994873047
357,230,12300,2,0,P|278:290|219:263,1,167.999994873047
182,182,12995,1,0,0:0:0:0:
275,184,13226,2,0,P|261:85|314:48,1,167.999994873047
404,56,13921,1,0,0:0:0:0:
426,140,14152,5,0,0:0:0:0:
336,127,14383,1,0,0:0:0:0:
346,222,14615,1,0,0:0:0:0:
227,160,14846,1,0,0:0:0:0:
119,279,15309,6,0,P|162:307|203:303,1,90.9999958343508
291,244,15772,1,0,0:0:0:0:
364,316,16004,1,0,0:0:0:0:
419,226,16235,6,0,P|376:254|335:250,1,90.9999958343508
247,191,16698,1,0,0:0:0:0:
174,263,16930,1,0,0:0:0:0:
149,159,17161,6,0,P|173:113|210:97,1,90.9999958343508
303,93,17624,1,0,0:0:0:0:
302,183,17856,1,0,0:0:0:0:
390,215,18087,1,0,0:0:0:0:
401,315,18319,1,0,0:0:0:0:
449,229,18550,6,0,P|399:240|361:222,1,90.9999958343508
266,139,19013,6,0,P|270:73|260:42,1,90.9999958343508
170,13,19476,1,0,0:0:0:0:
107,74,19707,1,0,0:0:0:0:
193,101,19939,6,0,P|189:167|199:198,1,90.9999958343508
286,227,20402,1,0,0:0:0:0:
355,168,20633,1,0,0:0:0:0:
424,96,20865,6,0,L|334:56,1,90.9999958343508
244,17,21328,1,0,0:0:0:0:
244,17,21559,1,0,0:0:0:0:
180,86,21791,1,0,0:0:0:0:
147,0,22022,1,0,0:0:0:0:
180,86,22254,1,0,0:0:0:0:
154,176,22485,1,0,0:0:0:0:
213,260,22717,6,0,P|273:272|309:262,1,90.9999958343508
377,204,23180,1,0,0:0:0:0:
331,135,23411,1,0,0:0:0:0:
287,69,23643,6,0,P|275:129|285:165,1,90.9999958343508
394,195,24106,1,0,0:0:0:0:
447,96,24337,1,0,0:0:0:0:
361,1,24569,2,0,P|280:12|263:31,1,90.9999958343508
325,137,25032,2,0,P|284:156|240:151,1,90.9999958343508
161,76,25495,5,0,0:0:0:0:
145,92,25610,1,0,0:0:0:0:
134,112,25726,1,0,0:0:0:0:
127,133,25842,1,0,0:0:0:0:
126,156,25957,1,0,0:0:0:0:
130,178,26073,1,0,0:0:0:0:
140,199,26189,1,0,0:0:0:0:
227,287,26420,5,0,0:0:0:0:
299,156,26652,1,0,0:0:0:0:
211,244,26883,5,0,0:0:0:0:
162,115,27115,1,0,0:0:0:0:
228,201,27346,5,0,0:0:0:0:
300,70,27578,1,0,0:0:0:0:
212,158,27809,5,0,0:0:0:0:
163,29,28041,1,0,0:0:0:0:
231,121,28272,2,0,P|419:50|491:156,1,350
383,106,29661,5,0,0:0:0:0:
406,236,29893,1,0,0:0:0:0:
281,191,30124,1,0,0:0:0:0:
