osu file format v14

[General]
AudioFilename: audio.mp3
AudioLeadIn: 0
PreviewTime: 7206
Countdown: 0
SampleSet: Soft
StackLeniency: 0.7
Mode: 0
LetterboxInBreaks: 0
WidescreenStoryboard: 1

[Editor]
DistanceSpacing: 1.5
BeatDivisor: 4
GridSize: 8
TimelineZoom: 1

[Metadata]
Title:Itsumo Nando demo
TitleUnicode:いつも何度でも
Artist:Joe Hisaishi
ArtistUnicode:久石 譲
Creator:Present
Version:Easy
Source:千と千尋の神隠し
Tags:instrumental anime studio ghibli no-face Chihiro Ogino Haku Hayao Miyazaki Always With Me Sen to Chihiro no Kamikakushi and Chihiro's Spiriting Away orgel music box [crz]makii [crz]sword crz sword makii AngelSnow
BeatmapID:1468920
BeatmapSetID:694099

[Difficulty]
HPDrainRate:2
CircleSize:2
OverallDifficulty:2
ApproachRate:4
SliderMultiplier:0.8
SliderTickRate:1

[Events]
//Background and Video events
0,0,"easy.jpg",0,0
//Break Periods
2,31547,32636
//Storyboard Layer 0 (Background)
//Storyboard Layer 1 (Fail)
//Storyboard Layer 2 (Pass)
//Storyboard Layer 3 (Foreground)
//Storyboard Sound Samples

[TimingPoints]
1595,521.966072205307,3,2,1,25,1,0
34478,-100,3,2,1,30,0,1
45440,-100,3,2,1,20,0,0
47006,-100,3,2,1,30,0,1
57967,-100,3,2,1,15,0,0
59011,-100,3,2,1,5,0,0

[Colours]
Combo1 : 0,0,159
Combo2 : 192,192,192
Combo3 : 213,106,0

[HitObjects]
309,84,1595,6,0,P|375:141|391:216,1,160,4|8,0:3|0:0,0:0:0:0:
323,308,3160,1,4,0:0:0:0:
251,213,3682,2,0,L|215:141,1,80,0|8,0:0|0:0,0:0:0:0:
175,27,4726,6,0,P|109:84|93:159,1,160,4|8,0:3|0:0,0:0:0:0:
161,251,6292,1,4,0:0:0:0:
280,253,6814,1,0,0:0:0:0:
280,132,7336,5,8,0:0:0:0:
397,154,7858,2,0,L|470:119,2,80,4|4|0,0:3|0:0|0:0,0:0:0:0:
356,270,9424,2,0,L|276:270,1,80,4|2,0:3|0:0,0:0:0:0:
192,185,10468,1,4,0:0:0:0:
76,216,10990,6,0,P|72:176|82:137,2,80,4|8|4,0:3|0:0|0:0,0:0:0:0:
160,301,12556,2,0,P|128:324|89:335,2,80,4|2|0,0:3|0:0|0:0,0:0:0:0:
245,216,14122,6,0,P|321:231|391:197,1,160,4|4,0:3|0:0,0:0:0:0:
307,111,15688,2,0,P|230:95|160:129,1,160,4|4,0:3|0:0,0:0:0:0:
76,216,17253,6,0,L|93:294,2,80,4|8|4,0:3|0:0|0:0,0:0:0:0:
159,130,18819,2,0,L|176:51,2,80,4|2|4,0:3|0:0|0:0,0:0:0:0:
243,216,20385,6,0,L|225:294,1,80,4|8,0:3|0:0,0:0:0:0:
330,352,21429,1,4,0:0:0:0:
435,294,21951,2,0,L|417:215,1,80,4|2,0:3|0:0,0:0:0:0:
330,133,22995,1,4,0:0:0:0:
213,162,23517,6,0,P|209:122|219:83,2,80,4|8|4,0:3|0:0|0:0,0:0:0:0:
226,280,25083,2,0,P|264:270|297:247,2,80,4|2|4,0:3|0:0|0:0,0:0:0:0:
110,313,26649,6,0,P|106:273|115:234,1,80,4|8,0:3|0:0,0:0:0:0:
211,162,27693,1,4,0:0:0:0:
295,247,28215,2,0,P|299:286|290:325,1,80,4|2,0:3|0:0,0:0:0:0:
179,276,29259,1,4,0:0:0:0:
69,227,29781,6,0,L|69:147,1,80,4|8,0:3|0:0,0:0:0:0:
162,71,30825,1,4,0:0:0:0:
256,147,31347,1,4,0:0:0:0:
132,137,33956,5,4,0:0:0:0:
246,164,34478,1,4,0:3:0:0:
246,164,35000,2,0,P|249:124|240:86,2,80,2|4|4,0:0|0:0|0:3,0:0:0:0:
295,274,36566,2,0,P|335:246|358:207,1,80,4|4,0:3|0:0,0:0:0:0:
349,99,37610,5,4,0:3:0:0:
349,99,38132,2,0,P|389:104|424:124,2,80,2|4|4,0:0|0:0|0:3,0:0:0:0:
247,164,39698,2,0,L|267:249,1,80,4|4,0:3|0:0,0:0:0:0:
163,305,40742,6,0,P|123:299|88:281,1,80,4|2,0:3|0:0,0:0:0:0:
62,164,41786,2,0,P|86:132|119:111,1,80,4|4,0:0|0:3,0:0:0:0:
233,151,42830,1,2,0:0:0:0:
335,89,43352,2,0,P|350:125|351:165,1,80,4|4,0:0|0:3,0:0:0:0:
280,262,44396,5,8,0:0:0:0:
233,151,44918,1,4,0:0:0:0:
122,196,45440,2,0,P|116:233|128:280,1,80,4|2,0:3|0:0,0:0:0:0:
223,343,46484,5,4,0:0:0:0:
338,307,47006,2,0,P|344:270|332:223,1,80,4|2,0:3|0:0,0:0:0:0:
351,109,48049,1,4,0:0:0:0:
236,150,48571,1,4,0:3:0:0:
123,191,49093,2,0,P|116:242|125:275,2,80,4|8|4,0:3|0:0|0:3,0:0:0:0:
86,76,50659,5,2,0:0:0:0:
199,35,51181,1,4,0:3:0:0:
311,76,51703,2,0,P|350:83|389:75,1,80,4|2,0:3|0:0,0:0:0:0:
476,158,52747,2,0,P|468:197|475:236,1,80,4|4,0:0|0:3,0:0:0:0:
388,318,53791,6,0,P|349:311|310:318,2,80,8|4|4,0:0|0:0|0:3,0:0:0:0:
475,236,55357,1,2,0:0:0:0:
389,150,55879,6,0,P|349:143|310:150,2,80,4|4|8,0:0|0:3|0:0,0:0:0:0:
348,264,57445,1,4,0:0:0:0:
231,237,57967,6,0,L|231:321,1,80,4|2,0:3|0:0,0:0:0:0:
