osu file format v14

[General]
AudioFilename: audio.mp3
AudioLeadIn: 0
PreviewTime: 4947
Countdown: 0
SampleSet: Soft
StackLeniency: 0.8
Mode: 0
LetterboxInBreaks: 0
WidescreenStoryboard: 0

[Editor]
DistanceSpacing: 1.2
BeatDivisor: 4
GridSize: 4
TimelineZoom: 1

[Metadata]
Title:Itsumo Nando demo
TitleUnicode:いつも何度でも
Artist:Joe Hisaishi
ArtistUnicode:久石 譲
Creator:Battle
Version:Spirited Away
Source:千と千尋の神隠し
Tags:studio ghibli no-face Chihiro Ogino Haku Hayao Miyazaki Always With Me Sen to Chihiro no Kamikakushi and Chihiro's Spiriting Away orgel music box
BeatmapID:932183
BeatmapSetID:432289

[Difficulty]
HPDrainRate:6
CircleSize:4
OverallDifficulty:6
ApproachRate:7
SliderMultiplier:1.6
SliderTickRate:1

[Events]
//Background and Video events
0,0,"aaa.jpg",0,0
//Break Periods
//Storyboard Layer 0 (Background)
//Storyboard Layer 1 (Fail)
//Storyboard Layer 2 (Pass)
//Storyboard Layer 3 (Foreground)
//Storyboard Sound Samples

[TimingPoints]
4072,500,3,2,1,40,1,0
8072,-100,3,2,2,40,0,0
8572,-100,3,2,1,40,0,0
10572,-100,3,2,2,40,0,0
11072,-100,3,2,1,40,0,0
12072,-100,3,2,2,40,0,0
12572,-100,3,2,1,40,0,0
13572,-100,3,2,2,40,0,0
14072,-100,3,2,1,40,0,0
16572,-100,3,2,2,40,0,0
17072,-100,3,2,1,40,0,0
20072,-100,3,2,2,40,0,0
20572,-100,3,2,1,40,0,0
22572,-100,3,2,2,40,0,0
23322,-100,3,2,1,40,0,0
26572,-100,3,2,2,40,0,0
27072,-100,3,2,1,40,0,0
28072,-100,3,2,1,30,0,0
30572,-100,3,2,1,40,0,0
32072,-100,3,2,2,40,0,0
32572,-100,3,2,1,40,0,0
35072,-100,3,2,2,40,0,0
35572,-100,3,2,1,40,0,0
37572,-100,3,2,2,40,0,0
38072,-100,3,2,1,40,0,0
39072,-100,3,2,2,40,0,0
39572,-100,3,2,1,40,0,0
42072,-100,3,2,2,40,0,0
42572,-100,3,2,1,40,0,0
44072,-100,3,2,2,40,0,0
44572,-100,3,2,1,40,0,0
47072,-100,3,2,2,40,0,0
47572,-100,3,2,1,40,0,0
49072,-100,3,2,2,40,0,0
49572,-100,3,2,1,40,0,0
51072,-100,3,2,2,40,0,0
51572,-100,3,2,1,40,0,0
53572,-100,3,2,1,30,0,0
57572,-100,3,2,1,40,0,0
60572,-100,3,2,2,40,0,0
61072,-100,3,2,1,40,0,0
63072,-100,3,2,2,40,0,0
63572,-100,3,2,1,40,0,0
64572,-100,3,2,2,40,0,0
65072,-100,3,2,1,40,0,0
66072,-100,3,2,2,40,0,0
66572,-100,3,2,1,40,0,0
69072,-100,3,2,2,40,0,0
69572,-100,3,2,1,40,0,0
72572,-100,3,2,2,40,0,0
73072,-100,3,2,1,40,0,0
75072,-100,3,2,2,40,0,0
75572,-100,3,2,1,40,0,0
79072,-100,3,2,2,40,0,0
79572,-100,3,2,1,40,0,0
80572,-100,3,2,1,30,0,0
84572,-100,3,2,1,40,0,0
86072,-100,3,2,2,40,0,0
86572,-100,3,2,1,40,0,0
89072,-100,3,2,2,40,0,0
89572,-100,3,2,1,40,0,0
91572,-100,3,2,2,40,0,0
92072,-100,3,2,1,40,0,0
93072,-100,3,2,2,40,0,0
93572,-100,3,2,1,40,0,0
96072,-100,3,2,2,40,0,0
96572,-100,3,2,1,40,0,0
98072,-100,3,2,2,40,0,0
98572,-100,3,2,1,40,0,0
101072,-100,3,2,2,40,0,0
101572,-100,3,2,1,40,0,0
103072,-100,3,2,2,40,0,0
103572,-100,3,2,1,40,0,0
105072,-100,3,2,2,40,0,0
105572,-100,3,2,1,40,0,0
107572,-100,3,2,1,30,0,0
113072,-100,3,2,1,40,0,0
115072,-100,3,2,1,35,0,0
116572,-100,3,2,2,30,0,0
117322,-100,3,2,1,25,0,0
118072,-100,3,2,1,20,0,0
118822,-100,3,2,1,15,0,0
119322,-100,3,2,1,10,0,0

[Colours]
Combo1 : 95,133,160
Combo2 : 149,128,146
Combo3 : 186,166,154
Combo4 : 194,120,152

[HitObjects]
76,66,5072,6,0,P|69:115|77:157,1,80,2|0,0:0|0:0,0:0:0:0:
158,188,5572,2,0,P|165:149|160:110,1,80,2|0,0:0|0:0,0:0:0:0:
217,32,6072,2,0,B|269:18|269:18|388:47,1,160,4|0,0:0|0:0,0:0:0:0:
453,93,6822,1,0,0:0:0:0:
510,169,7072,2,0,P|531:224|480:312,2,160,2|4|2,0:0|0:0|0:0,0:0:0:70:soft-hitwhistle2.wav
510,169,8572,5,2,0:0:0:0:
435,108,8822,1,0,0:0:0:0:
370,179,9072,2,0,B|334:198|334:198|176:195,1,160,4|0,0:0|0:0,0:0:0:0:
120,177,9822,1,2,0:0:0:0:
88,86,10072,2,0,P|124:26|226:24,1,160,4|2,0:0|0:0,0:0:0:0:
207,14,11072,5,2,0:0:0:0:
279,76,11322,1,0,0:0:0:0:
224,155,11572,2,0,L|229:323,1,160,2|2,0:0|0:0,0:0:0:0:
408,383,12572,5,2,0:0:0:0:
472,312,12822,1,0,0:0:0:0:
407,241,13072,2,0,L|400:68,1,160,2|2,0:0|0:0,0:0:0:0:
217,23,14072,5,2,0:0:0:0:
121,13,14322,1,0,0:0:0:0:
50,77,14572,2,0,P|33:144|87:214,1,160,2|4,0:0|0:0,0:0:0:0:
152,144,15322,1,2,0:0:0:0:
231,197,15572,2,0,L|237:295,1,80,2|0,0:0|0:0,0:0:0:0:
326,308,16072,2,0,L|342:141,1,160,2|2,0:0|0:0,0:0:0:0:
341,148,17072,5,2,0:0:0:0:
290,66,17322,1,0,0:0:0:0:
208,116,17572,2,0,L|106:114,1,80,2|0,0:0|0:0,0:0:0:0:
68,190,18072,2,0,L|250:196,1,160,4|2,0:0|0:0,0:0:0:0:
295,127,18822,1,0,0:0:0:0:
386,155,19072,2,0,P|457:188|458:290,2,160,2|4|2,0:0|0:0|0:0,0:0:0:0:
386,155,20572,5,2,0:0:0:0:
366,248,20822,1,0,0:0:0:0:
283,198,21072,2,0,L|108:202,1,160,4|2,0:0|0:0,0:0:0:0:
34,239,21822,1,0,0:0:0:0:
9,146,22072,2,0,P|10:98|128:67,1,160,0|2,0:0|0:0,0:0:0:0:
205,320,23322,5,0,0:0:0:0:
286,370,23572,2,0,P|298:293|245:232,1,160,2|4,0:0|0:0,0:0:0:0:
87,129,24572,1,2,0:0:0:0:
112,36,24822,1,0,0:0:0:0:
207,42,25072,2,0,L|387:48,1,160,2|4,0:0|0:0,0:0:0:0:
512,184,26072,5,2,0:0:0:0:
502,276,26322,1,0,0:0:0:0:
436,346,26572,2,0,P|352:363|298:293,1,160,2|2,0:0|0:0,0:0:0:0:
310,219,27322,1,0,0:0:0:0:
229,169,27572,1,4,0:0:0:0:
167,242,27822,1,0,0:0:0:0:
87,187,28072,6,0,P|71:116|134:35,1,160,2|0,0:0|0:0,0:0:0:0:
308,22,29072,1,2,0:0:0:0:
395,189,29572,2,0,P|411:260|348:341,1,160,0|2,0:0|0:0,0:0:0:0:
273,162,30572,5,2,0:0:0:0:
210,89,30822,1,0,0:0:0:0:
153,166,31072,2,0,B|45:170|45:170|-13:147,2,160,2|4|2,0:0|0:0|0:0,0:0:0:0:
291,33,32572,6,0,P|380:46|413:128,1,160,2|2,0:0|0:0,0:0:0:0:
374,189,33322,1,0,0:0:0:0:
448,249,33572,2,0,L|446:358,1,80,2|0,0:0|0:0,0:0:0:0:
361,373,34072,2,0,P|311:379|251:296,2,160,2|4|2,0:0|0:0|0:0,0:0:0:0:
455,205,35572,6,0,L|451:34,1,160,2|4,0:0|0:0,0:0:0:0:
360,15,36322,1,0,0:0:0:0:
303,92,36572,2,0,L|208:97,1,80,2|0,0:0|0:0,0:0:0:0:
134,58,37072,2,0,P|56:134|72:199,1,160,2|2,0:0|0:0,0:0:0:0:
60,176,38072,5,2,0:0:0:0:
156,160,38322,1,0,0:0:0:0:
199,247,38572,2,0,P|265:294|365:265,1,160,2|2,0:0|0:0,0:0:0:0:
339,284,39572,5,2,0:0:0:0:
419,232,39822,1,0,0:0:0:0:
406,136,40072,2,0,P|373:59|286:47,1,160,2|4,0:0|0:0,0:0:0:0:
240,114,40822,1,0,0:0:0:0:
174,45,41072,2,0,B|133:38|133:38|70:48,1,80,2|0,0:0|0:0,0:0:0:0:
29,113,41572,2,0,L|43:293,1,160,4|2,0:0|0:0,0:0:0:0:
41,272,42572,5,2,0:0:0:0:
103,351,42822,1,0,0:0:0:0:
191,313,43072,2,0,B|305:313|305:313|352:336,2,160,2|4|2,0:0|0:0|0:0,0:0:0:0:
1,281,44572,6,0,P|-8:232|7:123,1,160,2|4,0:0|0:0,0:0:0:0:
77,58,45322,1,0,0:0:0:0:
144,125,45572,2,0,B|189:135|189:135|227:127,1,80,2|0,0:0|0:0,0:0:0:0:
306,84,46072,2,0,B|368:78|368:78|477:94,2,160,2|4|2,0:0|0:0|0:0,0:0:0:0:
154,202,47572,5,2,0:0:0:0:
110,287,47822,1,0,0:0:0:0:
183,349,48072,1,2,0:0:0:0:
260,291,48322,1,4,0:0:0:0:
343,339,48572,2,0,L|449:345,1,80,2|4,0:0|0:0,0:0:0:0:
503,290,49072,6,0,P|520:195|484:133,1,160,2|2,0:0|0:0,0:0:0:0:
404,102,49822,1,0,0:0:0:0:
368,191,50072,2,0,L|270:197,1,80,4|0,0:0|0:0,0:0:0:0:
207,142,50572,2,0,P|143:135|86:232,1,160,2|2,0:0|0:0,0:0:0:0:
85,202,51572,5,2,0:0:0:0:
124,289,51822,1,0,0:0:0:0:
217,266,52072,2,0,B|333:268|333:268|384:290,1,160,4|0,0:0|0:0,0:0:0:0:
453,338,52822,1,2,0:0:0:0:
499,253,53072,2,0,P|514:183|501:154,1,80,2|0,0:0|0:0,0:0:0:0:
430,126,53572,6,0,L|257:124,1,160,2|0,0:0|0:0,0:0:0:0:
110,17,54572,1,2,0:0:0:0:
25,189,55072,2,0,P|27:279|114:318,1,160,2|0,0:0|0:0,0:0:0:0:
190,160,56072,1,2,0:0:0:0:
243,344,56572,2,0,L|417:348,1,160,2|0,0:0|0:0,0:0:0:0:
474,169,57572,5,2,0:0:0:0:
432,82,57822,1,0,0:0:0:0:
364,150,58072,2,0,L|260:148,1,80,2|0,0:0|0:0,0:0:0:0:
235,231,58572,2,0,L|410:238,1,160,4|2,0:0|0:0,0:0:0:0:
461,308,59322,1,0,0:0:0:0:
485,215,59572,2,0,P|509:123|469:52,2,160,2|4|2,0:0|0:0|0:0,0:0:0:0:
346,81,61072,5,2,0:0:0:0:
250,68,61322,1,0,0:0:0:0:
200,150,61572,2,0,P|135:177|48:109,1,160,2|4,0:0|0:0,0:0:0:0:
137,79,62322,1,2,0:0:0:0:
200,150,62572,2,0,L|202:334,1,160,2|2,0:0|0:0,0:0:0:0:
201,309,63572,5,2,0:0:0:0:
285,353,63822,1,0,0:0:0:0:
378,330,64072,2,0,P|433:292|412:187,1,160,2|2,0:0|0:0,0:0:0:0:
289,75,65072,5,2,0:0:0:0:
239,157,65322,1,0,0:0:0:0:
164,96,65572,2,0,P|87:127|73:216,1,160,2|2,0:0|0:0,0:0:0:0:
192,341,66572,5,2,0:0:0:0:
287,347,66822,1,0,0:0:0:0:
382,353,67072,2,0,P|437:262|406:201,1,160,2|4,0:0|0:0,0:0:0:0:
367,139,67822,1,0,0:0:0:0:
318,221,68072,2,0,L|218:223,1,80,2|0,0:0|0:0,0:0:0:0:
178,297,68572,2,0,P|141:233|188:144,1,160,4|2,0:0|0:0,0:0:0:0:
169,157,69572,5,2,0:0:0:0:
242,94,69822,1,0,0:0:0:0:
319,151,70072,2,0,L|324:247,1,80,4|0,0:0|0:0,0:0:0:0:
406,279,70572,2,0,L|396:90,1,160,2|4,0:0|0:0,0:0:0:0:
333,47,71322,1,0,0:0:0:0:
238,32,71572,2,0,P|160:81|164:162,2,160,2|4|2,0:0|0:0|0:0,0:0:0:0:
401,133,73072,5,2,0:0:0:0:
439,220,73322,1,0,0:0:0:0:
379,294,73572,2,0,L|195:286,1,160,2|2,0:0|0:0,0:0:0:0:
134,242,74322,1,0,0:0:0:0:
44,276,74572,2,0,P|0:202|44:134,1,160,2|2,0:0|0:0,0:0:0:0:
189,35,75572,5,2,0:0:0:0:
189,35,76072,2,0,B|272:24|272:24|353:39,1,160,2|4,0:0|0:0,0:0:0:0:
346,37,77072,1,2,0:0:0:0:
438,81,77322,1,0,0:0:0:0:
458,176,77572,2,0,P|474:272|456:340,1,160,2|4,0:0|0:0,0:0:0:0:
459,331,78572,5,2,0:0:0:0:
369,297,78822,1,0,0:0:0:0:
295,359,79072,2,0,L|113:357,1,160,2|2,0:0|0:0,0:0:0:0:
42,331,79822,1,0,0:0:0:0:
14,238,80072,2,0,P|12:189|45:137,1,80,4|0,0:0|0:0,0:0:0:0:
105,211,80572,6,0,P|169:232|279:194,1,160,2|0,0:0|0:0,0:0:0:0:
322,29,81572,1,2,0:0:0:0:
494,113,82072,2,0,L|491:294,1,160,2|0,0:0|0:0,0:0:0:0:
323,366,83072,1,2,0:0:0:0:
184,232,83572,2,0,P|115:209|23:230,1,160,2|0,0:0|0:0,0:0:0:0:
92,43,84572,5,2,0:0:0:0:
179,3,84822,1,0,0:0:0:0:
239,77,85072,2,0,B|278:88|278:88|417:90,2,160,2|4|2,0:0|0:0|0:0,0:0:0:0:
74,175,86572,6,0,P|51:262|108:327,1,160,2|4,0:0|0:0,0:0:0:0:
145,238,87322,1,0,0:0:0:0:
217,300,87572,1,2,0:0:0:0:
296,246,87822,1,0,0:0:0:0:
354,322,88072,2,0,B|421:338|421:338|515:335,2,160,2|4|2,0:0|0:0|0:0,0:0:0:0:
237,169,89572,6,0,P|236:82|319:34,1,160,2|4,0:0|0:0,0:0:0:0:
381,16,90322,1,0,0:0:0:0:
446,86,90572,2,0,B|460:133|460:133|447:197,1,80,2|0,0:0|0:0,0:0:0:0:
400,243,91072,2,0,P|318:259|260:213,1,160,2|2,0:0|0:0,0:0:0:0:
261,215,92072,5,2,0:0:0:0:
209,133,92322,1,0,0:0:0:0:
113,124,92572,2,0,P|38:161|29:239,1,160,0|2,0:0|0:0,0:0:0:0:
26,230,93572,5,2,0:0:0:0:
82,308,93822,1,0,0:0:0:0:
170,270,94072,2,0,L|347:278,1,160,2|4,0:0|0:0,0:0:0:0:
409,331,94822,1,0,0:0:0:0:
468,255,95072,2,0,B|475:207|475:207|463:163,1,80,2|0,0:0|0:0,0:0:0:0:
433,85,95572,2,0,P|366:45|288:99,1,160,2|2,0:0|0:0,0:0:0:0:
298,78,96572,5,2,0:0:0:0:
277,171,96822,1,0,0:0:0:0:
193,123,97072,2,0,B|80:111|80:111|15:126,2,160,2|4|2,0:0|0:0|0:0,0:0:0:0:
324,263,98572,6,0,P|370:268|440:164,1,160,2|4,0:0|0:0,0:0:0:0:
414,98,99322,1,0,0:0:0:0:
328,141,99572,2,0,L|311:40,1,80,2|0,0:0|0:0,0:0:0:0:
229,17,100072,2,0,P|151:36|138:130,2,160,2|4|2,0:0|0:0|0:0,0:0:0:0:
384,130,101572,6,0,L|392:244,1,80,2|0,0:0|0:0,0:0:0:0:
312,266,102072,2,0,L|304:152,1,80,2|4,0:0|0:0,0:0:0:0:
250,107,102572,1,2,0:0:0:0:
194,184,102822,1,4,0:0:0:0:
117,126,103072,6,0,P|47:152|35:259,1,160,2|4,0:0|0:0,0:0:0:0:
72,310,103822,1,0,0:0:0:0:
158,267,104072,2,0,L|262:261,1,80,2|0,0:0|0:0,0:0:0:0:
317,316,104572,2,0,P|379:345|477:292,1,160,2|2,0:0|0:0,0:0:0:0:
460,314,105572,5,2,0:0:0:0:
488,222,105822,1,0,0:0:0:0:
403,176,106072,2,0,L|401:7,1,160,2|4,0:0|0:0,0:0:0:0:
305,16,106822,1,0,0:0:0:0:
236,83,107072,2,0,P|207:93|130:70,1,80,2|0,0:0|0:0,0:0:0:0:
77,36,107572,6,0,P|24:94|27:172,1,160,2|0,0:0|0:0,0:0:0:0:
77,356,108572,1,2,0:0:0:0:
229,237,109072,2,0,L|411:242,1,160,2|0,0:0|0:0,0:0:0:0:
446,58,110072,1,2,0:0:0:0:
303,186,110572,6,0,L|121:181,1,160,2|0,0:0|0:0,0:0:0:0:
9,43,111572,1,2,0:0:0:0:
188,111,112072,2,0,P|231:172|215:276,1,160,2|0,0:0|0:0,0:0:0:0:
55,340,113072,5,2,0:0:0:0:
27,248,113322,1,0,0:0:0:0:
112,202,113572,2,0,L|208:201,1,80,2|0,0:0|0:0,0:0:0:0:
271,255,114072,2,0,P|288:182|241:117,1,160,4|2,0:0|0:0,0:0:0:0:
191,201,114822,1,0,0:0:0:0:
189,296,115072,2,0,P|267:346|360:300,1,160,2|2,0:0|0:0,0:0:0:0:
471,203,116072,1,2,0:0:0:0:
318,86,116572,5,2,0:0:0:0:
256,192,116822,12,0,119572,0:0:0:0:
