osu file format v14

[General]
AudioFilename: audio.mp3
AudioLeadIn: 0
PreviewTime: 4947
Countdown: 0
SampleSet: Soft
StackLeniency: 0.7
Mode: 0
LetterboxInBreaks: 0
WidescreenStoryboard: 1

[Editor]
DistanceSpacing: 0.85
BeatDivisor: 4
GridSize: 4
TimelineZoom: 1

[Metadata]
Title:Itsumo Nando demo
TitleUnicode:いつも何度でも
Artist:Joe Hisaishi
ArtistUnicode:久石 譲
Creator:Battle
Version:Normal
Source:千と千尋の神隠し
Tags:studio ghibli no-face Chihiro Ogino Haku Hayao Miyazaki Always With Me Sen to Chihiro no Kamikakushi and Chihiro's Spiriting Away orgel music box
BeatmapID:935355
BeatmapSetID:432289

[Difficulty]
HPDrainRate:2
CircleSize:3.2
OverallDifficulty:2
ApproachRate:3
SliderMultiplier:1
SliderTickRate:1

[Events]
//Background and Video events
0,0,"aaa.jpg",0,0
//Break Periods
//Storyboard Layer 0 (Background)
//Storyboard Layer 1 (Fail)
//Storyboard Layer 2 (Pass)
//Storyboard Layer 3 (Foreground)
//Storyboard Sound Samples

[TimingPoints]
4072,500,3,2,1,40,1,0
8072,-100,3,2,2,40,0,0
8572,-100,3,2,1,40,0,0
10572,-100,3,2,2,40,0,0
11072,-100,3,2,1,40,0,0
12072,-100,3,2,2,40,0,0
12572,-100,3,2,1,40,0,0
13572,-100,3,2,2,40,0,0
14072,-100,3,2,1,40,0,0
16572,-100,3,2,2,40,0,0
17072,-100,3,2,1,40,0,0
20072,-100,3,2,2,40,0,0
20572,-100,3,2,1,40,0,0
22572,-100,3,2,2,40,0,0
23322,-100,3,2,1,40,0,0
26572,-100,3,2,2,40,0,0
27072,-100,3,2,1,40,0,0
28072,-100,3,2,1,30,0,0
30572,-100,3,2,1,40,0,0
32072,-100,3,2,2,40,0,0
32572,-100,3,2,1,40,0,0
35072,-100,3,2,2,40,0,0
35572,-100,3,2,1,40,0,0
37572,-100,3,2,2,40,0,0
38072,-100,3,2,1,40,0,0
39072,-100,3,2,2,40,0,0
39572,-100,3,2,1,40,0,0
42072,-100,3,2,2,40,0,0
42572,-100,3,2,1,40,0,0
44072,-100,3,2,2,40,0,0
44572,-100,3,2,1,40,0,0
47072,-100,3,2,2,40,0,0
47572,-100,3,2,1,40,0,0
49072,-100,3,2,2,40,0,0
49572,-100,3,2,1,40,0,0
51072,-100,3,2,2,40,0,0
51572,-100,3,2,1,40,0,0
53572,-100,3,2,1,30,0,0
57572,-100,3,2,1,40,0,0
60572,-100,3,2,2,40,0,0
61072,-100,3,2,1,40,0,0
63072,-100,3,2,2,40,0,0
63572,-100,3,2,1,40,0,0
64572,-100,3,2,2,40,0,0
65072,-100,3,2,1,40,0,0
66072,-100,3,2,2,40,0,0
66572,-100,3,2,1,40,0,0
69072,-100,3,2,2,40,0,0
69572,-100,3,2,1,40,0,0
72572,-100,3,2,2,40,0,0
73072,-100,3,2,1,40,0,0
75072,-100,3,2,2,40,0,0
75572,-100,3,2,1,40,0,0
79072,-100,3,2,2,40,0,0
79572,-100,3,2,1,40,0,0
80572,-100,3,2,1,30,0,0
84572,-100,3,2,1,40,0,0
86072,-100,3,2,2,40,0,0
86572,-100,3,2,1,40,0,0
89072,-100,3,2,2,40,0,0
89572,-100,3,2,1,40,0,0
91572,-100,3,2,2,40,0,0
92072,-100,3,2,1,40,0,0
93072,-100,3,2,2,40,0,0
93572,-100,3,2,1,40,0,0
96072,-100,3,2,2,40,0,0
96572,-100,3,2,1,40,0,0
98072,-100,3,2,2,40,0,0
98572,-100,3,2,1,40,0,0
101072,-100,3,2,2,40,0,0
101572,-100,3,2,1,40,0,0
103072,-100,3,2,2,40,0,0
103572,-100,3,2,1,40,0,0
105072,-100,3,2,2,40,0,0
105572,-100,3,2,1,40,0,0
107572,-100,3,2,1,30,0,0
113072,-100,3,2,1,40,0,0
115072,-100,3,2,1,35,0,0
116572,-100,3,2,2,30,0,0
117322,-100,3,2,1,25,0,0
118072,-100,3,2,1,20,0,0
118822,-100,3,2,1,15,0,0
119322,-100,3,2,1,10,0,0

[Colours]
Combo1 : 95,133,160
Combo2 : 149,128,146
Combo3 : 186,166,154
Combo4 : 194,120,152

[HitObjects]
18,132,5072,5,2,0:0:0:0:
71,65,5572,2,0,P|110:34|174:48,1,100,2|4,0:0|0:0,0:0:0:0:
206,155,6822,1,0,0:0:0:0:
229,190,7072,2,0,L|233:309,1,100,2|4,0:0|0:0,0:0:0:0:
285,356,8072,1,2,0:0:0:0:
367,334,8572,6,0,P|413:281|351:166,1,200,2|0,0:0|0:0,0:0:0:0:
310,235,10072,2,0,L|197:245,1,100,4|2,0:0|0:0,0:0:0:0:
140,292,11072,1,2,0:0:0:0:
64,252,11572,2,0,P|46:212|65:140,1,100,2|2,0:0|0:0,0:0:0:0:
101,87,12572,1,2,0:0:0:0:
178,122,13072,6,0,B|219:136|219:136|282:120,1,100,2|2,0:0|0:0,0:0:0:0:
334,62,14072,1,2,0:0:0:0:
416,81,14572,2,0,P|445:135|433:186,1,100,2|4,0:0|0:0,0:0:0:0:
396,244,15572,2,0,L|329:245,1,50,2|0,0:0|0:0,0:0:0:0:
303,246,16072,6,0,P|281:301|299:352,1,100,2|2,0:0|0:0,0:0:0:0:
214,377,17072,1,2,0:0:0:0:
136,342,17572,2,0,L|28:337,1,100,2|4,0:0|0:0,0:0:0:0:
77,215,18822,1,0,0:0:0:0:
114,194,19072,6,0,L|222:199,1,100,2|4,0:0|0:0,0:0:0:0:
279,252,20072,1,2,0:0:0:0:
357,218,20572,2,0,P|394:160|336:42,1,200,2|2,0:0|0:0,0:0:0:0:
291,112,22072,5,0,0:0:0:0:
226,56,22572,2,0,L|73:55,1,150,2|0,0:0|0:0,0:0:0:0:
43,82,23572,2,0,P|25:127|39:196,1,100,2|4,0:0|0:0,0:0:0:0:
72,251,24572,1,2,0:0:0:0:
135,194,25072,6,0,B|182:184|182:184|233:193,1,100,2|4,0:0|0:0,0:0:0:0:
297,248,26072,2,0,L|302:303,1,50,2|0,0:0|0:0,0:0:0:0:
307,340,26572,2,0,P|369:356|420:338,1,100,2|2,0:0|0:0,0:0:0:0:
456,277,27572,2,0,L|457:223,1,50,4|0,0:0|0:0,0:0:0:0:
459,184,28072,6,0,P|439:146|377:120,1,100,2|0,0:0|0:0,0:0:0:0:
327,179,29072,1,2,0:0:0:0:
264,121,29572,2,0,L|164:123,1,100,0|2,0:0|0:0,0:0:0:0:
80,105,30572,2,0,L|76:156,1,50,2|0,0:0|0:0,0:0:0:0:
49,187,31072,6,0,L|54:300,2,100,2|4|2,0:0|0:0|0:0,0:0:0:0:
46,102,32572,2,0,P|83:73|148:72,1,100,2|2,0:0|0:0,0:0:0:0:
199,123,33572,2,0,L|255:125,1,50,2|0,0:0|0:0,0:0:0:0:
277,91,34072,6,0,L|389:98,2,100,2|4|2,0:0|0:0|0:0,0:0:0:0:
199,55,35572,2,0,P|145:61|111:106,1,100,2|4,0:0|0:0,0:0:0:0:
112,178,36572,1,2,0:0:0:0:
189,212,37072,6,0,L|188:332,1,100,2|2,0:0|0:0,0:0:0:0:
252,368,38072,1,2,0:0:0:0:
324,323,38572,2,0,P|370:313|429:338,1,100,2|2,0:0|0:0,0:0:0:0:
487,379,39572,1,2,0:0:0:0:
511,297,40072,6,0,P|504:237|512:183,1,100,2|4,0:0|0:0,0:0:0:0:
456,130,41072,2,0,L|451:74,1,50,2|0,0:0|0:0,0:0:0:0:
440,39,41572,2,0,P|358:19|329:35,1,100,4|2,0:0|0:0,0:0:0:0:
297,91,42572,1,2,0:0:0:0:
218,56,43072,6,0,L|110:53,2,100,2|4|2,0:0|0:0|0:0,0:0:0:0:
294,96,44572,2,0,P|316:141|304:207,1,100,2|4,0:0|0:0,0:0:0:0:
277,267,45572,2,0,L|276:328,1,50,2|0,0:0|0:0,0:0:0:0:
280,359,46072,6,0,P|345:372|392:358,2,100,2|4|2,0:0|0:0|0:0,0:0:0:0:
200,328,47572,1,2,0:0:0:0:
122,361,48072,2,0,P|83:293|86:268,1,100,4|2,0:0|0:0,0:0:0:0:
108,193,49072,6,0,B|157:214|157:214|318:217,1,200,2|4,0:0|0:0,0:0:0:0:
379,255,50572,2,0,P|386:199|361:157,1,100,2|2,0:0|0:0,0:0:0:0:
290,122,51572,1,2,0:0:0:0:
246,195,52072,6,0,L|241:311,1,100,4|0,0:0|0:0,0:0:0:0:
167,337,53072,2,0,L|115:338,1,50,2|0,0:0|0:0,0:0:0:0:
74,337,53572,2,0,P|49:280|65:236,1,100,2|0,0:0|0:0,0:0:0:0:
81,163,54572,1,2,0:0:0:0:
150,211,55072,5,2,0:0:0:0:
187,134,55572,2,0,L|291:132,1,100,0|2,0:0|0:0,0:0:0:0:
333,60,56572,1,2,0:0:0:0:
417,57,57072,1,0,0:0:0:0:
444,137,57572,1,2,0:0:0:0:
369,177,58072,6,0,L|372:294,1,100,2|4,0:0|0:0,0:0:0:0:
259,215,59322,1,0,0:0:0:0:
228,185,59572,2,0,L|225:68,1,100,2|4,0:0|0:0,0:0:0:0:
162,27,60572,1,2,0:0:0:0:
81,54,61072,6,0,P|31:114|59:227,1,200,2|4,0:0|0:0,0:0:0:0:
117,165,62572,1,2,0:0:0:0:
183,217,63072,2,0,L|284:223,1,100,2|2,0:0|0:0,0:0:0:0:
345,165,64072,6,0,P|369:215|352:270,1,100,2|2,0:0|0:0,0:0:0:0:
299,316,65072,2,0,L|295:371,1,50,2|0,0:0|0:0,0:0:0:0:
253,375,65572,2,0,B|185:375|185:375|153:363,1,100,2|2,0:0|0:0,0:0:0:0:
94,304,66572,1,2,0:0:0:0:
89,219,67072,6,0,P|109:158|157:132,1,100,2|4,0:0|0:0,0:0:0:0:
215,168,68072,1,2,0:0:0:0:
285,120,68572,2,0,L|397:121,1,100,4|2,0:0|0:0,0:0:0:0:
436,53,69572,1,2,0:0:0:0:
483,123,70072,6,0,P|507:151|494:305,1,200,4|4,0:0|0:0,0:0:0:0:
417,269,71572,2,0,B|368:269|368:269|322:292,1,100,2|4,0:0|0:0,0:0:0:0:
281,366,72572,1,2,0:0:0:0:
209,319,73072,6,0,P|129:286|21:314,1,200,2|2,0:0|0:0,0:0:0:0:
1,230,74572,2,0,B|-11:183|-11:183|1:114,1,100,2|2,0:0|0:0,0:0:0:0:
48,63,75572,1,2,0:0:0:0:
115,114,76072,6,0,P|187:126|218:117,1,100,2|4,0:0|0:0,0:0:0:0:
259,49,77072,1,2,0:0:0:0:
315,112,77572,2,0,L|314:322,1,200,2|2,0:0|0:0,0:0:0:0:
369,376,79072,5,2,0:0:0:0:
405,299,79572,2,0,L|409:187,1,100,2|4,0:0|0:0,0:0:0:0:
409,113,80572,2,0,P|376:57|337:42,1,100,2|0,0:0|0:0,0:0:0:0:
310,120,81572,1,2,0:0:0:0:
246,63,82072,6,0,L|126:66,1,100,2|0,0:0|0:0,0:0:0:0:
62,47,83072,1,2,0:0:0:0:
33,127,83572,2,0,P|11:186|30:233,1,100,2|0,0:0|0:0,0:0:0:0:
83,277,84572,2,0,L|146:297,1,50,2|0,0:0|0:0,0:0:0:0:
165,267,85072,6,0,L|275:264,2,100,2|4|2,0:0|0:0|0:0,0:0:0:0:
104,207,86572,2,0,P|79:150|96:107,1,100,2|4,0:0|0:0,0:0:0:0:
146,53,87572,2,0,L|196:41,1,50,2|0,0:0|0:0,0:0:0:0:
231,62,88072,6,0,L|341:69,2,100,2|4|2,0:0|0:0|0:0,0:0:0:0:
158,107,89572,2,0,P|120:157|126:205,1,100,2|4,0:0|0:0,0:0:0:0:
163,265,90572,1,2,0:0:0:0:
221,203,91072,6,0,B|265:186|265:186|326:199,1,100,2|2,0:0|0:0,0:0:0:0:
400,208,92072,1,2,0:0:0:0:
458,269,92572,2,0,P|473:311|453:366,1,100,0|2,0:0|0:0,0:0:0:0:
374,339,93572,1,2,0:0:0:0:
291,359,94072,6,0,L|86:362,1,200,2|2,0:0|0:0,0:0:0:0:
23,310,95572,2,0,P|4:242|25:204,1,100,2|2,0:0|0:0,0:0:0:0:
69,152,96572,1,2,0:0:0:0:
146,187,97072,6,0,B|190:210|190:210|262:212,1,100,2|4,0:0|0:0,0:0:0:0:
276,134,98072,1,2,0:0:0:0:
350,92,98572,2,0,P|381:85|449:112,1,100,2|4,0:0|0:0,0:0:0:0:
472,187,99572,2,0,L|464:251,1,50,2|0,0:0|0:0,0:0:0:0:
455,278,100072,6,0,L|335:262,1,100,2|4,0:0|0:0,0:0:0:0:
271,276,101072,1,2,0:0:0:0:
216,341,101572,2,0,P|186:268|246:154,1,200,2|2,0:0|0:0,0:0:0:0:
313,191,103072,6,0,P|312:132|282:95,1,100,2|4,0:0|0:0,0:0:0:0:
218,51,104072,2,0,L|153:51,1,50,2|0,0:0|0:0,0:0:0:0:
154,91,104572,2,0,L|38:82,1,100,2|2,0:0|0:0,0:0:0:0:
4,152,105572,1,2,0:0:0:0:
71,203,106072,6,0,L|184:213,1,100,2|4,0:0|0:0,0:0:0:0:
254,225,107072,2,0,L|258:276,1,50,2|0,0:0|0:0,0:0:0:0:
278,311,107572,2,0,P|331:334|391:319,1,100,2|0,0:0|0:0,0:0:0:0:
443,283,108572,1,2,0:0:0:0:
475,204,109072,6,0,B|488:160|488:160|477:90,1,100,2|0,0:0|0:0,0:0:0:0:
417,48,110072,1,2,0:0:0:0:
346,95,110572,2,0,P|272:105|235:93,1,100,2|0,0:0|0:0,0:0:0:0:
167,73,111572,1,2,0:0:0:0:
84,94,112072,2,0,P|39:127|33:175,1,100,2|0,0:0|0:0,0:0:0:0:
44,252,113072,1,2,0:0:0:0:
123,223,113572,6,0,L|173:225,1,50,2|0,0:0|0:0,0:0:0:0:
205,252,114072,2,0,L|316:254,1,100,4|2,0:0|0:0,0:0:0:0:
351,182,115072,1,2,0:0:0:0:
427,219,115572,2,0,P|451:269|446:319,1,100,2|2,0:0|0:0,0:0:0:0:
389,373,116572,5,2,0:0:0:0:
256,192,116822,12,0,119572,0:0:0:0:
