osu file format v14

[General]
AudioFilename: audio.mp3
AudioLeadIn: 0
PreviewTime: 4947
Countdown: 0
SampleSet: Soft
StackLeniency: 0.7
Mode: 0
LetterboxInBreaks: 0
WidescreenStoryboard: 0

[Editor]
DistanceSpacing: 0.85
BeatDivisor: 4
GridSize: 4
TimelineZoom: 1

[Metadata]
Title:Itsumo Nando demo
TitleUnicode:いつも何度でも
Artist:Joe Hisaishi
ArtistUnicode:久石 譲
Creator:Battle
Version:Advanced
Source:千と千尋の神隠し
Tags:studio ghibli no-face Chihiro Ogino Haku Hayao Miyazaki Always With Me Sen to Chihiro no Kamikakushi and Chihiro's Spiriting Away orgel music box
BeatmapID:932209
BeatmapSetID:432289

[Difficulty]
HPDrainRate:4
CircleSize:3.6
OverallDifficulty:4
ApproachRate:5
SliderMultiplier:1.3
SliderTickRate:1

[Events]
//Background and Video events
0,0,"aaa.jpg",0,0
//Break Periods
//Storyboard Layer 0 (Background)
//Storyboard Layer 1 (Fail)
//Storyboard Layer 2 (Pass)
//Storyboard Layer 3 (Foreground)
//Storyboard Sound Samples

[TimingPoints]
4072,500,3,2,1,40,1,0
8072,-100,3,2,2,40,0,0
8572,-100,3,2,1,40,0,0
10572,-100,3,2,2,40,0,0
11072,-100,3,2,1,40,0,0
12072,-100,3,2,2,40,0,0
12572,-100,3,2,1,40,0,0
13572,-100,3,2,2,40,0,0
14072,-100,3,2,1,40,0,0
16572,-100,3,2,2,40,0,0
17072,-100,3,2,1,40,0,0
20072,-100,3,2,2,40,0,0
20572,-100,3,2,1,40,0,0
22572,-100,3,2,2,40,0,0
23322,-100,3,2,1,40,0,0
26572,-100,3,2,2,40,0,0
27072,-100,3,2,1,40,0,0
28072,-100,3,2,1,30,0,0
30572,-100,3,2,1,40,0,0
32072,-100,3,2,2,40,0,0
32572,-100,3,2,1,40,0,0
35072,-100,3,2,2,40,0,0
35572,-100,3,2,1,40,0,0
37572,-100,3,2,2,40,0,0
38072,-100,3,2,1,40,0,0
39072,-100,3,2,2,40,0,0
39572,-100,3,2,1,40,0,0
42072,-100,3,2,2,40,0,0
42572,-100,3,2,1,40,0,0
44072,-100,3,2,2,40,0,0
44572,-100,3,2,1,40,0,0
47072,-100,3,2,2,40,0,0
47572,-100,3,2,1,40,0,0
49072,-100,3,2,2,40,0,0
49572,-100,3,2,1,40,0,0
51072,-100,3,2,2,40,0,0
51572,-100,3,2,1,40,0,0
53572,-100,3,2,1,30,0,0
57572,-100,3,2,1,40,0,0
60572,-100,3,2,2,40,0,0
61072,-100,3,2,1,40,0,0
63072,-100,3,2,2,40,0,0
63572,-100,3,2,1,40,0,0
64572,-100,3,2,2,40,0,0
65072,-100,3,2,1,40,0,0
66072,-100,3,2,2,40,0,0
66572,-100,3,2,1,40,0,0
69072,-100,3,2,2,40,0,0
69572,-100,3,2,1,40,0,0
72572,-100,3,2,2,40,0,0
73072,-100,3,2,1,40,0,0
75072,-100,3,2,2,40,0,0
75572,-100,3,2,1,40,0,0
79072,-100,3,2,2,40,0,0
79572,-100,3,2,1,40,0,0
80572,-100,3,2,1,30,0,0
84572,-100,3,2,1,40,0,0
86072,-100,3,2,2,40,0,0
86572,-100,3,2,1,40,0,0
89072,-100,3,2,2,40,0,0
89572,-100,3,2,1,40,0,0
91572,-100,3,2,2,40,0,0
92072,-100,3,2,1,40,0,0
93072,-100,3,2,2,40,0,0
93572,-100,3,2,1,40,0,0
96072,-100,3,2,2,40,0,0
96572,-100,3,2,1,40,0,0
98072,-100,3,2,2,40,0,0
98572,-100,3,2,1,40,0,0
101072,-100,3,2,2,40,0,0
101572,-100,3,2,1,40,0,0
103072,-100,3,2,2,40,0,0
103572,-100,3,2,1,40,0,0
105072,-100,3,2,2,40,0,0
105572,-100,3,2,1,40,0,0
107572,-100,3,2,1,30,0,0
113072,-100,3,2,1,40,0,0
115072,-100,3,2,1,35,0,0
116572,-100,3,2,2,30,0,0
117322,-100,3,2,1,25,0,0
118072,-100,3,2,1,20,0,0
118822,-100,3,2,1,15,0,0
119322,-100,3,2,1,10,0,0

[Colours]
Combo1 : 95,133,160
Combo2 : 149,128,146
Combo3 : 186,166,154
Combo4 : 194,120,152

[HitObjects]
44,103,5072,6,0,P|63:67|158:48,1,130,2|2,0:0|0:0,0:0:0:0:
189,68,5822,1,0,0:0:0:0:
215,112,6072,2,0,L|358:118,1,130,4|0,0:0|0:0,0:0:0:0:
438,71,7072,2,0,P|471:109|461:193,1,130,2|4,0:0|0:0,0:0:0:0:
362,173,8072,1,2,0:0:0:0:
265,212,8572,6,0,L|272:290,1,65,2|0,0:0|0:0,0:0:0:0:
239,318,9072,2,0,P|170:350|108:329,1,130,4|0,0:0|0:0,0:0:0:0:
38,272,10072,2,0,B|31:207|31:207|54:126,1,130,4|2,0:0|0:0,0:0:0:0:
101,55,11072,1,2,0:0:0:0:
101,55,11322,1,0,0:0:0:0:
101,55,11572,6,0,P|161:48|228:88,1,130,2|2,0:0|0:0,0:0:0:0:
295,152,12572,2,0,L|292:228,1,65,2|0,0:0|0:0,0:0:0:0:
292,268,13072,2,0,P|347:309|425:299,1,130,2|2,0:0|0:0,0:0:0:0:
498,260,14072,2,0,L|499:195,1,65,2|0,0:0|0:0,0:0:0:0:
505,143,14572,6,0,P|518:77|459:36,1,130,2|4,0:0|0:0,0:0:0:0:
372,25,15572,2,0,L|290:22,1,65,2|0,0:0|0:0,0:0:0:0:
293,72,16072,2,0,B|226:82|226:82|161:68,1,130,2|2,0:0|0:0,0:0:0:0:
61,76,17072,2,0,P|38:109|38:149,1,65,2|0,0:0|0:0,0:0:0:0:
74,166,17572,6,0,P|94:191|99:222,1,65,2|0,0:0|0:0,0:0:0:0:
72,267,18072,2,0,P|108:254|211:285,1,130,4|2,0:0|0:0,0:0:0:0:
274,340,19072,1,2,0:0:0:0:
374,312,19572,2,0,L|373:166,1,130,4|2,0:0|0:0,0:0:0:0:
403,82,20572,6,0,L|318:80,1,65,2|0,0:0|0:0,0:0:0:0:
288,64,21072,2,0,P|208:44|161:74,1,130,4|2,0:0|0:0,0:0:0:0:
142,109,21822,1,0,0:0:0:0:
124,157,22072,2,0,P|73:174|-13:155,1,130,0|2,0:0|0:0,0:0:0:0:
99,42,23322,1,0,0:0:0:0:
99,42,23572,6,0,P|168:27|243:54,1,130,2|4,0:0|0:0,0:0:0:0:
310,100,24572,2,0,L|306:176,1,65,2|0,0:0|0:0,0:0:0:0:
294,215,25072,2,0,L|302:346,1,130,2|4,0:0|0:0,0:0:0:0:
198,350,26072,2,0,P|149:346|126:349,1,65,2|0,0:0|0:0,0:0:0:0:
81,349,26572,6,0,P|56:304|77:221,1,130,2|2,0:0|0:0,0:0:0:0:
102,128,27572,2,0,P|129:108|177:101,1,65,4|0,0:0|0:0,0:0:0:0:
192,140,28072,2,0,B|267:155|267:155|342:142,1,130,2|0,0:0|0:0,0:0:0:0:
349,46,29072,1,2,0:0:0:0:
443,88,29572,2,0,P|479:130|471:210,1,130,0|2,0:0|0:0,0:0:0:0:
391,266,30572,1,2,0:0:0:0:
391,266,30822,1,0,0:0:0:0:
391,266,31072,6,0,P|316:245|266:267,1,130,2|4,0:0|0:0,0:0:0:0:
176,309,32072,1,2,0:0:0:0:
82,262,32572,2,0,P|57:214|81:126,1,130,2|2,0:0|0:0,0:0:0:0:
106,50,33572,2,0,L|192:39,1,65,2|0,0:0|0:0,0:0:0:0:
221,32,34072,6,0,P|259:56|257:146,1,130,2|4,0:0|0:0,0:0:0:0:
181,197,35072,1,2,0:0:0:0:
208,297,35572,1,2,0:0:0:0:
300,250,36072,2,0,L|375:255,1,65,4|0,0:0|0:0,0:0:0:0:
399,293,36572,2,0,L|474:288,1,65,2|0,0:0|0:0,0:0:0:0:
509,263,37072,6,0,P|518:193|488:142,1,130,2|2,0:0|0:0,0:0:0:0:
388,123,38072,2,0,L|322:121,1,65,2|0,0:0|0:0,0:0:0:0:
288,159,38572,2,0,L|153:132,1,130,2|2,0:0|0:0,0:0:0:0:
125,35,39572,1,2,0:0:0:0:
125,35,39822,1,0,0:0:0:0:
125,35,40072,6,0,P|69:74|58:132,1,130,2|4,0:0|0:0,0:0:0:0:
105,223,41072,2,0,P|112:259|108:299,1,65,2|0,0:0|0:0,0:0:0:0:
85,332,41572,2,0,P|143:299|226:315,1,130,4|2,0:0|0:0,0:0:0:0:
301,341,42572,1,2,0:0:0:0:
301,341,42822,1,0,0:0:0:0:
301,341,43072,6,0,P|376:364|447:346,1,130,2|4,0:0|0:0,0:0:0:0:
484,269,44072,1,2,0:0:0:0:
501,166,44572,2,0,P|476:70|427:48,1,130,2|4,0:0|0:0,0:0:0:0:
403,60,45322,1,0,0:0:0:0:
363,93,45572,6,0,P|281:112|229:95,1,130,2|2,0:0|0:0,0:0:0:0:
163,27,46572,1,4,0:0:0:0:
71,76,47072,1,2,0:0:0:0:
134,158,47572,2,0,L|129:252,1,65,2|0,0:0|0:0,0:0:0:0:
80,225,48072,2,0,L|85:319,1,65,4|0,0:0|0:0,0:0:0:0:
88,341,48572,6,0,P|161:357|222:338,1,130,2|2,0:0|0:0,0:0:0:0:
292,275,49572,1,2,0:0:0:0:
292,275,49822,1,0,0:0:0:0:
292,275,50072,2,0,L|424:286,1,130,4|2,0:0|0:0,0:0:0:0:
474,196,51072,1,2,0:0:0:0:
420,106,51572,2,0,L|415:33,1,65,2|0,0:0|0:0,0:0:0:0:
381,2,52072,6,0,P|316:2|268:57,1,130,4|0,0:0|0:0,0:0:0:0:
268,149,53072,1,2,0:0:0:0:
181,91,53572,2,0,P|123:75|59:105,1,130,2|0,0:0|0:0,0:0:0:0:
30,201,54572,1,2,0:0:0:0:
126,162,55072,2,0,L|125:320,1,130,2|0,0:0|0:0,0:0:0:0:
181,379,56072,1,2,0:0:0:0:
266,320,56572,2,0,P|360:298|412:326,1,130,2|0,0:0|0:0,0:0:0:0:
471,246,57572,2,0,L|482:176,1,65,2|0,0:0|0:0,0:0:0:0:
431,164,58072,6,0,L|420:94,1,65,2|0,0:0|0:0,0:0:0:0:
401,51,58572,2,0,P|336:23|274:41,1,130,4|2,0:0|0:0,0:0:0:0:
207,110,59572,1,2,0:0:0:0:
103,100,60072,2,0,B|80:159|80:159|101:231,1,130,4|2,0:0|0:0,0:0:0:0:
188,274,61072,6,0,P|220:272|253:276,1,65,2|0,0:0|0:0,0:0:0:0:
299,298,61572,2,0,P|370:308|444:279,1,130,2|4,0:0|0:0,0:0:0:0:
470,197,62572,2,0,B|481:123|481:123|464:61,1,130,2|2,0:0|0:0,0:0:0:0:
373,23,63572,6,0,P|300:45|295:96,1,130,2|2,0:0|0:0,0:0:0:0:
345,180,64572,1,2,0:0:0:0:
310,277,65072,2,0,P|308:313|281:352,1,65,2|0,0:0|0:0,0:0:0:0:
242,342,65572,2,0,P|175:333|71:345,1,130,2|2,0:0|0:0,0:0:0:0:
51,252,66572,2,0,L|44:172,1,65,2|0,0:0|0:0,0:0:0:0:
40,136,67072,6,0,P|104:91|169:109,1,130,2|4,0:0|0:0,0:0:0:0:
198,121,67822,1,0,0:0:0:0:
246,140,68072,2,0,B|320:156|320:156|383:140,1,130,2|4,0:0|0:0,0:0:0:0:
409,45,69072,1,2,0:0:0:0:
498,97,69572,6,0,L|496:188,1,65,2|0,0:0|0:0,0:0:0:0:
449,183,70072,2,0,L|454:276,1,65,4|0,0:0|0:0,0:0:0:0:
449,299,70572,2,0,P|387:318|317:287,1,130,2|4,0:0|0:0,0:0:0:0:
283,204,71572,1,2,0:0:0:0:
186,242,72072,2,0,L|55:250,1,130,4|2,0:0|0:0,0:0:0:0:
1,177,73072,5,2,0:0:0:0:
1,177,73322,1,0,0:0:0:0:
1,177,73572,2,0,B|-11:117|-11:117|15:48,1,130,2|2,0:0|0:0,0:0:0:0:
108,11,74572,1,2,0:0:0:0:
168,95,75072,2,0,P|232:120|306:101,1,130,2|2,0:0|0:0,0:0:0:0:
369,40,76072,5,2,0:0:0:0:
454,98,76572,1,4,0:0:0:0:
438,200,77072,1,2,0:0:0:0:
438,200,77322,1,0,0:0:0:0:
438,200,77572,2,0,L|439:335,1,130,2|4,0:0|0:0,0:0:0:0:
340,364,78572,2,0,P|285:376|247:359,1,65,2|0,0:0|0:0,0:0:0:0:
231,349,79072,6,0,P|174:322|95:347,1,130,2|2,0:0|0:0,0:0:0:0:
28,290,80072,2,0,P|25:250|37:214,1,65,4|0,0:0|0:0,0:0:0:0:
57,181,80572,2,0,B|129:201|129:201|211:182,1,130,2|0,0:0|0:0,0:0:0:0:
247,107,81572,1,2,0:0:0:0:
345,73,82072,6,0,P|416:115|425:169,1,130,2|0,0:0|0:0,0:0:0:0:
430,260,83072,1,2,0:0:0:0:
326,248,83572,2,0,L|166:243,1,130,2|0,0:0|0:0,0:0:0:0:
111,183,84572,2,0,P|106:140|124:114,1,65,2|0,0:0|0:0,0:0:0:0:
150,83,85072,6,0,L|315:76,1,130,2|4,0:0|0:0,0:0:0:0:
372,31,86072,1,2,0:0:0:0:
455,92,86572,2,0,P|485:161|464:217,1,130,2|4,0:0|0:0,0:0:0:0:
429,244,87322,1,0,0:0:0:0:
378,231,87572,6,0,B|304:206|304:206|225:216,1,130,2|2,0:0|0:0,0:0:0:0:
191,296,88572,1,4,0:0:0:0:
93,260,89072,2,0,P|35:213|40:148,1,130,2|2,0:0|0:0,0:0:0:0:
107,88,90072,2,0,L|171:73,1,65,4|0,0:0|0:0,0:0:0:0:
200,115,90572,2,0,L|264:130,1,65,2|0,0:0|0:0,0:0:0:0:
308,103,91072,6,0,P|380:106|422:163,1,130,2|2,0:0|0:0,0:0:0:0:
447,245,92072,1,2,0:0:0:0:
367,312,92572,1,0,0:0:0:0:
278,257,93072,2,0,L|147:252,1,130,2|2,0:0|0:0,0:0:0:0:
96,256,93822,1,0,0:0:0:0:
69,211,94072,6,0,P|51:155|80:79,1,130,2|4,0:0|0:0,0:0:0:0:
173,65,95072,2,0,L|238:65,1,65,2|0,0:0|0:0,0:0:0:0:
292,64,95572,2,0,P|342:113|335:205,1,130,2|2,0:0|0:0,0:0:0:0:
249,200,96572,1,2,0:0:0:0:
148,227,97072,6,0,P|128:307|145:350,1,130,2|4,0:0|0:0,0:0:0:0:
232,293,98072,2,0,L|382:300,1,130,2|2,0:0|0:0,0:0:0:0:
461,328,99072,1,4,0:0:0:0:
461,328,99322,1,0,0:0:0:0:
461,328,99572,6,0,P|475:243|447:205,1,130,2|2,0:0|0:0,0:0:0:0:
362,159,100572,1,4,0:0:0:0:
293,237,101072,2,0,B|224:256|224:256|139:237,1,130,2|2,0:0|0:0,0:0:0:0:
66,214,102072,2,0,P|60:182|66:150,1,65,2|4,0:0|0:0,0:0:0:0:
118,143,102572,2,0,P|124:111|118:79,1,65,2|4,0:0|0:0,0:0:0:0:
103,29,103072,5,2,0:0:0:0:
195,77,103572,2,0,L|281:84,1,65,4|0,0:0|0:0,0:0:0:0:
297,46,104072,2,0,L|383:39,1,65,2|0,0:0|0:0,0:0:0:0:
411,55,104572,2,0,P|454:109|446:191,1,130,2|2,0:0|0:0,0:0:0:0:
401,256,105572,2,0,L|331:268,1,65,2|0,0:0|0:0,0:0:0:0:
285,257,106072,6,0,P|260:179|285:123,1,130,2|4,0:0|0:0,0:0:0:0:
220,47,107072,1,2,0:0:0:0:
220,47,107322,1,0,0:0:0:0:
220,47,107572,2,0,P|143:74|79:52,1,130,2|0,0:0|0:0,0:0:0:0:
9,8,108572,1,2,0:0:0:0:
13,115,109072,6,0,B|3:181|3:181|14:271,1,130,2|0,0:0|0:0,0:0:0:0:
61,334,110072,1,2,0:0:0:0:
132,258,110572,2,0,P|186:213|252:234,1,130,2|0,0:0|0:0,0:0:0:0:
311,300,111572,1,2,0:0:0:0:
408,264,112072,2,0,P|467:186|457:146,1,130,2|0,0:0|0:0,0:0:0:0:
410,71,113072,2,0,L|328:52,1,65,2|0,0:0|0:0,0:0:0:0:
317,99,113572,6,0,L|235:118,1,65,2|0,0:0|0:0,0:0:0:0:
208,88,114072,2,0,P|161:71|76:98,1,130,4|2,0:0|0:0,0:0:0:0:
21,172,115072,1,2,0:0:0:0:
81,256,115572,1,2,0:0:0:0:
164,194,116072,1,2,0:0:0:0:
252,248,116572,5,2,0:0:0:0:
256,192,116822,12,0,119572,0:0:0:0:
