osu file format v14

[General]
AudioFilename: audio.mp3
AudioLeadIn: 0
PreviewTime: -1
Countdown: 0
SampleSet: None
StackLeniency: 0.4
Mode: 0
LetterboxInBreaks: 0
WidescreenStoryboard: 1

[Editor]
DistanceSpacing: 3.8
BeatDivisor: 4
GridSize: 4
TimelineZoom: 1

[Metadata]
Title:Avalon
TitleUnicode:Avalon
Artist:JoJo
ArtistUnicode:JoJo
Creator:FlanDrive
Version:Injury, Swoleness and Commitment
Source:
Tags:h
BeatmapID:1784055
BeatmapSetID:853667

[Difficulty]
HPDrainRate:5
CircleSize:4
OverallDifficulty:8.6
ApproachRate:9.7
SliderMultiplier:2
SliderTickRate:1

[Events]
//Background and Video events
0,0,"jojo-s-bizarre-kuujou-joutarou-dio-brando-blonde.jpg",0,0
//Break Periods
2,85610,98437
//Storyboard Layer 0 (Background)
//Storyboard Layer 1 (Fail)
//Storyboard Layer 2 (Pass)
//Storyboard Layer 3 (Foreground)
//Storyboard Sound Samples

[TimingPoints]
904,422.535211267606,4,2,0,100,1,0
904,-500,4,2,0,100,0,0
38087,-100,4,2,0,100,0,0
42734,-333.333333333333,4,2,0,100,0,0
43157,-100,4,2,0,100,0,0
51608,-66.6666666666667,4,2,0,100,0,1
58368,-1000,4,2,0,100,0,0
60058,-66.6666666666667,4,2,0,100,0,1
65129,-133.333333333333,4,2,0,100,0,0
71889,-100,4,2,0,100,0,0
99354,-50,4,2,0,100,0,0
104847,-1000,4,2,0,100,0,0
105692,-50,4,2,0,100,0,0
108650,-1000,4,2,0,100,0,0
109073,-66.6666666666667,4,2,0,100,0,0
110763,-1000,4,2,0,100,0,0
112453,-100,4,2,0,100,0,0
153016,-66.6666666666667,4,2,0,100,0,1
193580,-200,4,2,0,100,0,0

[Colours]
Combo1 : 255,183,183
Combo2 : 255,0,0
Combo3 : 255,53,53
Combo4 : 255,123,123

[HitObjects]
76,64,904,6,0,B|100:36|152:40|172:60|192:92|184:120|164:152|136:160|96:168|96:232,1,280
96,224,4284,2,0,B|168:224|168:224|200:292|256:328|312:320|344:300,1,280
336,304,7664,2,0,B|336:144|336:144|380:184|452:180,1,280
448,180,11044,2,0,P|448:120|408:72,1,120
412,74,12734,2,0,P|352:74|304:34,1,120
306,38,14425,6,0,B|294:66|294:66|302:94|302:94|290:122|290:122|298:150|298:150|286:178|286:178|294:206|294:206|248:180|196:208,1,280
196,208,17805,2,0,L|200:256,1,40
200,248,18650,2,0,B|132:228|132:228|88:264,1,120
93,259,20340,2,0,L|89:219,1,40
89,219,21185,2,0,P|89:167|260:216,2,320
256,192,29636,12,0,37875,0:0:0:0:
116,64,38087,6,0,L|148:64,1,16.6666666666667
216,104,38192,6,0,L|184:104,1,16.6666666666667
364,320,38510,6,0,L|364:288,1,16.6666666666667
404,220,38615,6,0,L|403:252,1,16.6666666666667
196,284,38932,6,0,L|164:284,1,16.6666666666667
96,244,39037,6,0,L|128:244,1,16.6666666666667
304,100,39354,6,0,L|304:68,1,16.6666666666667
344,0,39459,6,0,L|343:32,1,16.6666666666667
492,240,39777,5,0,0:0:0:0:
444,224,39882,1,0,0:0:0:0:
395,214,39988,1,0,0:0:0:0:
345,208,40093,1,0,0:0:0:0:
295,208,40199,5,0,0:0:0:0:
246,213,40305,1,0,0:0:0:0:
197,223,40410,1,0,0:0:0:0:
149,237,40516,1,0,0:0:0:0:
108,260,40622,6,0,L|112:160,1,100
228,0,41044,2,0,L|232:104,1,100
280,336,41467,2,0,P|340:308|416:344,1,150
464,232,41889,2,0,L|468:176,3,50
364,116,42312,2,0,B|368:228|368:228|344:176,1,150
272,168,42734,2,0,B|248:176|224:168,1,44.999998626709
212,64,43157,5,0,0:0:0:0:
164,78,43262,1,0,0:0:0:0:
127,111,43368,1,0,0:0:0:0:
106,156,43473,1,0,0:0:0:0:
104,206,43579,5,0,0:0:0:0:
123,252,43685,1,0,0:0:0:0:
159,286,43790,1,0,0:0:0:0:
206,303,43896,1,0,0:0:0:0:
208,256,44002,5,0,0:0:0:0:
210,181,44107,1,0,0:0:0:0:
264,120,44213,1,0,0:0:0:0:
336,88,44318,1,0,0:0:0:0:
416,96,44424,5,0,0:0:0:0:
480,148,44530,1,0,0:0:0:0:
492,224,44635,1,0,0:0:0:0:
448,292,44741,1,0,0:0:0:0:
368,308,44847,6,0,L|368:272,1,25
312,204,44953,6,0,L|312:240,1,25
48,40,45270,6,0,L|84:40,1,25
152,96,45376,6,0,L|116:95,1,25
440,12,45692,6,0,L|440:47,1,25
384,115,45798,6,0,L|384:79,1,25
164,332,46115,6,0,L|128:332,1,25
61,276,46221,6,0,L|97:276,1,25
412,272,46537,1,0,0:0:0:0:
385,230,46642,1,0,0:0:0:0:
339,213,46748,1,0,0:0:0:0:
292,227,46853,1,0,0:0:0:0:
262,266,46959,5,0,0:0:0:0:
263,315,47065,1,0,0:0:0:0:
292,355,47170,1,0,0:0:0:0:
339,368,47276,1,0,0:0:0:0:
385,351,47382,6,0,L|388:244,1,100
296,40,47805,2,0,L|300:160,1,100
148,272,48227,5,0,0:0:0:0:
148,259,48332,1,0,0:0:0:0:
148,247,48438,1,0,0:0:0:0:
148,234,48543,1,0,0:0:0:0:
148,222,48649,5,0,0:0:0:0:
149,209,48755,1,0,0:0:0:0:
149,197,48860,1,0,0:0:0:0:
149,184,48966,1,0,0:0:0:0:
149,172,49072,5,0,0:0:0:0:
150,159,49177,1,0,0:0:0:0:
150,147,49283,1,0,0:0:0:0:
150,134,49388,1,0,0:0:0:0:
150,122,49494,5,0,0:0:0:0:
151,109,49600,1,0,0:0:0:0:
151,97,49705,1,0,0:0:0:0:
151,84,49811,1,0,0:0:0:0:
151,72,49918,6,0,L|151:24,14,25
232,168,50763,2,0,L|232:188,27,12.5
392,8,51608,6,0,B|364:56|360:120|384:224|384:224|384:152|452:80|452:80|448:152,1,450.000017166138
148,320,52453,2,0,P|220:296|292:324,1,150.000005722046
20,100,52875,2,0,P|92:124|164:96,1,150.000005722046
500,224,53298,6,0,B|408:188|408:188|348:208|348:208|352:120|352:120|284:136|244:88|256:16|320:8,1,450.000017166138
24,224,54143,2,0,B|124:196|124:196|176:212,1,150.000005722046
504,340,54565,2,0,P|436:304|336:304,1,150.000005722046
100,52,54988,6,0,B|196:68|252:32|252:32|252:88|252:88|292:68|292:68|288:272,1,450.000017166138
476,28,55833,2,0,L|472:108,3,75.0000028610231
392,264,56256,2,0,L|400:360,3,75.0000028610231
284,252,56678,5,0,0:0:0:0:
284,116,56784,1,0,0:0:0:0:
204,216,56889,1,0,0:0:0:0:
204,80,56995,1,0,0:0:0:0:
120,176,57101,1,0,0:0:0:0:
120,40,57207,1,0,0:0:0:0:
116,324,57312,1,0,0:0:0:0:
224,328,57418,1,0,0:0:0:0:
12,172,57523,2,0,B|0:64|0:64|20:16,1,150.000005722046
84,192,57946,2,0,B|68:312|68:312|96:360,1,150.000005722046
324,76,58368,6,0,B|356:76|356:76|368:84|368:84|380:76|380:76|392:76,1,70
232,316,60058,2,0,P|296:248|360:260,1,150.000005722046
480,240,60481,2,0,P|420:192|420:120,1,150.000005722046
300,132,60904,6,0,P|160:144|84:0,1,300.000011444092
444,128,61537,1,0,0:0:0:0:
68,104,61749,2,0,L|64:260,1,150.000005722046
316,304,62171,2,0,L|240:308,2,75.0000028610231
228,32,62594,2,0,L|232:112,3,75.0000028610231
400,188,63016,2,0,L|320:192,3,75.0000028610231
80,292,63439,5,0,0:0:0:0:
120,188,63544,1,0,0:0:0:0:
176,360,63650,1,0,0:0:0:0:
216,180,63755,1,0,0:0:0:0:
272,276,63861,1,0,0:0:0:0:
312,104,63966,1,0,0:0:0:0:
368,268,64072,1,0,0:0:0:0:
408,164,64177,1,0,0:0:0:0:
216,52,64284,2,0,L|368:56,1,150.000005722046
368,312,64706,2,0,P|256:340|152:276,1,225.000008583069
232,224,65129,6,0,L|228:144,1,75.0000028610231
156,36,65551,2,0,L|160:112,1,75.0000028610231
104,236,65974,2,0,L|100:156,1,75.0000028610231
28,48,66396,2,0,L|32:124,1,75.0000028610231
52,332,66819,6,0,L|140:328,1,75.0000028610231
252,280,67242,2,0,L|176:276,1,75.0000028610231
56,216,67664,2,0,L|144:212,1,75.0000028610231
256,164,68087,2,0,L|180:160,1,75.0000028610231
256,164,68509,6,0,L|260:244,1,75.0000028610231
332,352,68931,2,0,L|328:276,1,75.0000028610231
384,152,69354,2,0,L|388:232,1,75.0000028610231
460,340,69776,2,0,L|456:264,1,75.0000028610231
488,4,70199,6,0,L|400:8,1,75.0000028610231
288,56,70622,2,0,L|364:60,1,75.0000028610231
484,120,71044,2,0,L|396:124,1,75.0000028610231
284,172,71467,2,0,L|360:176,1,75.0000028610231
184,212,71889,5,0,0:0:0:0:
160,32,72101,1,0,0:0:0:0:
92,92,72206,2,0,L|96:144,1,33.3333333333333
72,104,72312,2,0,L|76:156,1,33.3333333333333
52,120,72417,2,0,L|56:172,1,33.3333333333333
32,132,72523,2,0,L|36:184,1,33.3333333333333
32,284,72734,2,0,P|72:272|144:316,1,100
300,332,73157,2,0,L|344:328,6,25
328,212,73580,5,0,0:0:0:0:
352,32,73792,1,0,0:0:0:0:
420,92,73897,2,0,L|416:144,1,33.3333333333333
440,104,74003,2,0,L|436:156,1,33.3333333333333
460,120,74108,2,0,L|456:172,1,33.3333333333333
480,132,74214,2,0,L|476:184,1,33.3333333333333
480,284,74425,2,0,P|440:272|368:316,1,100
212,332,74848,2,0,L|168:328,6,25
292,148,75270,5,0,0:0:0:0:
472,172,75482,1,0,0:0:0:0:
412,240,75587,2,0,L|360:236,1,33.3333333333333
400,260,75693,2,0,L|348:256,1,33.3333333333333
384,280,75798,2,0,L|332:276,1,33.3333333333333
372,300,75904,2,0,L|320:296,1,33.3333333333333
220,300,76115,2,0,P|232:260|188:188,1,100
172,32,76538,2,0,L|176:-12,6,25
24,100,76960,6,0,L|112:104,1,75
148,184,77224,2,0,L|236:188,1,75
276,268,77488,2,0,L|364:272,1,75
368,128,77805,1,0,0:0:0:0:
412,352,78016,2,0,L|416:300,1,50
472,200,78227,2,0,L|472:232,6,25
444,68,78650,5,0,0:0:0:0:
76,136,78967,1,0,0:0:0:0:
76,136,79073,1,0,0:0:0:0:
76,136,79178,1,0,0:0:0:0:
76,136,79284,1,0,0:0:0:0:
220,48,79495,2,0,P|188:92|184:152,1,100
276,280,79918,2,0,L|276:248,6,25
72,324,80340,5,0,0:0:0:0:
440,256,80657,1,0,0:0:0:0:
440,256,80763,1,0,0:0:0:0:
440,256,80868,1,0,0:0:0:0:
440,256,80974,1,0,0:0:0:0:
296,344,81185,2,0,P|328:300|332:240,1,100
240,112,81608,2,0,L|240:144,6,25
328,56,82030,5,0,0:0:0:0:
408,68,82242,2,0,L|408:96,1,25
408,68,82347,2,0,L|408:96,1,25
408,68,82453,2,0,L|408:96,1,25
408,68,82558,2,0,L|408:96,1,25
408,68,82664,2,0,L|408:96,1,25
408,176,82875,6,0,L|408:280,1,100
328,200,83298,2,0,L|328:308,1,100
116,168,83720,2,0,L|116:64,1,100
196,144,84143,2,0,L|196:36,1,100
444,36,84565,5,0,0:0:0:0:
444,61,84617,1,0,0:0:0:0:
444,86,84670,1,0,0:0:0:0:
444,111,84723,1,0,0:0:0:0:
444,136,84776,1,0,0:0:0:0:
444,161,84829,1,0,0:0:0:0:
444,186,84881,1,0,0:0:0:0:
444,211,84934,1,0,0:0:0:0:
444,236,84988,2,0,L|444:280,8,25
256,192,98932,5,0,0:0:0:0:
256,192,99354,2,0,P|256:88|348:60,1,200
256,192,99777,2,0,P|360:192|388:284,1,200
256,192,100199,2,0,P|256:296|164:324,1,200
256,192,100622,2,0,P|151:192|124:100,1,200
256,192,101044,2,0,P|255:296|164:324,1,200
256,192,101467,2,0,P|360:192|388:284,1,200
256,192,101889,2,0,L|256:140,6,50
328,60,102312,5,0,0:0:0:0:
328,140,102418,1,0,0:0:0:0:
396,104,102523,1,0,0:0:0:0:
396,184,102629,2,0,L|396:296,1,100
328,140,102840,1,0,0:0:0:0:
328,60,102946,1,0,0:0:0:0:
232,28,103051,5,0,0:0:0:0:
152,40,103157,1,0,0:0:0:0:
196,104,103262,1,0,0:0:0:0:
116,116,103368,1,0,0:0:0:0:
252,180,103474,1,0,0:0:0:0:
116,244,103579,1,0,0:0:0:0:
252,308,103685,1,0,0:0:0:0:
116,372,103790,1,0,0:0:0:0:
252,308,103896,2,0,L|360:312,1,100
356,192,104108,5,0,0:0:0:0:
476,192,104213,1,0,0:0:0:0:
476,312,104319,1,0,0:0:0:0:
352,312,104425,1,0,0:0:0:0:
397,234,104530,1,0,0:0:0:0:
433,234,104635,1,0,0:0:0:0:
433,270,104741,1,0,0:0:0:0:
396,270,104847,2,0,L|396:236,1,35
396,144,105692,5,0,0:0:0:0:
396,52,105798,1,0,0:0:0:0:
396,144,105904,1,0,0:0:0:0:
396,52,106010,1,0,0:0:0:0:
300,292,106115,5,0,0:0:0:0:
300,200,106221,1,0,0:0:0:0:
300,292,106327,1,0,0:0:0:0:
300,200,106433,1,0,0:0:0:0:
396,144,106537,2,0,L|172:144,1,200
44,356,106960,2,0,L|164:356,1,100
300,200,107171,2,0,L|184:200,1,100
68,48,107382,6,0,L|376:48,1,300
444,236,107805,2,0,L|444:116,1,100
332,304,108016,2,0,L|220:304,1,100
84,168,108227,6,0,L|296:168,1,200
144,352,108650,2,0,L|144:336,1,15
380,276,109073,2,0,L|200:276,1,150.000005722046
48,36,109495,2,0,L|48:200,1,150.000005722046
300,24,109918,2,0,B|312:52|312:52|300:84|300:84|308:120|308:120|300:152|300:152|308:188|308:188|296:228|296:228|304:260,1,225.000008583069
428,160,110340,2,0,L|428:236,3,75.0000028610231
48,184,110763,6,0,L|120:184,1,70
392,88,112453,6,0,P|340:112|336:188,1,100
392,296,112875,2,0,P|338:276|281:327,1,100
224,152,113298,2,0,L|220:260,1,100
136,116,113720,2,0,L|24:120,1,100
184,56,114143,5,0,0:0:0:0:
184,56,114354,1,0,0:0:0:0:
324,136,114565,1,0,0:0:0:0:
324,136,114777,1,0,0:0:0:0:
456,12,114988,1,0,0:0:0:0:
456,12,115199,1,0,0:0:0:0:
456,192,115411,1,0,0:0:0:0:
456,192,115622,1,0,0:0:0:0:
456,192,115833,6,0,L|456:296,1,100
352,144,116256,2,0,L|352:256,1,100
288,76,116678,2,0,P|224:76|176:128,1,100
52,204,117101,2,0,P|116:204|164:256,1,100
300,312,117523,6,0,L|264:312,1,25
300,312,117629,2,0,L|264:312,1,25
300,312,117734,2,0,L|264:312,1,25
300,312,117840,2,0,L|264:312,1,25
352,232,117946,6,0,L|316:232,1,25
352,232,118052,2,0,L|316:232,1,25
352,232,118157,2,0,L|316:232,1,25
352,232,118263,2,0,L|316:232,1,25
416,312,118368,6,0,L|380:312,1,25
416,312,118474,2,0,L|380:312,1,25
416,312,118579,2,0,L|380:312,1,25
416,312,118685,2,0,L|380:312,1,25
468,232,118791,2,0,L|468:116,1,100
228,60,119213,6,0,P|296:76|344:56,1,100
88,152,119636,2,0,P|156:136|204:156,1,100
272,188,120058,2,0,P|340:204|388:184,1,100
132,280,120481,2,0,P|200:264|248:284,1,100
227,271,120904,6,0,L|228:160,1,100
227,171,121326,2,0,L|336:172,1,100
327,171,121749,2,0,P|324:104|348:56,1,100
335,75,122171,2,0,P|338:142|314:190,1,100
404,236,122594,5,0,0:0:0:0:
404,236,122805,1,0,0:0:0:0:
404,236,123016,1,0,0:0:0:0:
404,236,123227,1,0,0:0:0:0:
296,324,123439,1,0,0:0:0:0:
296,324,123650,1,0,0:0:0:0:
260,128,123861,1,0,0:0:0:0:
260,128,124073,1,0,0:0:0:0:
172,212,124284,5,0,0:0:0:0:
172,212,124495,1,0,0:0:0:0:
172,212,124706,1,0,0:0:0:0:
172,212,124918,1,0,0:0:0:0:
292,212,125129,5,0,0:0:0:0:
316,212,125234,1,0,0:0:0:0:
341,212,125340,1,0,0:0:0:0:
366,213,125445,1,0,0:0:0:0:
391,213,125551,5,0,0:0:0:0:
416,214,125657,1,0,0:0:0:0:
441,214,125762,1,0,0:0:0:0:
466,215,125868,1,0,0:0:0:0:
492,216,125974,6,0,L|492:104,1,100
420,20,126396,2,0,L|420:128,1,100
348,216,126819,2,0,L|348:104,1,100
276,20,127241,2,0,L|276:128,1,100
168,172,127664,2,0,P|112:172|72:200,1,100
176,260,128087,2,0,P|232:260|272:288,1,100
376,172,128509,2,0,P|320:172|280:200,1,100
384,260,128932,2,0,P|440:260|480:288,1,100
476,164,129354,5,0,0:0:0:0:
476,164,129565,1,0,0:0:0:0:
476,164,129777,1,0,0:0:0:0:
476,164,129988,1,0,0:0:0:0:
476,60,130199,1,0,0:0:0:0:
476,60,130411,1,0,0:0:0:0:
364,212,130622,1,0,0:0:0:0:
364,212,130833,1,0,0:0:0:0:
316,28,131044,5,0,0:0:0:0:
316,28,131256,1,0,0:0:0:0:
316,28,131467,1,0,0:0:0:0:
316,28,131678,1,0,0:0:0:0:
316,28,131889,1,0,0:0:0:0:
316,28,132101,1,0,0:0:0:0:
316,28,132312,1,0,0:0:0:0:
316,28,132523,1,0,0:0:0:0:
20,168,132734,6,0,L|20:280,1,100
92,364,133156,2,0,L|92:256,1,100
164,168,133579,2,0,L|164:280,1,100
236,364,134001,2,0,L|236:256,1,100
344,212,134424,2,0,P|400:212|440:184,1,100
336,124,134847,2,0,P|280:124|240:96,1,100
136,212,135269,2,0,P|192:212|232:184,1,100
128,124,135692,2,0,P|72:124|32:96,1,100
36,220,136114,5,0,0:0:0:0:
36,220,136325,1,0,0:0:0:0:
36,220,136537,1,0,0:0:0:0:
36,220,136748,1,0,0:0:0:0:
36,324,136959,1,0,0:0:0:0:
36,324,137171,1,0,0:0:0:0:
148,172,137382,1,0,0:0:0:0:
148,172,137593,1,0,0:0:0:0:
196,356,137804,5,0,0:0:0:0:
196,356,138016,1,0,0:0:0:0:
196,356,138227,1,0,0:0:0:0:
196,356,138438,1,0,0:0:0:0:
196,356,138649,1,0,0:0:0:0:
252,300,138861,1,0,0:0:0:0:
356,192,139073,1,0,0:0:0:0:
480,76,139284,1,0,0:0:0:0:
480,76,139495,6,0,L|480:124,1,25
480,76,139601,2,0,L|480:124,1,25
480,76,139706,2,0,L|480:124,1,25
480,76,139812,2,0,L|480:124,1,25
480,76,139918,2,0,L|480:124,1,25
480,76,140023,2,0,L|480:124,1,25
480,76,140129,2,0,L|480:124,1,25
480,76,140234,2,0,L|480:124,1,25
480,76,140340,6,0,L|480:124,1,25
480,76,140446,2,0,L|480:124,1,25
480,76,140551,2,0,L|480:124,1,25
480,76,140657,2,0,L|480:124,1,25
480,76,140763,2,0,L|480:124,1,25
480,76,140868,2,0,L|480:124,1,25
480,76,140974,2,0,L|480:124,1,25
480,76,141080,2,0,L|480:124,1,25
480,184,141185,6,0,L|480:316,1,100
396,124,141608,2,0,L|396:236,1,100
228,284,142030,2,0,L|228:384,1,100
312,224,142453,2,0,L|312:324,1,100
172,212,142876,2,0,L|144:212,1,25
172,212,142981,2,0,L|144:212,1,25
172,212,143087,2,0,L|144:212,1,25
172,212,143193,2,0,L|144:212,1,25
172,212,143298,2,0,L|144:212,1,25
172,212,143404,2,0,L|144:212,1,25
172,212,143509,2,0,L|144:212,1,25
172,212,143615,2,0,L|144:212,1,25
172,212,143721,6,0,L|144:212,1,25
172,212,143826,2,0,L|144:212,1,25
172,212,143932,2,0,L|144:212,1,25
172,212,144037,2,0,L|144:212,1,25
172,212,144143,2,0,L|144:212,1,25
172,212,144249,2,0,L|144:212,1,25
172,212,144354,2,0,L|144:212,1,25
172,212,144460,2,0,L|144:212,1,25
144,132,144565,6,0,L|28:132,1,100
144,132,144988,2,0,L|40:132,1,100
144,132,145411,2,0,L|40:132,1,100
364,132,145833,1,0,0:0:0:0:
480,76,146256,6,0,L|480:124,1,25
480,76,146362,2,0,L|480:124,1,25
480,76,146467,2,0,L|480:124,1,25
480,76,146573,2,0,L|480:124,1,25
480,76,146679,2,0,L|480:124,1,25
480,76,146784,2,0,L|480:124,1,25
480,76,146890,2,0,L|480:124,1,25
480,76,146995,2,0,L|480:124,1,25
480,76,147101,6,0,L|480:124,1,25
480,76,147207,2,0,L|480:124,1,25
480,76,147312,2,0,L|480:124,1,25
480,76,147418,2,0,L|480:124,1,25
480,76,147524,2,0,L|480:124,1,25
480,76,147629,2,0,L|480:124,1,25
480,76,147735,2,0,L|480:124,1,25
480,76,147841,2,0,L|480:124,1,25
480,184,147946,6,0,L|476:316,1,100
396,124,148369,2,0,L|400:236,1,100
204,152,148791,2,0,L|208:252,1,100
288,92,149214,2,0,L|284:192,1,100
148,80,149637,6,0,L|120:80,1,25
148,80,149742,2,0,L|120:80,1,25
148,80,149848,2,0,L|120:80,1,25
148,80,149954,2,0,L|120:80,1,25
148,80,150059,2,0,L|120:80,1,25
148,80,150165,2,0,L|120:80,1,25
148,80,150270,2,0,L|120:80,1,25
148,80,150376,2,0,L|120:80,1,25
148,80,150482,6,0,L|120:80,1,25
148,80,150587,2,0,L|120:80,1,25
148,80,150693,2,0,L|120:80,1,25
148,80,150798,2,0,L|120:80,1,25
148,80,150904,2,0,L|120:80,1,25
148,80,151010,2,0,L|120:80,1,25
148,80,151115,2,0,L|120:80,1,25
148,80,151221,2,0,L|120:80,1,25
120,0,151326,6,0,L|4:0,1,100
120,0,151749,2,0,L|16:0,1,100
120,0,152172,2,0,L|16:0,1,100
120,0,152594,2,0,L|16:0,1,100
32,180,153016,6,0,P|120:144|32:288,1,450.000017166138
292,264,153861,2,0,P|372:268|412:328,1,150.000005722046
260,132,154284,2,0,P|180:128|140:68,1,150.000005722046
440,116,154706,6,0,B|444:312|444:312|404:208|404:208|248:208,1,450.000017166138
24,340,155551,2,0,L|196:340,1,150.000005722046
292,96,155974,2,0,L|136:92,1,150.000005722046
348,268,156396,6,0,B|280:208|280:208|224:240|224:240|104:152|104:152|100:264|100:264|136:292,1,450.000017166138
284,64,157242,2,0,P|336:108|400:68,1,150.000005722046
404,236,157664,2,0,P|352:192|288:232,1,150.000005722046
68,184,158087,5,0,0:0:0:0:
68,280,158192,1,0,0:0:0:0:
0,128,158298,1,0,0:0:0:0:
136,128,158404,1,0,0:0:0:0:
192,188,158509,1,0,0:0:0:0:
208,108,158615,1,0,0:0:0:0:
264,168,158720,1,0,0:0:0:0:
280,88,158826,1,0,0:0:0:0:
336,148,158932,2,0,L|336:304,1,150.000005722046
488,356,159354,2,0,L|488:200,1,150.000005722046
220,36,159777,6,0,B|356:52|356:52|224:104|224:104|132:64|132:64|132:148,1,450.000017166138
324,304,160622,2,0,B|248:248|248:248|196:288,1,150.000005722046
384,100,161044,2,0,B|460:156|460:156|512:116,1,150.000005722046
84,172,161467,6,0,B|88:344|88:344|128:216|128:216|176:160|176:160|256:160,1,450.000017166138
488,364,162312,2,0,L|332:364,1,150.000005722046
208,76,162734,2,0,L|368:76,1,150.000005722046
440,220,163157,6,0,B|364:224|352:308|184:312|184:312|184:128,1,450.000017166138
88,276,164002,2,0,P|96:184|64:120,1,150.000005722046
404,156,164425,2,0,P|396:248|428:312,1,150.000005722046
272,72,164847,5,0,0:0:0:0:
272,156,164953,1,0,0:0:0:0:
340,112,165058,1,0,0:0:0:0:
340,196,165164,1,0,0:0:0:0:
408,148,165270,1,0,0:0:0:0:
408,232,165376,1,0,0:0:0:0:
476,188,165481,1,0,0:0:0:0:
476,272,165587,1,0,0:0:0:0:
476,356,165692,2,0,L|284:356,1,150.000005722046
180,276,166115,2,0,L|340:276,1,150.000005722046
164,100,166537,6,0,B|112:160|112:160|232:112|348:172|348:172|204:184,1,450.000017166138
424,48,167382,2,0,L|428:204,1,150.000005722046
120,324,167805,2,0,L|280:328,1,150.000005722046
100,44,168227,6,0,B|56:124|56:124|152:16|152:16|228:16|228:16|272:76|360:52,1,450.000017166138
60,212,169073,2,0,P|164:216|216:264,1,150.000005722046
500,108,169495,2,0,B|432:168|432:168|460:240,1,150.000005722046
324,268,169918,6,0,B|324:96|324:96|184:128|184:128|316:204,1,450.000017166138
440,332,170763,2,0,L|272:344,1,150.000005722046
52,220,171185,2,0,L|212:232,1,150.000005722046
136,68,171608,5,0,0:0:0:0:
228,76,171713,1,0,0:0:0:0:
160,144,171819,1,0,0:0:0:0:
252,152,171924,1,0,0:0:0:0:
188,224,172030,1,0,0:0:0:0:
280,232,172135,1,0,0:0:0:0:
212,300,172241,1,0,0:0:0:0:
304,308,172346,1,0,0:0:0:0:
408,316,172453,5,0,0:0:0:0:
408,292,172558,1,0,0:0:0:0:
432,292,172664,1,0,0:0:0:0:
432,316,172770,1,0,0:0:0:0:
408,316,172875,5,0,0:0:0:0:
408,292,172980,1,0,0:0:0:0:
432,292,173086,1,0,0:0:0:0:
432,316,173192,1,0,0:0:0:0:
436,96,173298,6,0,B|440:192|440:192|384:156|384:156|316:156|316:156|316:240|316:240|276:196|276:196|200:196,1,450.000017166138
84,40,174143,2,0,P|184:32|240:64,1,150.000005722046
480,288,174565,2,0,P|380:296|324:264,1,150.000005722046
72,332,174988,6,0,B|36:256|128:160|128:160|124:272|124:272|176:212|260:208,1,450.000017166138
216,32,175833,2,0,L|372:32,1,150.000005722046
440,260,176256,2,0,B|440:168|440:168|376:168,1,150.000005722046
496,380,176678,6,0,B|364:320|260:376|260:376|256:264|128:228,1,450.000017166138
292,48,177523,2,0,P|232:104|248:204,1,150.000005722046
392,152,177946,2,0,P|452:208|436:308,1,150.000005722046
292,252,178368,5,0,0:0:0:0:
296,140,178474,1,0,0:0:0:0:
268,248,178580,1,0,0:0:0:0:
272,136,178685,1,0,0:0:0:0:
184,208,178791,1,0,0:0:0:0:
188,96,178897,1,0,0:0:0:0:
160,204,179003,1,0,0:0:0:0:
164,92,179108,1,0,0:0:0:0:
268,248,179213,2,0,B|268:356|268:356|248:312,1,150.000005722046
76,176,179636,2,0,P|40:112|80:48,1,150.000005722046
448,72,180058,6,0,B|380:144|380:144|424:268|424:268|352:220|280:256|280:256|276:188,1,450.000017166138
392,12,180904,2,0,L|232:12,1,150.000005722046
32,248,181326,2,0,L|188:244,1,150.000005722046
80,76,181749,6,0,B|112:148|112:148|168:104|168:104|224:168|224:168|304:128|372:152|396:244,1,450.000017166138
232,312,182594,2,0,B|296:252|296:252|368:312,1,150.000005722046
292,44,183016,2,0,P|380:60|444:32,1,150.000005722046
136,72,183439,6,0,P|228:92|76:136,1,450.000017166138
368,228,184284,2,0,L|368:384,1,150.000005722046
464,96,184706,2,0,L|308:96,1,150.000005722046
156,152,185129,5,0,0:0:0:0:
156,248,185234,1,0,0:0:0:0:
252,248,185340,1,0,0:0:0:0:
156,248,185445,1,0,0:0:0:0:
156,344,185551,1,0,0:0:0:0:
156,248,185656,1,0,0:0:0:0:
60,248,185762,1,0,0:0:0:0:
156,248,185867,1,0,0:0:0:0:
252,248,185974,5,0,0:0:0:0:
348,248,186080,1,0,0:0:0:0:
348,152,186185,1,0,0:0:0:0:
348,248,186291,1,0,0:0:0:0:
444,248,186396,1,0,0:0:0:0:
444,152,186502,1,0,0:0:0:0:
444,56,186608,1,0,0:0:0:0:
348,56,186713,1,0,0:0:0:0:
252,52,186819,6,0,P|168:48|264:256,1,450.000017166138
392,136,187664,2,0,P|300:136|248:188,1,150.000005722046
448,220,188087,2,0,P|472:124|448:52,1,150.000005722046
176,64,188509,6,0,B|164:176|164:176|128:112|128:112|160:248|160:248|108:200|108:200|80:252,1,450.000017166138
360,316,189354,2,0,P|280:296|216:336,1,150.000005722046
384,88,189777,2,0,L|384:244,1,150.000005722046
112,324,190199,6,0,B|56:264|56:264|228:224|228:224|224:104|128:56,1,450.000017166138
424,28,191044,2,0,B|320:40|320:40|304:96,1,150.000005722046
392,356,191467,2,0,B|392:240|392:240|372:280,1,150.000005722046
200,292,191889,5,0,0:0:0:0:
200,292,192101,1,0,0:0:0:0:
200,292,192312,1,0,0:0:0:0:
200,292,192523,1,0,0:0:0:0:
200,292,192734,1,0,0:0:0:0:
200,292,192946,1,0,0:0:0:0:
200,292,193157,1,0,0:0:0:0:
200,292,193368,1,0,0:0:0:0:
200,292,193580,6,0,L|200:192,1,100
280,104,194425,2,0,L|280:208,1,100
200,292,195270,2,0,L|200:192,1,100
280,104,196115,2,0,L|280:208,1,100
256,192,196643,12,0,198650,0:0:0:0:
