osu file format v14

[General]
AudioFilename: wind.mp3
AudioLeadIn: 0
PreviewTime: 34709
Countdown: 0
SampleSet: Soft
StackLeniency: 0.7
Mode: 0
LetterboxInBreaks: 0
WidescreenStoryboard: 1

[Editor]
Bookmarks: 17235,36072,52816,75839,94676,111420,128164,139676,153249,169993,186737,203481,220226,225109,232784
DistanceSpacing: 3
BeatDivisor: 12
GridSize: 16
TimelineZoom: 1.45

[Metadata]
Title:Baramui Norae
TitleUnicode:바람의 노래
Artist:Jo Sung Mo
ArtistUnicode:조성모
Creator:Natsu
Version:Euny & Natsu's Heaven
Source:바람의 화원
Tags:The Song Of The Wind The Painter of the Wind 아프로 뮤직 Apro Music Euny
BeatmapID:1103933
BeatmapSetID:519665

[Difficulty]
HPDrainRate:6
CircleSize:4
OverallDifficulty:6
ApproachRate:8.5
SliderMultiplier:2.4
SliderTickRate:1

[Events]
//Background and Video events
0,0,"1.jpg",0,0
//Break Periods
2,128364,139001
//Storyboard Layer 0 (Background)
//Storyboard Layer 1 (Fail)
//Storyboard Layer 2 (Pass)
//Storyboard Layer 3 (Foreground)
//Storyboard Sound Samples

[TimingPoints]
510,1046.51771231228,4,2,34,20,1,0
597,-100,4,2,99,5,0,0
1033,-100,4,2,99,5,0,0
1207,-100,4,2,99,15,0,0
1294,-100,4,2,99,5,0,0
1556,-100,4,2,34,18,0,0
1643,-100,4,2,99,5,0,0
2341,-100,4,2,99,5,0,0
2603,-100,4,2,34,20,0,0
2690,-100,4,2,99,5,0,0
3649,-100,4,2,75,23,0,0
3823,-100,4,2,95,23,0,0
3998,-100,4,2,25,23,0,0
4172,-100,4,2,35,23,0,0
4347,-100,4,2,25,23,0,0
4521,-100,4,2,75,23,0,0
4696,-100,4,2,45,18,0,0
4783,-100,4,2,99,5,0,0
5393,-100,4,2,99,18,0,0
5480,-100,4,2,99,5,0,0
5742,-100,4,2,34,25,0,0
5829,-100,4,2,99,5,0,0
6789,-100,4,2,94,23,0,0
6876,-100,4,2,99,23,0,0
7661,-100,4,2,99,5,0,0
7835,-100,4,2,25,23,0,0
8184,-100,4,2,75,15,0,0
8533,-100,4,2,25,23,0,0
8882,-100,4,2,95,30,0,0
8969,-100,4,2,99,5,0,0
9230,-100,4,2,99,30,0,0
9318,-100,4,2,99,5,0,0
9579,-100,4,2,99,30,0,0
9928,-100,4,2,26,30,0,0
10451,-100,4,2,26,30,0,0
10539,-100,4,2,99,5,0,0
10800,-100,4,2,25,30,0,0
12021,-100,4,2,34,30,0,0
12108,-100,4,2,99,5,0,0
13068,-100,4,2,24,30,0,0
13155,-100,4,2,99,5,0,0
14114,-100,4,2,24,30,0,0
14201,-100,4,2,99,5,0,0
14463,-100,4,2,99,30,0,0
14550,-100,4,2,99,5,0,0
14812,-100,4,2,99,30,0,0
15161,-100,4,2,24,20,0,0
15248,-100,4,2,99,5,0,0
16207,1028.57730615604,4,2,99,20,1,0
16549,-100,4,2,99,25,0,0
16892,-100,4,2,99,30,0,0
17235,1046.51771231228,4,2,99,40,1,0
20025,-100,4,2,74,20,0,0
20374,-100,4,2,75,33,0,0
20548,-100,4,2,95,33,0,0
20723,-100,4,2,25,33,0,0
20897,-100,4,2,35,33,0,0
21072,-100,4,2,25,33,0,0
21246,-100,4,2,75,33,0,0
21421,-100,4,2,45,35,0,0
21508,-100,4,2,99,40,0,0
29880,-100,4,2,99,40,0,0
31886,-100,4,2,99,45,0,0
32932,-83.3333333333333,4,2,99,48,0,0
33979,-83.3333333333333,4,2,99,50,0,0
35025,-62.5,4,2,99,40,0,0
35374,-71.4285714285714,4,2,99,45,0,0
35723,-83.3333333333333,4,2,99,50,0,0
36072,1046.51771231228,4,2,99,70,1,1
36072,-55.5555555555556,4,2,99,70,0,1
36159,-55.5555555555556,4,2,99,60,0,0
52816,-55.5555555555556,4,2,99,70,0,1
52903,-55.5555555555556,4,2,99,60,0,0
71304,-55.5555555555556,4,2,99,40,0,0
71479,-55.5555555555556,4,2,99,60,0,0
73746,-100,4,2,99,40,0,0
75839,1046.51771231228,4,2,99,40,1,0
91536,-83.3333333333333,4,2,99,40,0,0
93629,-62.5,4,2,99,40,0,0
93977,-71.4285714285714,4,2,99,40,0,0
94327,-83.3333333333333,4,2,99,40,0,0
94676,1046.51771231228,4,2,99,70,1,1
94676,-55.5555555555556,4,2,99,70,0,1
94763,-55.5555555555556,4,2,99,60,0,0
111420,-55.5555555555556,4,2,99,70,0,1
111507,-55.5555555555556,4,2,99,60,0,0
127118,-100,4,2,99,40,0,0
139676,-71.4285714285714,4,2,99,40,0,0
153249,1046.51771231228,4,2,99,70,1,1
153249,-55.5555555555556,4,2,99,70,0,1
153336,-55.5555555555556,4,2,99,60,0,0
169993,-55.5555555555556,4,2,99,70,0,1
170080,-55.5555555555556,4,2,99,60,0,0
186737,-55.5555555555556,4,2,99,70,0,1
186824,-55.5555555555556,4,2,99,60,0,0
203481,-55.5555555555556,4,2,99,70,0,1
203569,-55.5555555555556,4,2,99,60,0,0
220226,-50,4,2,99,70,0,0
220749,-50,4,2,99,60,0,0
221970,-83.3333333333333,4,2,99,30,0,0
222842,-83.3333333333333,4,2,99,20,0,0
224412,-83.3333333333333,4,2,99,15,0,0
226505,-83.3333333333333,4,2,99,10,0,0
228598,-83.3333333333333,4,2,99,5,0,0

[Colours]
Combo1 : 192,196,70
Combo2 : 190,58,44
Combo3 : 74,100,166
SliderBorder : 255,255,255
SliderTrackOverride : 94,64,55

[HitObjects]
26,18,510,6,0,P|2:71|22:126,1,120,8|0,0:0|0:0,0:0:0:0:
101,215,1207,2,0,L|147:199,1,40
237,134,1556,6,0,P|257:195|199:275,1,160,8|0,0:0|0:0,0:0:0:0:
4,377,2603,2,0,L|105:324,1,100,8|0,0:0|0:0,0:0:0:0:
458,145,3649,5,2,0:0:0:0:
361,215,3823,1,2,0:0:0:0:
396,105,3998,1,8,0:0:0:0:
434,218,4172,1,8,0:0:0:0:
338,145,4347,1,8,0:0:0:0:
458,145,4521,1,2,0:0:0:0:
361,215,4696,6,0,P|351:251|363:297,1,80,2|0,0:0|0:0,0:0:0:0:
126,347,5393,2,0,L|76:348,1,40
27,239,5742,2,0,P|41:197|28:156,1,80,8|0,0:0|0:0,0:0:0:0:
466,33,6789,2,0,B|439:127|508:134|472:231,1,200,2|0,0:0|0:0,0:0:0:0:
392,280,7835,5,8,0:0:0:0:
152,262,8184,1,2,0:0:0:0:
314,365,8533,1,2,0:0:0:0:
1,301,8882,2,0,L|-2:204,2,80,2|0|0,0:0|0:0|0:0,0:0:0:0:
233,362,9928,5,2,0:0:0:0:
479,99,10451,2,0,L|481:196,1,80,2|2,0:0|0:0,0:0:0:0:
392,261,10975,1,2,0:0:0:0:
256,63,11324,5,0,0:0:0:0:
141,273,11672,1,0,0:0:0:0:
351,157,12021,2,0,B|437:149|437:149|414:182,1,120,8|0,0:0|0:0,0:0:0:0:
41,283,13068,6,0,P|6:193|42:124,1,180,8|0,0:0|0:0,0:0:0:0:
218,89,14114,2,0,L|328:89,2,80,8|0|0,0:0|0:0|0:0,0:0:0:0:
161,322,15161,2,0,P|256:362|344:320,1,200,8|0,0:0|0:0,0:0:0:0:
372,219,16207,6,0,L|386:259,1,40,4|0,0:3|0:0,0:0:0:0:
435,122,16549,2,0,L|418:171,1,40,8|0,0:3|0:0,0:0:0:0:
357,36,16892,2,0,L|383:86,1,40,4|0,0:3|0:0,0:0:0:0:
236,76,17235,6,0,B|273:51|273:51|221:57|221:57|177:46|177:46|161:63|125:70,1,200,4|0,0:0|0:0,0:0:0:0:
22,144,18281,2,0,P|56:96|3:75,1,120,8|0,0:0|0:0,0:0:0:0:
93,202,18979,1,0,0:0:0:0:
86,211,19328,6,0,B|95:295|84:344|84:344|111:317,1,160,2|2,0:0|0:0,0:0:0:0:
236,50,20374,5,2,0:0:0:0:
323,90,20548,1,2,0:0:0:0:
171,175,20723,5,8,0:0:0:0:
251,135,20897,1,8,0:0:0:0:
312,253,21072,5,8,0:0:0:0:
237,219,21246,1,2,0:0:0:0:
390,296,21421,6,0,B|414:241|373:166|373:166|352:198,1,160,2|0,0:0|0:0,0:0:0:0:
311,297,22293,1,0,0:0:0:0:
455,350,22467,6,0,P|478:298|480:229,1,120,8|0,0:0|0:0,0:0:0:0:
402,150,23165,2,0,L|454:156,1,40
286,116,23514,6,0,L|247:126,1,40,2|0,0:0|0:0,0:0:0:0:
311,32,23862,2,0,L|271:36,1,40
132,87,24211,5,0,0:0:0:0:
132,87,24386,1,0,0:0:0:0:
113,213,24560,1,8,0:0:0:0:
232,165,24735,1,0,0:0:0:0:
117,94,24909,5,0,0:0:0:0:
127,221,25083,1,0,0:0:0:0:
233,148,25258,2,0,P|252:165|262:189,1,40,2|0,0:0|0:0,0:0:0:0:
254,345,25607,6,0,P|247:327|244:307,1,40,2|0,0:0|0:0,0:0:0:0:
244,137,25955,2,0,P|251:155|254:175,1,40
150,272,26304,1,0,0:0:0:0:
450,288,26653,6,0,P|448:248|413:197,1,100,8|0,0:0|0:0,0:0:0:0:
388,201,27176,2,0,P|427:194|462:175,1,80
501,57,27700,6,0,B|455:78|390:41|390:41|353:57|353:57|401:86,1,200,2|0,0:0|0:0,0:0:0:0:
394,200,28746,5,8,0:0:0:0:
394,200,28921,2,0,L|319:207,1,60
289,186,29269,2,0,L|312:269,1,80
172,217,29793,6,0,P|141:254|94:271,1,100,2|0,0:0|0:0,0:0:0:0:
46,256,30316,2,0,L|52:345,1,80
101,154,30839,2,0,L|98:200,1,40,8|0,0:0|0:0,0:0:0:0:
152,79,31188,2,0,L|174:123,1,40
229,8,31537,2,0,L|223:60,1,40
364,85,31886,6,0,B|413:79|446:109|446:109|467:85|502:77|502:77|454:61,1,200,4|0,0:1|0:0,0:0:0:0:
379,173,32932,6,0,L|386:235,1,47.9999985351563,8|0,0:0|0:0,0:0:0:0:
300,143,33281,1,0,0:0:0:0:
454,130,33456,1,0,0:0:0:0:
297,171,33630,1,0,0:0:0:0:
451,109,33804,1,0,0:0:0:0:
227,189,33979,6,0,P|210:147|238:86,1,95.9999970703126,4|0,0:0|0:0,0:0:0:0:
289,250,34502,2,0,P|265:268|240:273,2,47.9999985351563
165,173,35025,6,0,L|231:190,1,64,4|0,0:3|0:0,0:0:0:0:
100,237,35374,6,0,L|165:256,1,55.9999982910157,8|0,0:3|0:0,0:0:0:0:
34,297,35723,6,0,L|96:316,1,47.9999985351563,4|0,0:3|0:0,0:0:0:0:
220,357,36072,6,0,P|259:348|292:355,1,71.9999978027344,4|0,0:1|0:0,0:0:0:0:
432,373,36420,2,0,B|377:266|482:265|429:168,1,215.999993408203
324,191,37118,6,0,P|259:218|193:194,1,143.999995605469,8|0,0:0|0:0,0:0:0:0:
38,70,37816,2,0,P|71:60|106:66,1,71.9999978027344
236,152,38165,6,0,B|258:202|264:258|232:269|193:229|227:225,1,143.999995605469,2|0,0:0|0:0,0:0:0:0:
349,274,38688,2,0,P|416:296|482:272,1,143.999995605469
498,148,39211,2,0,P|487:111|499:58,1,71.9999978027344,8|0,0:0|0:0,0:0:0:0:
375,39,39560,1,0,0:0:0:0:
375,39,39734,2,0,L|339:109,1,71.9999978027344
238,289,40258,6,0,P|272:281|306:293,1,71.9999978027344,2|0,0:0|0:0,0:0:0:0:
161,292,40606,2,0,P|164:256|186:228,1,71.9999978027344
156,371,40955,2,0,P|121:361|97:334,1,71.9999978027344
86,153,41304,6,0,P|93:187|81:221,1,71.9999978027344,8|0,0:0|0:0,0:0:0:0:
83,76,41653,2,0,P|118:79|146:101,1,71.9999978027344
4,71,42001,2,0,P|13:36|40:12,1,71.9999978027344
146,101,42351,6,0,B|159:188|216:196|280:189|311:166|323:103|311:49|260:25|192:52|181:102|263:131,1,359.999989013672,2|0,0:0|0:0,0:0:0:0:
256,251,43397,1,8,0:0:0:0:
268,263,43746,2,0,B|268:380|268:380|305:320,1,143.999995605469
408,150,44444,5,6,0:0:0:0:
349,253,44618,1,0,0:0:0:0:
236,119,44792,1,0,0:0:0:0:
339,178,44966,1,0,0:0:0:0:
345,46,45141,2,0,P|322:73|312:108,1,71.9999978027344
420,228,45490,2,0,P|411:296|350:329,2,143.999995605469,8|0|0,0:0|0:0|0:0,0:0:0:0:
312,108,46362,5,0,0:0:0:0:
349,251,46537,1,2,0:0:0:0:
214,184,46711,1,0,0:0:0:0:
349,251,46886,1,0,0:0:0:0:
218,308,47060,1,0,0:0:0:0:
400,314,47234,2,0,P|431:251|402:187,1,143.999995605469,0|8,0:0|0:0,0:0:0:0:
145,175,47932,6,0,P|178:187|213:183,1,71.9999978027344
343,135,48281,2,0,P|309:122|274:126,1,71.9999978027344
145,175,48630,2,0,B|195:296|159:366|105:373|68:342|61:298|85:279|114:277|140:296,1,287.999991210938,4|0,0:1|0:0,0:0:0:0:
345,348,49676,5,8,0:0:0:0:
274,168,50025,1,8,0:3:0:0:
117,286,50374,1,8,0:3:0:0:
323,226,50723,2,0,P|339:128|244:99,1,215.999993408203,4|0,0:0|0:0,0:0:0:0:
151,224,51420,6,0,P|140:257|149:292,1,71.9999978027344
267,353,51769,2,0,L|344:352,1,71.9999978027344,8|0,0:0|0:0,0:0:0:0:
317,263,52118,2,0,L|396:263,1,71.9999978027344,4|0,0:3|0:0,0:0:0:0:
376,172,52467,2,0,L|457:172,1,71.9999978027344,8|0,0:3|0:0,0:0:0:0:
272,143,52816,6,0,B|288:88|351:67|351:67|241:73|241:73|208:53|173:49|173:49|131:73|99:80,1,359.999989013672,4|0,0:1|0:0,0:0:0:0:
5,10,53862,6,0,B|4:43|4:43|34:93|34:93|9:129|15:175|15:175|0:137,1,215.999993408203,8|0,0:0|0:0,0:0:0:0:
173,159,54560,2,0,L|86:149,1,71.9999978027344
188,262,54909,6,0,P|217:315|157:323,1,143.999995605469,2|0,0:0|0:0,0:0:0:0:
203,233,55432,2,0,L|398:277,1,179.999994506836
419,294,55955,6,0,B|406:243|406:243|408:204|408:204|393:145,2,143.999995605469,8|0|0,0:0|0:0|0:0,0:0:0:0:
510,41,57002,6,0,P|451:79|363:61,1,143.999995605469,2|0,0:0|0:0,0:0:0:0:
203,38,57525,2,0,L|349:4,1,143.999995605469
155,115,58048,6,0,L|231:118,1,71.9999978027344,8|0,0:0|0:0,0:0:0:0:
116,208,58397,2,0,L|197:194,1,71.9999978027344
42,264,58746,2,0,L|113:291,1,71.9999978027344
271,344,59095,6,0,P|211:298|280:268,1,179.999994506836,2|0,0:0|0:0,0:0:0:0:
320,281,59618,2,0,B|325:248|312:220|312:220|325:192|325:192|316:161|316:161|328:127|315:97,1,179.999994506836
287,79,60141,1,8,0:0:0:0:
296,73,60490,6,0,L|382:83,1,71.9999978027344
189,32,60839,2,0,L|270:0,1,71.9999978027344
123,92,61188,6,0,P|150:115|185:125,1,71.9999978027344,6|0,0:0|0:0,0:0:0:0:
49,21,61537,1,0,0:0:0:0:
49,21,61711,2,0,L|57:208,1,179.999994506836
66,243,62234,1,8,0:0:0:0:
76,247,62583,5,0,0:0:0:0:
210,220,62758,1,0,0:0:0:0:
24,320,62932,1,0,0:0:0:0:
30,326,63281,6,0,P|64:336|99:332,1,71.9999978027344,2|0,0:0|0:0,0:0:0:0:
82,163,63630,1,0,0:0:0:0:
142,259,63804,1,0,0:0:0:0:
136,88,63979,2,0,P|159:115|172:148,1,71.9999978027344
46,82,64327,1,8,0:0:0:0:
41,75,64676,6,0,P|50:40|72:12,1,71.9999978027344
222,100,65025,2,0,P|212:134|190:162,1,71.9999978027344
142,259,65374,6,0,P|180:242|225:238,1,71.9999978027344,4|0,0:1|0:0,0:0:0:0:
303,333,65723,2,0,P|267:326|235:311,1,71.9999978027344
199,128,66072,2,0,P|250:116|275:70,1,107.999996704102
274,34,66421,6,0,L|423:70,1,143.999995605469,8|0,0:0|0:0,0:0:0:0:
428,99,66857,2,0,L|353:126,1,71.9999978027344
370,156,67118,2,0,P|388:186|391:222,1,71.9999978027344
189,317,67467,6,0,P|241:307|294:316,1,107.999996704102,4|0,0:0|0:0,0:0:0:0:
329,346,67816,1,0,0:0:0:0:
241,24,68165,2,0,L|167:53,1,71.9999978027344
40,120,68514,6,0,P|95:152|156:135,1,107.999996704102,8|0,0:0|0:0,0:0:0:0:
176,127,68862,2,0,L|167:205,1,71.9999978027344
215,49,69211,2,0,L|263:113,1,71.9999978027344
176,127,69560,5,4,0:1:0:0:
110,54,69734,1,0,0:0:0:0:
110,54,69909,1,8,0:3:0:0:
183,213,70083,5,2,0:0:0:0:
239,65,70258,1,0,0:0:0:0:
239,65,70432,1,0,0:0:0:0:
239,278,70607,5,12,0:3:0:0:
109,175,70781,1,0,0:0:0:0:
109,175,70955,1,0,0:0:0:0:
212,359,71130,5,0,0:0:0:0:
317,186,71304,1,2,0:1:0:0:
317,186,71479,1,0,0:0:0:0:
158,242,71653,6,0,B|263:203|263:299|364:256,1,215.999993408203,2|0,0:0|0:0,0:0:0:0:
206,381,72351,6,0,P|209:346|205:310,1,71.9999978027344
77,242,72700,2,0,P|73:277|76:313,1,71.9999978027344
277,271,73048,2,0,P|280:235|276:199,1,71.9999978027344
155,136,73397,2,0,P|151:171|154:207,1,71.9999978027344
412,150,73746,6,0,P|351:94|384:178,1,240,2|0,0:0|0:0,0:0:0:0:
383,178,75490,6,0,L|376:235,1,40,2|0,0:0|0:0,0:0:0:0:
367,316,75839,6,0,L|378:217,1,100,6|0,0:0|0:0,0:0:0:0:
401,46,76536,2,0,L|394:116,1,60
357,130,76885,2,0,P|301:114|244:132,1,120,8|0,0:0|0:0,0:0:0:0:
151,272,77670,1,0,0:0:0:0:
44,143,77932,6,0,P|23:84|41:28,2,120,2|0|8,0:0|0:0|0:0,0:0:0:0:
209,216,79327,1,0,0:0:0:0:
113,84,79676,1,0,0:0:0:0:
47,230,80025,1,2,0:0:0:0:
217,290,80373,6,0,P|275:254|278:187,1,140
225,142,81071,2,0,L|324:134,2,100,8|0|0,0:0|0:0|0:0,0:0:0:0:
78,168,82118,2,0,P|33:153|76:135,1,120,2|0,0:0|0:0,0:0:0:0:
138,235,82815,5,2,0:0:0:0:
194,54,83164,1,8,0:0:0:0:
348,201,83513,1,0,0:0:0:0:
167,145,83862,1,0,0:0:0:0:
310,0,84211,1,2,0:0:0:0:
248,183,84559,6,0,L|274:105,1,80
285,254,85257,2,0,P|246:265|209:253,1,80,8|0,0:0|0:0,0:0:0:0:
142,192,85780,2,0,L|99:192,1,40
199,333,86304,1,2,0:0:0:0:
305,210,86653,6,0,P|313:172|303:133,1,80
111,167,87350,1,8,0:0:0:0:
111,167,87525,2,0,B|226:167|226:167|192:138,1,160
43,117,88397,6,0,B|10:173|50:224|50:224|20:269|20:269|39:324,1,220,2|0,0:0|0:0,0:0:0:0:
53,351,89443,1,8,0:0:0:0:
271,274,89792,1,0,0:0:0:0:
121,330,90141,1,0,0:0:0:0:
301,338,90490,6,0,P|339:294|242:209,1,220,4|0,0:1|0:0,0:0:0:0:
214,227,91536,1,8,0:0:0:0:
55,346,91885,5,0,0:0:0:0:
156,271,92060,1,0,0:0:0:0:
34,159,92234,1,0,0:0:0:0:
82,276,92409,1,0,0:0:0:0:
155,173,92583,2,0,L|181:133,1,47.9999985351563,4|0,0:0|0:0,0:0:0:0:
34,159,92932,6,0,L|1:213,1,47.9999985351563,4|0,0:3|0:0,0:0:0:0:
62,310,93280,2,0,L|94:260,1,47.9999985351563,8|0,0:3|0:0,0:0:0:0:
210,150,93629,6,0,L|203:213,1,64,4|0,0:3|0:0,0:0:0:0:
287,103,93978,6,0,L|281:158,1,55.9999982910157,8|0,0:3|0:0,0:0:0:0:
368,59,94327,6,0,L|363:107,1,47.9999985351563,4|0,0:3|0:0,0:0:0:0:
286,8,94676,6,0,B|226:14|201:63|201:63|131:54|131:54|169:38,1,215.999993408203,4|0,0:1|0:0,0:0:0:0:
287,102,95373,1,0,0:0:0:0:
293,92,95722,6,0,B|330:78|330:78|313:154|313:154|315:331|315:331|278:299|275:261,1,359.999989013672,8|0,0:0|0:0,0:0:0:0:
393,211,96769,2,0,P|453:215|501:114,1,179.999994506836,2|0,0:0|0:0,0:0:0:0:
478,83,97292,2,0,L|489:288,1,179.999994506836
492,307,97815,5,8,0:0:0:0:
337,218,98164,1,0,0:0:0:0:
189,118,98513,1,0,0:0:0:0:
39,22,98862,6,0,B|43:79|43:79|34:108|34:108|38:181,1,143.999995605469,2|0,0:0|0:0,0:0:0:0:
66,275,99385,1,0,0:0:0:0:
66,275,99559,2,0,P|137:243|179:245,1,107.999996704102
203,267,99908,6,0,L|169:184,1,71.9999978027344,8|0,0:0|0:0,0:0:0:0:
297,275,100257,2,0,L|263:192,1,71.9999978027344
389,286,100606,2,0,L|355:203,1,71.9999978027344
480,294,100955,6,0,L|384:73,1,215.999993408203,2|0,0:0|0:0,0:0:0:0:
242,110,101652,2,0,P|277:114|311:104,1,71.9999978027344
192,42,102001,2,0,P|156:37|122:47,1,71.9999978027344,8|0,0:0|0:0,0:0:0:0:
38,171,102350,1,0,0:0:0:0:
46,177,102699,1,0,0:0:0:0:
54,183,103048,6,0,L|61:276,1,71.9999978027344,4|0,0:0|0:0,0:0:0:0:
157,126,103396,1,0,0:0:0:0:
39,81,103571,1,0,0:0:0:0:
168,206,103745,6,0,P|214:180|235:132,1,107.999996704102
247,88,104094,2,0,B|205:166|289:168|249:251,1,143.999995605469,8|0,0:0|0:0,0:0:0:0:
182,334,104617,5,0,0:0:0:0:
87,275,104792,1,0,0:0:0:0:
181,212,104966,1,0,0:0:0:0:
264,384,105141,2,0,P|276:347|271:312,1,71.9999978027344,2|0,0:0|0:0,0:0:0:0:
299,208,105490,1,0,0:0:0:0:
299,208,105664,1,0,0:0:0:0:
469,304,105838,6,0,P|483:272|486:237,1,71.9999978027344
379,244,106187,1,8,0:0:0:0:
379,244,106362,1,0,0:0:0:0:
481,162,106536,2,0,L|410:148,1,71.9999978027344
421,53,106885,1,0,0:0:0:0:
421,53,107059,1,0,0:0:0:0:
280,2,107234,6,0,L|276:83,1,71.9999978027344,4|0,0:1|0:0,0:0:0:0:
403,158,107583,2,0,L|332:136,1,71.9999978027344
201,74,107931,1,0,0:0:0:0:
189,74,108280,6,0,L|185:155,1,71.9999978027344
313,230,108629,2,0,L|242:208,1,71.9999978027344
106,136,108978,1,0,0:0:0:0:
93,136,109327,6,0,L|87:351,1,215.999993408203,4|0,0:0|0:0,0:0:0:0:
249,330,110024,2,0,P|214:331|182:348,1,71.9999978027344,2|0,0:0|0:0,0:0:0:0:
319,279,110373,2,0,P|288:259|254:248,1,71.9999978027344,8|0,0:0|0:0,0:0:0:0:
406,278,110722,2,0,P|389:238|365:208,1,71.9999978027344,4|0,0:3|0:0,0:0:0:0:
465,340,111071,2,0,P|481:308|486:273,1,71.9999978027344,8|0,0:3|0:0,0:0:0:0:
425,113,111420,5,4,0:1:0:0:
425,113,111594,2,0,P|360:138|287:113,2,143.999995605469
496,19,112466,1,8,0:0:0:0:
492,239,112815,1,0,0:0:0:0:
496,93,113164,1,0,0:0:0:0:
418,278,113513,6,0,B|411:307|360:340|294:333|228:327|204:288|177:192|339:166|349:250|289:265,1,359.999989013672,2|0,0:0|0:0,0:0:0:0:
176,308,114559,2,0,P|168:238|205:178,2,143.999995605469,8|0|0,0:0|0:0|0:0,0:0:0:0:
350,371,115606,6,0,B|501:371|501:371|446:335,1,215.999993408203,2|0,0:0|0:0,0:0:0:0:
338,267,116304,1,0,0:0:0:0:
328,257,116652,2,0,P|317:224|322:189,1,71.9999978027344,8|0,0:0|0:0,0:0:0:0:
443,107,117001,2,0,L|383:146,1,71.9999978027344
268,296,117350,2,0,L|328:257,1,71.9999978027344
241,372,117699,6,0,P|202:344|203:251,2,143.999995605469,2|0|0,0:0|0:0|0:0,0:0:0:0:
38,290,118745,1,8,0:0:0:0:
49,292,119094,6,0,L|134:274,1,71.9999978027344
270,239,119443,2,0,L|185:257,1,71.9999978027344
327,291,119792,5,4,0:0:0:0:
270,164,119966,1,0,0:0:0:0:
397,182,120141,1,0,0:0:0:0:
270,239,120315,1,0,0:0:0:0:
381,75,120490,2,0,L|397:182,1,107.999996704102
347,236,120838,2,0,P|412:256|465:211,2,143.999995605469,8|0|0,0:0|0:0|0:0,0:0:0:0:
257,114,121711,5,0,0:0:0:0:
130,145,121885,1,2,0:0:0:0:
220,239,122059,1,0,0:0:0:0:
232,96,122234,1,0,0:0:0:0:
127,174,122408,1,0,0:0:0:0:
247,226,122583,2,0,P|315:244|379:216,1,143.999995605469,0|8,0:0|0:0,0:0:0:0:
491,29,123280,6,0,P|496:64|486:98,1,71.9999978027344
379,216,123629,2,0,P|373:180|383:146,1,71.9999978027344
493,289,123978,6,0,L|409:306,1,71.9999978027344,4|0,0:1|0:0,0:0:0:0:
322,373,124327,2,0,L|265:308,1,71.9999978027344
153,303,124676,2,0,L|180:221,1,71.9999978027344
208,60,125025,6,0,P|219:116|256:72,1,143.999995605469,8|0,0:0|0:0,0:0:0:0:
123,15,125548,1,0,0:0:0:0:
149,159,125722,2,0,P|176:182|210:191,1,71.9999978027344
375,146,126071,5,4,0:0:0:0:
296,253,126245,1,0,0:0:0:0:
433,259,126420,2,0,P|405:235|371:226,1,71.9999978027344
233,318,126769,1,0,0:0:0:0:
367,303,126943,1,0,0:0:0:0:
176,363,127118,6,0,P|190:258|295:281,1,240,2|0,0:0|0:0,0:0:0:0:
82,47,139676,6,0,P|52:123|86:197,1,167.999994873047,4|0,0:3|0:0,0:0:0:0:
263,218,140373,2,0,L|348:211,1,83.9999974365235
389,221,140722,2,0,P|376:274|401:323,1,111.999996582031,4|0,0:0|0:0,0:0:0:0:
372,355,141158,2,0,L|288:361,1,83.9999974365235
74,361,141769,2,0,P|119:294|106:213,1,167.999994873047,8|0,0:0|0:0,0:0:0:0:
16,74,142466,5,0,0:0:0:0:
88,139,142641,1,0,0:0:0:0:
116,48,142815,2,0,L|227:36,1,111.999996582031,2|0,0:0|0:0,0:0:0:0:
438,11,143513,5,0,0:0:0:0:
397,96,143687,1,0,0:0:0:0:
336,22,143862,2,0,P|301:95|337:168,1,167.999994873047,8|0,0:0|0:0,0:0:0:0:
478,202,144560,6,0,L|422:208,1,55.9999982910157
316,278,144908,2,0,P|294:304|346:311,1,111.999996582031,4|0,0:0|0:0,0:0:0:0:
337,168,145432,2,0,L|329:112,1,55.9999982910157
173,17,145955,2,0,L|191:184,1,167.999994873047,8|0,0:0|0:0,0:0:0:0:
272,276,146653,5,0,0:0:0:0:
157,251,146827,1,0,0:0:0:0:
314,215,147001,2,0,P|344:260|338:314,1,111.999996582031,2|0,0:0|0:0,0:0:0:0:
125,345,147699,5,0,0:0:0:0:
157,251,147873,1,0,0:0:0:0:
231,326,148048,2,0,P|286:334|337:314,1,111.999996582031,12|0,0:0|0:0,0:0:0:0:
439,114,148571,6,0,L|439:190,1,55.9999982910157
450,347,149094,2,0,B|414:293|439:198|439:198|415:228|376:223,1,223.999993164063,4|2,0:0|0:0,0:0:0:0:
149,81,150141,5,8,0:0:0:0:
297,239,150490,1,0,0:0:0:0:
354,40,150839,1,0,0:0:0:0:
175,195,151187,6,0,B|92:232|94:159|14:193,1,167.999994873047,2|0,0:0|0:0,0:0:0:0:
133,126,151885,2,0,L|141:49,1,55.9999982910157,4|0,0:1|0:0,0:0:0:0:
55,262,152234,1,4,0:1:0:0:
72,267,152932,6,0,L|116:278,3,27.9999991455078
116,280,153249,6,0,B|147:215|133:126|133:126|214:165|271:119|243:32|187:67,1,359.999989013672,4|0,0:1|0:0,0:0:0:0:
298,176,154295,2,0,B|342:106|312:33|312:33|395:118|392:238,1,359.999989013672,8|0,0:0|0:0,0:0:0:0:
306,364,155342,6,0,P|252:311|331:261,1,179.999994506836,2|0,0:0|0:0,0:0:0:0:
352,284,155865,2,0,L|169:270,1,179.999994506836
128,268,156388,5,8,0:0:0:0:
276,168,156737,1,0,0:0:0:0:
98,162,157086,1,0,0:0:0:0:
258,80,157435,6,0,B|333:62|326:110|403:79,1,143.999995605469,2|0,0:0|0:0,0:0:0:0:
509,6,157958,1,0,0:0:0:0:
509,6,158132,2,0,P|484:30|474:64,1,71.9999978027344
485,281,158481,6,0,P|500:244|503:202,1,71.9999978027344,8|0,0:0|0:0,0:0:0:0:
404,321,158830,2,0,P|426:348|456:369,1,71.9999978027344
413,231,159179,2,0,P|377:235|344:249,1,71.9999978027344
487,193,159528,6,0,B|471:100|503:18|503:18|458:43,1,215.999993408203,2|0,0:0|0:0,0:0:0:0:
338,97,160225,2,0,L|419:111,1,71.9999978027344
300,11,160574,2,0,L|381:25,1,71.9999978027344,8|0,0:0|0:0,0:0:0:0:
249,85,160923,5,0,0:0:0:0:
249,96,161272,1,0,0:0:0:0:
248,106,161621,6,0,P|181:126|117:98,1,143.999995605469,4|0,0:0|0:0,0:0:0:0:
334,101,162144,2,0,B|347:136|347:136|338:168|338:168|336:219|336:219|319:196,1,143.999995605469
318,19,162667,2,0,B|370:46|420:13|420:13|384:0,1,143.999995605469,8|0,0:0|0:0,0:0:0:0:
227,25,163190,5,0,0:0:0:0:
279,196,163365,1,0,0:0:0:0:
189,103,163539,1,0,0:0:0:0:
362,212,163714,6,0,P|361:177|348:143,1,71.9999978027344,2|0,0:0|0:0,0:0:0:0:
196,182,164063,1,0,0:0:0:0:
318,291,164237,2,0,B|366:294|366:294|405:280|405:280|465:282,1,143.999995605469
348,179,164760,5,8,0:0:0:0:
485,199,164935,1,0,0:0:0:0:
494,111,165109,2,0,L|423:130,1,71.9999978027344
418,40,165458,1,0,0:0:0:0:
418,40,165632,1,0,0:0:0:0:
357,169,165807,6,0,B|348:136|358:100|358:100|321:151|321:151|259:186|259:186|268:263|235:300|203:306|201:271|227:249,1,359.999989013672,4|0,0:1|0:0,0:0:0:0:
364,283,166853,2,0,L|440:274,1,71.9999978027344,8|0,0:0|0:0,0:0:0:0:
512,370,167202,2,0,L|436:369,1,71.9999978027344,8|0,0:3|0:0,0:0:0:0:
279,371,167551,2,0,L|355:362,1,71.9999978027344,8|0,0:3|0:0,0:0:0:0:
196,372,167900,6,0,P|149:269|157:161,1,215.999993408203,4|0,0:0|0:0,0:0:0:0:
290,120,168597,2,0,P|260:139|225:146,1,71.9999978027344
344,60,168946,6,0,P|313:40|279:29,1,71.9999978027344,4|0,0:3|0:0,0:0:0:0:
433,112,169295,2,0,P|403:131|368:138,1,71.9999978027344,8|0,0:3|0:0,0:0:0:0:
487,52,169644,2,0,P|456:32|422:21,1,71.9999978027344,4|0,0:3|0:0,0:0:0:0:
512,131,169993,5,4,0:1:0:0:
512,131,170167,2,0,L|513:279,2,143.999995605469
422,21,171039,1,8,0:0:0:0:
251,119,171388,1,0,0:0:0:0:
512,131,171737,1,0,0:0:0:0:
350,237,172086,6,0,B|325:266|328:289|361:304|404:307|453:284|452:221|452:184|383:115|321:140|282:186|275:222,1,359.999989013672,2|0,0:0|0:0,0:0:0:0:
332,354,173132,2,0,P|405:358|470:309,2,143.999995605469,8|0|0,0:0|0:0|0:0,0:0:0:0:
178,207,174179,6,0,B|221:158|177:62|177:62|238:111,1,215.999993408203,2|0,0:0|0:0,0:0:0:0:
328,188,174877,1,0,0:0:0:0:
324,180,175225,2,0,P|313:147|318:112,1,71.9999978027344,8|0,0:0|0:0,0:0:0:0:
277,245,175574,2,0,P|253:218|244:184,1,71.9999978027344
258,323,175923,2,0,P|226:307|204:280,1,71.9999978027344
318,110,176272,6,0,B|374:128|417:99|417:99|453:117,2,143.999995605469,2|0|0,0:0|0:0|0:0,0:0:0:0:
143,23,177318,1,8,0:0:0:0:
140,33,177667,6,0,L|125:117,1,71.9999978027344
200,248,178016,2,0,L|215:164,1,71.9999978027344
146,302,178365,5,4,0:0:0:0:
264,287,178539,1,0,0:0:0:0:
193,373,178714,1,0,0:0:0:0:
75,358,178888,1,0,0:0:0:0:
200,248,179063,2,0,P|212:197|184:141,1,107.999996704102
122,117,179411,2,0,P|187:137|240:92,2,143.999995605469,8|0|0,0:0|0:0|0:0,0:0:0:0:
83,18,180284,5,0,0:0:0:0:
173,66,180458,1,2,0:0:0:0:
13,138,180632,1,0,0:0:0:0:
103,90,180806,1,0,0:0:0:0:
175,211,180981,1,0,0:0:0:0:
84,163,181156,2,0,P|75:232|112:293,1,143.999995605469,0|8,0:0|0:0,0:0:0:0:
372,277,181853,6,0,L|301:287,1,71.9999978027344
452,282,182202,2,0,L|380:291,1,71.9999978027344
194,364,182551,6,0,L|265:354,1,71.9999978027344,4|0,0:1|0:0,0:0:0:0:
114,358,182900,2,0,L|185:348,1,71.9999978027344
37,352,183249,2,0,L|108:342,1,71.9999978027344
211,227,183598,6,0,P|225:194|222:158,1,71.9999978027344,8|0,0:0|0:0,0:0:0:0:
77,121,183946,2,0,L|170:121,1,71.9999978027344
211,227,184295,2,0,L|298:227,1,71.9999978027344
393,136,184644,5,4,0:0:0:0:
351,256,184818,1,0,0:0:0:0:
484,210,184993,2,0,L|397:210,1,71.9999978027344
289,300,185342,1,0,0:0:0:0:
331,177,185516,1,0,0:0:0:0:
198,225,185691,6,0,L|274:225,1,71.9999978027344,8|0,0:0|0:0,0:0:0:0:
128,189,186039,2,0,P|121:224|129:259,1,71.9999978027344,4|0,0:3|0:0,0:0:0:0:
192,371,186388,2,0,P|198:335|191:301,1,71.9999978027344,8|0,0:3|0:0,0:0:0:0:
43,137,186737,6,0,P|143:44|7:58,1,359.999989013672,4|0,0:1|0:0,0:0:0:0:
48,231,187784,6,0,P|87:233|137:224,1,71.9999978027344,8|0,0:0|0:0,0:0:0:0:
266,162,188132,2,0,P|226:159|177:169,1,71.9999978027344
204,335,188481,2,0,P|209:295|204:245,1,71.9999978027344
157,78,188830,6,0,B|237:110|221:56|321:89,1,143.999995605469,2|0,0:0|0:0,0:0:0:0:
269,232,189353,1,0,0:0:0:0:
269,232,189528,2,0,P|262:185|269:151,1,71.9999978027344
286,315,189877,2,0,P|320:322|356:317,1,71.9999978027344,8|0,0:0|0:0,0:0:0:0:
353,196,190225,5,0,0:0:0:0:
429,312,190400,1,0,0:0:0:0:
490,154,190574,5,0,0:0:0:0:
429,230,190749,1,0,0:0:0:0:
284,150,190923,6,0,P|341:112|409:137,1,143.999995605469,4|0,0:0|0:0,0:0:0:0:
274,237,191446,2,0,P|213:202|205:130,1,143.999995605469
386,88,191970,5,8,0:0:0:0:
393,77,192318,1,0,0:0:0:0:
399,67,192667,1,0,0:0:0:0:
406,58,193016,6,0,L|400:282,1,215.999993408203,2|0,0:0|0:0,0:0:0:0:
255,309,193714,2,0,P|290:294|330:292,1,71.9999978027344
156,317,194063,2,0,P|216:243|342:216,1,215.999993408203,8|0,0:0|0:0,0:0:0:0:
486,340,194760,1,0,0:0:0:0:
495,331,195109,6,0,L|488:230,1,71.9999978027344,4|0,0:0|0:0,0:0:0:0:
484,114,195458,1,0,0:0:0:0:
336,117,195632,1,0,0:0:0:0:
500,38,195807,1,0,0:0:0:0:
492,31,196156,6,0,P|454:88|476:154,1,143.999995605469,8|0,0:0|0:0,0:0:0:0:
278,27,196679,2,0,P|316:84|294:150,1,143.999995605469
206,258,197202,6,0,P|204:222|221:191,1,71.9999978027344,2|0,0:0|0:0,0:0:0:0:
393,216,197551,1,0,0:0:0:0:
288,245,197726,1,0,0:0:0:0:
453,267,197900,1,0,0:0:0:0:
464,273,198249,6,0,L|456:364,1,71.9999978027344,8|0,0:0|0:0,0:0:0:0:
378,293,198598,1,0,0:0:0:0:
469,189,198772,1,0,0:0:0:0:
369,307,198946,1,0,0:0:0:0:
390,156,199121,1,0,0:0:0:0:
360,320,199295,6,0,P|246:358|154:281,1,251.999992309571,4|0,0:1|0:0,0:0:0:0:
118,252,199993,2,0,L|109:333,1,71.9999978027344
69,181,200342,2,0,L|33:254,1,71.9999978027344,8|0,0:0|0:0,0:0:0:0:
60,92,200691,2,0,L|-7:138,1,71.9999978027344,8|0,0:3|0:0,0:0:0:0:
104,20,201039,2,0,L|31:14,1,71.9999978027344,8|0,0:3|0:0,0:0:0:0:
158,91,201388,6,0,P|207:161|226:77,1,215.999993408203,4|0,0:0|0:0,0:0:0:0:
57,83,202086,2,0,P|55:118|65:153,1,71.9999978027344,4|0,0:3|0:0,0:0:0:0:
123,283,202435,2,0,P|125:247|115:212,1,71.9999978027344,8|0,0:3|0:0,0:0:0:0:
37,108,202784,6,0,P|34:143|44:178,1,71.9999978027344,4|0,0:3|0:0,0:0:0:0:
102,307,203133,2,0,P|104:271|94:236,1,71.9999978027344,8|0,0:3|0:0,0:0:0:0:
32,327,203481,6,0,B|41:382|124:412|161:368|174:350|181:294|181:294|210:370|294:350,1,359.999989013672,4|0,0:1|0:0,0:0:0:0:
408,251,204528,6,0,L|373:314,1,71.9999978027344,8|0,0:0|0:0,0:0:0:0:
285,168,204877,2,0,L|320:230,1,71.9999978027344
409,84,205226,2,0,L|373:146,1,71.9999978027344
210,248,205574,6,0,B|110:297|110:209|1:253,1,215.999993408203,2|0,0:0|0:0,0:0:0:0:
155,178,206272,2,0,P|158:142|151:107,1,71.9999978027344
6,55,206621,2,0,B|70:47|150:106|150:106|146:59|141:20|141:20|190:57|273:24,1,359.999989013672,8|0,0:0|0:0,0:0:0:0:
472,32,207667,6,0,P|474:67|462:101,1,71.9999978027344,6|0,0:0|0:0,0:0:0:0:
302,117,208016,2,0,P|337:114|371:126,1,71.9999978027344
424,257,208365,2,0,P|421:221|433:187,1,71.9999978027344
504,296,208714,1,8,0:0:0:0:
337,190,209062,1,0,0:0:0:0:
339,371,209411,1,0,0:0:0:0:
407,178,209760,6,0,P|349:118|274:156,1,179.999994506836,2|0,0:0|0:0,0:0:0:0:
337,190,210284,2,0,B|369:49|369:49|420:30,1,179.999994506836
473,24,210807,2,0,L|402:36,1,71.9999978027344,8|0,0:0|0:0,0:0:0:0:
256,59,211156,1,0,0:0:0:0:
476,150,211504,1,0,0:0:0:0:
230,283,211853,5,4,0:0:0:0:
327,260,212028,1,0,0:0:0:0:
192,211,212202,1,0,0:0:0:0:
336,179,212377,1,0,0:0:0:0:
151,142,212551,2,0,P|123:82|171:19,2,143.999995605469,0|8|0,0:0|0:0|0:0,0:0:0:0:
418,100,213598,2,0,L|340:101,1,71.9999978027344
202,85,213947,5,2,0:0:0:0:
193,211,214121,1,0,0:0:0:0:
302,129,214295,1,0,0:0:0:0:
208,228,214469,1,0,0:0:0:0:
381,201,214644,2,0,L|367:282,1,71.9999978027344
480,129,214993,2,0,L|465:208,1,71.9999978027344,8|0,0:0|0:0,0:0:0:0:
222,199,215342,6,0,L|214:108,1,71.9999978027344
325,35,215691,2,0,L|318:106,1,71.9999978027344
208,293,216039,6,0,L|115:306,1,71.9999978027344,4|0,0:1|0:0,0:0:0:0:
0,271,216388,2,0,L|75:261,1,71.9999978027344
208,293,216737,2,0,L|199:374,1,71.9999978027344
71,261,217086,2,0,L|80:180,1,71.9999978027344,4|0,0:0|0:0,0:0:0:0:
202,102,217435,2,0,L|135:148,1,71.9999978027344
12,70,217783,2,0,L|72:117,1,71.9999978027344
195,208,218132,6,0,P|239:272|212:200,1,215.999993408203,6|0,0:0|0:0,0:0:0:0:
108,226,218830,2,0,P|107:261|122:293,1,71.9999978027344
329,245,219179,2,0,P|330:209|314:176,1,71.9999978027344,8|0,0:0|0:0,0:0:0:0:
211,351,219528,2,0,P|246:351|278:336,1,71.9999978027344,8|0,0:3|0:0,0:0:0:0:
226,120,219877,2,0,P|190:118|158:133,1,71.9999978027344,8|0,0:3|0:0,0:0:0:0:
91,330,220226,6,0,B|100:357|100:357|108:221,1,160,4|0,0:1|0:0,0:0:0:0:
0,121,220749,2,0,P|37:143|95:153,1,80,2|0,0:1|0:0,0:0:0:0:
170,31,221098,2,0,L|64:47,1,80,2|0,0:1|0:0,0:0:0:0:
266,87,221447,1,2,0:1:0:0:
280,75,221970,6,0,B|276:99|276:99|280:123|280:123|276:147|276:147|281:173|281:173,1,95.9999970703126,4|0,0:0|0:0,0:0:0:0:
356,39,222493,1,0,0:0:0:0:
368,27,222842,5,2,0:1:0:0:
486,123,223016,1,2,0:1:0:0:
490,2,223191,1,2,0:1:0:0:
410,95,223365,2,0,P|380:113|344:114,1,71.9999978027344,2|0,0:1|0:0,0:0:0:0:
265,99,223714,2,0,L|268:130,1,23.9999992675781
312,199,223888,5,0,0:0:0:0:
256,192,223976,12,0,232784,0:0:0:0:
