osu file format v14

[General]
AudioFilename: wind.mp3
AudioLeadIn: 0
PreviewTime: 34709
Countdown: 0
SampleSet: Soft
StackLeniency: 0.7
Mode: 0
LetterboxInBreaks: 0
WidescreenStoryboard: 1

[Editor]
Bookmarks: 17235,36072,52816,75839,94676,111420,128164,139676,153249,169993,186737,203481,220226,225109,232784
DistanceSpacing: 1.6
BeatDivisor: 12
GridSize: 32
TimelineZoom: 1.45

[Metadata]
Title:Baramui Norae
TitleUnicode:바람의 노래
Artist:Jo Sung Mo
ArtistUnicode:조성모
Creator:Natsu
Version:Normal
Source:바람의 화원
Tags:The Song Of The Wind The Painter of the Wind 아프로 뮤직 Apro Music Euny
BeatmapID:1137434
BeatmapSetID:519665

[Difficulty]
HPDrainRate:3
CircleSize:3.5
OverallDifficulty:3
ApproachRate:4
SliderMultiplier:2
SliderTickRate:1

[Events]
//Background and Video events
0,0,"3.jpg",0,0
//Break Periods
2,128364,138356
//Storyboard Layer 0 (Background)
//Storyboard Layer 1 (Fail)
//Storyboard Layer 2 (Pass)
//Storyboard Layer 3 (Foreground)
//Storyboard Sound Samples

[TimingPoints]
510,1046.51771231228,4,2,34,20,1,0
597,-100,4,2,99,5,0,0
1207,-100,4,2,99,15,0,0
1556,-100,4,2,34,18,0,0
1643,-100,4,2,99,5,0,0
2603,-100,4,2,34,20,0,0
2690,-100,4,2,99,5,0,0
3649,-100,4,2,75,23,0,0
3736,-100,4,2,99,5,0,0
3998,-100,4,2,25,23,0,0
4172,-100,4,2,35,23,0,0
4260,-100,4,2,99,5,0,0
4521,-100,4,2,75,23,0,0
4696,-100,4,2,45,18,0,0
4783,-100,4,2,99,5,0,0
5393,-100,4,2,99,18,0,0
5480,-100,4,2,99,5,0,0
5742,-100,4,2,34,25,0,0
5829,-100,4,2,99,5,0,0
6789,-100,4,2,94,23,0,0
6876,-100,4,2,99,5,0,0
7835,-100,4,2,25,23,0,0
8184,-100,4,2,75,15,0,0
8533,-100,4,2,25,23,0,0
8882,-100,4,2,95,30,0,0
8969,-100,4,2,99,5,0,0
9230,-100,4,2,99,30,0,0
9318,-100,4,2,99,5,0,0
9579,-100,4,2,99,30,0,0
9928,-100,4,2,26,30,0,0
10015,-100,4,2,99,5,0,0
10451,-100,4,2,26,30,0,0
10539,-100,4,2,99,5,0,0
10975,-100,4,2,26,30,0,0
11324,-100,4,2,25,30,0,0
11411,-100,4,2,99,5,0,0
12021,-100,4,2,34,30,0,0
12108,-100,4,2,99,5,0,0
13068,-100,4,2,24,30,0,0
13155,-100,4,2,99,5,0,0
14114,-100,4,2,24,30,0,0
14201,-100,4,2,99,5,0,0
14463,-100,4,2,99,30,0,0
14550,-100,4,2,99,5,0,0
14812,-100,4,2,99,30,0,0
15161,-100,4,2,24,20,0,0
15248,-100,4,2,99,5,0,0
16207,1028.57730615604,4,2,99,20,1,0
16549,-100,4,2,99,25,0,0
16892,-100,4,2,99,30,0,0
17235,1046.51771231228,4,2,99,40,1,0
20025,-100,4,2,74,20,0,0
20374,-100,4,2,75,33,0,0
20548,-100,4,2,95,33,0,0
20723,-100,4,2,25,33,0,0
20897,-100,4,2,35,33,0,0
21072,-100,4,2,25,33,0,0
21246,-100,4,2,75,33,0,0
21421,-100,4,2,45,35,0,0
21508,-100,4,2,99,40,0,0
25258,-100,4,2,99,40,0,0
25345,-100,4,2,99,40,0,0
25607,-100,4,2,99,40,0,0
25694,-100,4,2,99,40,0,0
29793,-100,4,2,99,40,0,0
29880,-100,4,2,99,40,0,0
31886,-100,4,2,99,45,0,0
32932,-100,4,2,99,48,0,0
33979,-100,4,2,99,50,0,0
35025,-100,4,2,99,40,0,0
35374,-100,4,2,99,45,0,0
35723,-100,4,2,99,50,0,0
36072,1046.51771231228,4,2,99,60,1,1
36072,-100,4,2,99,60,0,1
36159,-100,4,2,99,60,0,0
52816,-100,4,2,99,70,0,1
52903,-100,4,2,99,60,0,0
71304,-100,4,2,99,40,0,0
71479,-100,4,2,99,60,0,0
72176,-100,4,2,99,5,0,0
72351,-100,4,2,99,60,0,0
73746,-100,4,2,99,40,0,0
75839,1046.51771231228,4,2,99,40,1,0
91536,-100,4,2,99,40,0,0
93629,-100,4,2,99,40,0,0
93977,-100,4,2,99,40,0,0
94327,-100,4,2,99,40,0,0
94676,1046.51771231228,4,2,99,70,1,1
94676,-100,4,2,99,70,0,1
94763,-100,4,2,99,60,0,0
111420,-100,4,2,99,70,0,1
111507,-100,4,2,99,60,0,0
127118,-100,4,2,99,40,0,0
139676,-100,4,2,99,40,0,0
153249,1046.51771231228,4,2,99,60,1,1
153249,-100,4,2,99,60,0,1
153336,-100,4,2,99,60,0,0
169993,-100,4,2,99,70,0,1
170080,-100,4,2,99,60,0,0
186737,-100,4,2,99,70,0,1
186824,-100,4,2,99,60,0,0
203481,-100,4,2,99,70,0,1
203569,-100,4,2,99,60,0,0
220226,-100,4,2,99,70,0,0
220749,-100,4,2,99,60,0,0
221970,-100,4,2,99,30,0,0
222842,-100,4,2,99,20,0,0
224412,-83.3333333333333,4,2,99,15,0,0
226505,-83.3333333333333,4,2,99,10,0,0
228598,-83.3333333333333,4,2,99,5,0,0

[Colours]
Combo1 : 192,196,70
Combo2 : 190,58,44
Combo3 : 74,100,166
SliderBorder : 255,255,255
SliderTrackOverride : 94,64,55

[HitObjects]
50,33,510,6,0,P|27:95|51:156,1,133.333333333333,8|0,0:0|0:0,0:0:0:0:
149,192,1556,2,0,B|291:192,1,133.333333333333,8|0,0:0|0:0,0:0:0:0:
381,232,2603,2,0,P|404:292|381:354,1,133.333333333333,8|0,0:0|0:0,0:0:0:0:
274,358,3649,2,0,L|203:358,1,66.6666666666667,2|8,0:0|0:0,0:0:0:0:
185,309,4172,2,0,L|114:309,1,66.6666666666667,8|2,0:0|0:0,0:0:0:0:
82,268,4696,6,0,P|88:236|81:203,1,66.6666666666667,2|0,0:0|0:0,0:0:0:0:
132,109,5393,2,0,L|170:101,1,33.3333333333333,0|0,0:0|0:0,0:0:0:0:
207,134,5742,2,0,L|272:119,1,66.6666666666667,8|0,0:0|0:0,0:0:0:0:
479,78,6789,2,0,B|441:133|441:133|495:183|457:257,1,200,2|8,0:0|0:0,0:0:0:0:
357,291,8184,2,0,L|281:291,1,66.6666666666667,2|2,0:0|0:0,0:0:0:0:
196,238,8882,6,0,P|205:207|197:175,2,66.6666666666667,2|0|0,0:0|0:0|0:0,0:0:0:0:
128,320,9928,2,0,L|181:345,1,33.3333333333333,2|0,0:0|0:0,0:0:0:0:
257,375,10451,2,0,L|357:375,1,100,2|2,0:0|0:0,0:0:0:0:
450,322,11324,2,0,P|440:290|448:258,1,66.6666666666667
492,160,12021,2,0,B|350:160,1,133.333333333333,8|0,0:0|0:0,0:0:0:0:
263,110,13068,6,0,P|248:158|261:205,1,100,8|0,0:0|0:0,0:0:0:0:
391,299,14114,2,0,L|457:298,2,66.6666666666667,8|0|0,0:0|0:0|0:0,0:0:0:0:
292,340,15161,2,0,B|249:355|249:355|161:354,1,133.333333333333,8|0,0:0|0:0,0:0:0:0:
93,269,16207,2,0,L|26:269,2,66.6666666666667,4|8|4,0:3|0:3|0:3,0:0:0:0:
172,200,17235,6,0,P|157:135|166:69,1,133.333333333333,4|0,0:0|0:0,0:0:0:0:
267,34,18281,2,0,P|328:57|394:51,1,133.333333333333,8|0,0:0|0:0,0:0:0:0:
495,16,19328,2,0,B|483:148,1,133.333333333333,2|2,0:0|0:0,0:0:0:0:
463,253,20374,2,0,P|409:214|343:208,1,133.333333333333,2|8,0:0|0:0,0:0:0:0:
249,258,21421,6,0,P|185:277|121:262,1,133.333333333333,2|0,0:0|0:0,0:0:0:0:
19,229,22467,2,0,L|13:298,1,66.6666666666667,8|0,0:0|0:0,0:0:0:0:
92,366,23165,2,0,L|171:375,1,66.6666666666667,0|2,0:0|0:0,0:0:0:0:
264,368,23862,2,0,L|347:350,1,66.6666666666667,0|0,0:0|0:0,0:0:0:0:
435,362,24560,2,0,P|435:295|461:234,1,133.333333333333,8|2,0:0|0:0,0:0:0:0:
490,131,25607,6,0,P|427:150|362:137,1,133.333333333333,2|0,0:0|0:0,0:0:0:0:
265,90,26653,2,0,P|271:139|266:188,1,100,8|0,0:0|0:0,0:0:0:0:
223,343,27700,2,0,B|158:324|158:365|91:337,1,133.333333333333,2|0,0:0|0:0,0:0:0:0:
29,251,28746,2,0,P|35:201|29:152,1,100,8|0,0:0|0:0,0:0:0:0:
157,55,29793,6,0,L|267:30,1,100,2|0,0:0|0:0,0:0:0:0:
413,43,30839,2,0,L|473:74,2,66.6666666666667,8|0|0,0:0|0:0|0:0,0:0:0:0:
337,118,31886,2,0,B|326:155|347:193|347:193|333:233|333:233|352:266|341:310,1,200,4|8,0:1|0:0,0:0:0:0:
245,355,33281,2,0,P|213:344|180:339,1,66.6666666666667,0|0,0:0|0:0,0:0:0:0:
73,346,33979,6,0,P|49:301|46:252,2,100,4|0|4,0:0|0:0|0:3,0:0:0:0:
149,272,35374,1,8,0:3:0:0:
252,297,35723,1,4,0:3:0:0:
319,214,36072,6,0,P|335:150|308:91,1,133.333333333333,4|0,0:1|0:0,0:0:0:0:
203,91,37118,2,0,P|176:150|193:214,1,133.333333333333,8|0,0:0|0:0,0:0:0:0:
257,299,38165,2,0,B|356:264|356:360|446:302,1,200,2|8,0:0|0:0,0:0:0:0:
477,200,39560,2,0,L|477:119,1,66.6666666666667,0|0,0:0|0:0,0:0:0:0:
474,26,40258,5,2,0:0:0:0:
388,89,40606,2,0,P|355:96|323:88,1,66.6666666666667,0|0,0:0|0:0,0:0:0:0:
226,44,41304,2,0,B|206:175,1,133.333333333333,8|0,0:0|0:0,0:0:0:0:
148,266,42351,2,0,P|190:310|242:275,1,133.333333333333,2|0,0:0|0:0,0:0:0:0:
207,175,43397,1,8,0:0:0:0:
101,188,43746,2,0,B|19:188,1,66.6666666666667,0|0,0:0|0:0,0:0:0:0:
75,89,44444,6,0,B|141:89,1,66.6666666666667,6|0,0:0|0:0,0:0:0:0:
178,50,44967,2,0,L|232:50,1,33.3333333333333,0|0,0:0|0:0,0:0:0:0:
305,99,45490,2,0,B|323:134|323:134|280:191|318:252,1,166.666666666667,8|0,0:0|0:0,0:0:0:0:
343,299,46537,2,0,L|243:299,1,100,2|0,0:0|0:0,0:0:0:0:
201,332,47234,2,0,L|133:332,1,66.6666666666667,0|8,0:0|0:0,0:0:0:0:
106,228,47932,1,0,0:0:0:0:
78,124,48281,1,0,0:0:0:0:
177,158,48630,6,0,P|241:177|303:156,1,133.333333333333,4|0,0:1|0:0,0:0:0:0:
385,88,49676,1,8,0:0:0:0:
406,192,50025,2,0,L|406:273,1,66.6666666666667,8|8,0:3|0:3,0:0:0:0:
334,338,50723,2,0,P|270:319|207:338,1,133.333333333333,4|0,0:0|0:0,0:0:0:0:
104,364,51769,2,0,P|70:373|36:364,1,66.6666666666667,8|4,0:0|0:3,0:0:0:0:
71,263,52467,1,8,0:3:0:0:
175,281,52816,6,0,P|184:215|163:152,1,133.333333333333,4|0,0:1|0:0,0:0:0:0:
124,53,53862,2,0,B|256:67,1,133.333333333333,8|0,0:0|0:0,0:0:0:0:
362,55,54909,2,0,L|357:136,1,66.6666666666667,2|0,0:0|0:0,0:0:0:0:
329,166,55432,2,0,L|353:227,1,66.6666666666667,0|0,0:0|0:0,0:0:0:0:
379,274,55955,2,0,L|357:343,2,66.6666666666667,8|0|0,0:0|0:0|0:0,0:0:0:0:
456,200,57002,6,0,L|446:88,2,100,2|0|8,0:0|0:0|0:0,0:0:0:0:
379,274,58397,2,0,P|346:264|313:263,1,66.6666666666667,0|0,0:0|0:0,0:0:0:0:
234,336,59095,2,0,P|185:337|140:317,2,100,2|0|8,0:0|0:0|0:0,0:0:0:0:
206,233,60490,2,0,L|199:144,1,66.6666666666667,0|0,0:0|0:0,0:0:0:0:
186,60,61188,6,0,P|121:81|55:76,1,133.333333333333,6|0,0:0|0:0,0:0:0:0:
1,167,62234,1,8,0:0:0:0:
106,181,62583,2,0,P|107:221|102:256,1,66.6666666666667,0|0,0:0|0:0,0:0:0:0:
47,338,63281,2,0,B|178:357,1,133.333333333333,2|0,0:0|0:0,0:0:0:0:
284,341,64327,1,8,0:0:0:0:
387,365,64676,2,0,P|378:332|380:299,1,66.6666666666667,0|0,0:0|0:0,0:0:0:0:
453,220,65374,6,0,P|461:188|464:155,2,66.6666666666667,4|0|0,0:1|0:0|0:0,0:0:0:0:
357,171,66421,2,0,L|212:195,1,133.333333333333,8|0,0:0|0:0,0:0:0:0:
119,207,67467,2,0,P|130:175|134:142,2,66.6666666666667,4|0|0,0:0|0:0|0:0,0:0:0:0:
19,168,68514,1,8,0:0:0:0:
30,273,68862,2,0,L|39:354,1,66.6666666666667,0|0,0:0|0:0,0:0:0:0:
142,360,69560,6,0,L|153:289,2,66.6666666666667,4|8|0,0:1|0:3|0:0,0:0:0:0:
249,358,70607,2,0,B|315:343|315:375|381:361,1,133.333333333333,12|2,0:3|0:1,0:0:0:0:
486,347,71653,2,0,P|495:298|486:249,1,100,2|0,0:0|0:0,0:0:0:0:
439,224,72351,2,0,P|346:222|330:132,1,200,0|0,0:0|0:0,0:0:0:0:
356,28,73746,2,0,B|157:102,1,200,2|0,0:0|0:0,0:0:0:0:
357,355,75839,6,0,P|333:294|352:231,1,133.333333333333,6|0,0:0|0:0,0:0:0:0:
432,161,76885,2,0,P|455:100|436:37,1,133.333333333333,8|0,0:0|0:0,0:0:0:0:
330,27,77932,2,0,B|230:27,2,100,2|0|8,0:0|0:0|0:0,0:0:0:0:
289,125,79327,2,0,L|222:125,1,66.6666666666667,0|0,0:0|0:0,0:0:0:0:
129,178,80025,5,2,0:0:0:0:
194,261,80373,2,0,P|201:293|194:325,1,66.6666666666667,0|0,0:0|0:0,0:0:0:0:
294,362,81071,2,0,B|441:362,1,133.333333333333,8|0,0:0|0:0,0:0:0:0:
485,272,82118,2,0,P|462:210|478:147,1,133.333333333333,2|2,0:0|0:0,0:0:0:0:
438,48,83164,2,0,L|371:48,1,66.6666666666667,8|0,0:0|0:0,0:0:0:0:
264,48,83862,1,0,0:0:0:0:
201,133,84211,6,0,P|211:165|204:198,2,66.6666666666667,2|0|0,0:0|0:0|0:0,0:0:0:0:
97,111,85257,2,0,P|77:65|94:19,2,100,8|0|2,0:0|0:0|0:0,0:0:0:0:
201,135,86653,2,0,L|270:135,2,66.6666666666667,0|0|8,0:0|0:0|0:0,0:0:0:0:
174,181,87525,2,0,P|181:213|173:245,1,66.6666666666667,0|0,0:0|0:0,0:0:0:0:
271,371,88397,6,0,B|370:371,1,100,2|0,0:0|0:0,0:0:0:0:
474,249,89443,2,0,P|465:216|473:184,1,66.6666666666667,8|0,0:0|0:0,0:0:0:0:
510,84,90141,1,0,0:0:0:0:
413,39,90490,6,0,L|213:39,1,200,4|8,0:1|0:0,0:0:0:0:
132,109,91885,2,0,P|145:157|130:204,1,100,0|0,0:0|0:0,0:0:0:0:
91,240,92583,1,4,0:0:0:0:
148,330,92932,2,0,L|214:320,1,66.6666666666667,4|8,0:3|0:3,0:0:0:0:
247,219,93629,2,0,L|313:209,1,66.6666666666667,4|8,0:3|0:3,0:0:0:0:
418,190,94327,1,4,0:3:0:0:
497,259,94676,6,0,P|519:197|504:133,1,133.333333333333,4|0,0:1|0:0,0:0:0:0:
414,75,95722,2,0,P|353:101|287:99,1,133.333333333333,8|0,0:0|0:0,0:0:0:0:
197,40,96769,2,0,L|181:110,1,66.6666666666667,2|0,0:0|0:0,0:0:0:0:
135,130,97292,2,0,L|162:257,1,100,0|8,0:0|0:0,0:0:0:0:
190,328,98164,2,0,P|222:319|255:321,1,66.6666666666667,0|0,0:0|0:0,0:0:0:0:
355,357,98862,5,2,0:0:0:0:
449,307,99210,2,0,P|439:275|438:241,1,66.6666666666667
487,146,99908,2,0,P|493:114|492:81,2,66.6666666666667,8|0|0,0:0|0:0|0:0,0:0:0:0:
387,107,100955,2,0,B|320:92|320:132|255:107,1,133.333333333333,2|0,0:0|0:0,0:0:0:0:
161,58,102001,2,0,L|167:198,1,133.333333333333,8|0,0:0|0:0,0:0:0:0:
91,267,103048,6,0,L|74:203,1,66.6666666666667,4|0,0:0|0:0,0:0:0:0:
35,165,103571,2,0,L|56:90,1,66.6666666666667,0|0,0:0|0:0,0:0:0:0:
68,48,104094,2,0,P|132:67|198:59,1,133.333333333333,8|0,0:0|0:0,0:0:0:0:
293,11,105141,2,0,P|359:6|424:20,1,133.333333333333,2|0,0:0|0:0,0:0:0:0:
509,85,106187,1,8,0:0:0:0:
417,139,106536,2,0,P|413:173|418:205,1,66.6666666666667,0|0,0:0|0:0,0:0:0:0:
490,285,107234,6,0,P|489:318|483:350,2,66.6666666666667,4|0|0,0:1|0:0|0:0,0:0:0:0:
385,307,108280,2,0,P|352:314|319:313,2,66.6666666666667,0|0|0,0:0|0:0|0:0,0:0:0:0:
418,205,109327,2,0,P|419:138|398:73,1,133.333333333333,4|0,0:0|0:0,0:0:0:0:
302,30,110373,2,0,L|226:47,2,66.6666666666667,8|4|8,0:0|0:3|0:3,0:0:0:0:
302,137,111420,6,0,B|98:188,1,200,4|8,0:1|0:0,0:0:0:0:
41,269,112815,2,0,P|52:299|48:332,1,66.6666666666667,0|0,0:0|0:0,0:0:0:0:
152,359,113513,2,0,B|253:320|251:397|346:359,1,200,2|8,0:0|0:0,0:0:0:0:
474,66,115606,6,0,B|474:200,1,133.333333333333,2|0,0:0|0:0,0:0:0:0:
444,301,116652,1,8,0:0:0:0:
338,278,117001,2,0,P|306:273|273:279,1,66.6666666666667,0|0,0:0|0:0,0:0:0:0:
179,330,117699,2,0,B|143:358|108:350|108:350|74:298|94:223,1,200,2|8,0:0|0:0,0:0:0:0:
173,161,119094,2,0,P|205:170|238:163,1,66.6666666666667,0|0,0:0|0:0,0:0:0:0:
345,159,119792,6,0,P|318:218|345:277,1,133.333333333333,4|0,0:0|0:0,0:0:0:0:
414,359,120838,2,0,L|241:358,1,166.666666666667,8|0,0:0|0:0,0:0:0:0:
206,322,121885,2,0,P|224:269|205:220,2,100,2|0|8,0:0|0:0|0:0,0:0:0:0:
113,269,123280,2,0,L|26:269,1,66.6666666666667,0|0,0:0|0:0,0:0:0:0:
88,170,123978,6,0,P|110:108|87:47,1,133.333333333333,4|0,0:1|0:0,0:0:0:0:
193,32,125025,2,0,L|327:32,1,133.333333333333,8|0,0:0|0:0,0:0:0:0:
426,69,126071,2,0,P|417:101|425:133,1,66.6666666666667,4|0,0:0|0:0,0:0:0:0:
470,230,126769,1,0,0:0:0:0:
493,334,127118,2,0,B|390:293|389:384|301:338,1,200,2|0,0:0|0:0,0:0:0:0:
16,32,139676,6,0,L|34:164,1,133.333333333333,4|0,0:3|0:0,0:0:0:0:
59,267,140722,2,0,P|140:213|235:233,1,200,4|8,0:0|0:0,0:0:0:0:
419,341,142466,2,0,L|475:340,2,33.3333333333333,0|0|2,0:0|0:0|0:0,0:0:0:0:
315,314,143164,2,0,L|243:315,1,66.6666666666667,0|0,0:0|0:0,0:0:0:0:
158,254,143862,2,0,P|165:221|159:188,1,66.6666666666667,8|0,0:0|0:0,0:0:0:0:
83,113,144560,1,0,0:0:0:0:
176,61,144908,6,0,L|309:61,1,133.333333333333,4|0,0:0|0:0,0:0:0:0:
411,91,145955,2,0,P|401:122|411:154,1,66.6666666666667,8|0,0:0|0:0,0:0:0:0:
448,254,146653,2,0,L|448:287,2,33.3333333333333,0|0|2,0:0|0:0|0:0,0:0:0:0:
347,217,147350,1,0,0:0:0:0:
271,292,147699,2,0,L|271:325,2,33.3333333333333,0|0|12,0:0|0:0|0:0,0:0:0:0:
180,234,148397,2,0,L|179:284,2,33.3333333333333
155,130,149094,6,0,P|243:167|325:117,1,200,4|8,0:0|0:0,0:0:0:0:
379,23,150490,2,0,L|445:23,1,66.6666666666667
505,113,151187,2,0,B|471:170|502:230|502:230|430:278,1,200,2|4,0:0|0:1,0:0:0:0:
142,370,153249,6,0,P|120:308|135:244,1,133.333333333333,4|0,0:1|0:0,0:0:0:0:
156,139,154295,2,0,P|95:165|29:163,1,133.333333333333,8|0,0:0|0:0,0:0:0:0:
44,57,155342,2,0,P|80:56|104:40,1,66.6666666666667,2|0,0:0|0:0,0:0:0:0:
152,14,155865,2,0,L|261:50,1,100,0|8,0:0|0:0,0:0:0:0:
348,77,156737,2,0,P|342:109|348:142,1,66.6666666666667,0|0,0:0|0:0,0:0:0:0:
406,231,157435,5,2,0:0:0:0:
324,299,157783,2,0,P|291:305|258:300,1,66.6666666666667
151,295,158481,2,0,P|159:327|157:360,2,66.6666666666667,8|0|0,0:0|0:0|0:0,0:0:0:0:
49,260,159528,2,0,P|35:195|43:129,1,133.333333333333,2|0,0:0|0:0,0:0:0:0:
101,39,160574,2,0,P|160:68|226:70,1,133.333333333333,8|0,0:0|0:0,0:0:0:0:
330,49,161621,6,0,L|324:129,1,66.6666666666667,4|0,0:0|0:0,0:0:0:0:
291,157,162144,2,0,L|318:224,1,66.6666666666667,0|0,0:0|0:0,0:0:0:0:
337,267,162667,2,0,P|270:264|208:287,1,133.333333333333,8|0,0:0|0:0,0:0:0:0:
106,317,163714,2,0,P|115:251|102:186,1,133.333333333333,2|0,0:0|0:0,0:0:0:0:
41,98,164760,1,8,0:0:0:0:
127,35,165109,2,0,L|198:46,1,66.6666666666667
296,72,165807,6,0,P|298:37|292:6,2,66.6666666666667,4|0|0,0:1|0:0|0:0,0:0:0:0:
395,111,166853,2,0,P|402:78|402:45,2,66.6666666666667,8|8|8,0:0|0:3|0:3,0:0:0:0:
459,196,167900,2,0,P|491:137|499:71,1,133.333333333333,4|0,0:0|0:0,0:0:0:0:
411,11,168946,2,0,L|332:12,2,66.6666666666667,4|8|4,0:3|0:3|0:3,0:0:0:0:
370,109,169993,6,0,B|154:109,1,200,4|8,0:1|0:0,0:0:0:0:
88,177,171388,2,0,P|99:208|94:240,1,66.6666666666667,0|0,0:0|0:0,0:0:0:0:
48,337,172086,2,0,B|143:299|141:376|242:337,1,200,2|8,0:0|0:0,0:0:0:0:
481,124,174179,6,0,P|455:183|480:244,1,133.333333333333,2|0,0:0|0:0,0:0:0:0:
510,346,175225,1,8,0:0:0:0:
407,316,175574,2,0,L|333:316,1,66.6666666666667,0|0,0:0|0:0,0:0:0:0:
246,367,176272,2,0,P|169:338|235:290,1,200,2|8,0:0|0:0,0:0:0:0:
340,316,177667,2,0,L|407:316,1,66.6666666666667,0|0,0:0|0:0,0:0:0:0:
469,229,178365,6,0,P|496:170|469:111,1,133.333333333333,4|0,0:0|0:0,0:0:0:0:
362,107,179411,2,0,P|284:133|204:113,1,166.666666666667,8|0,0:0|0:0,0:0:0:0:
152,100,180458,2,0,L|151:203,2,100,2|0|8,0:0|0:0|0:0,0:0:0:0:
49,69,181853,2,0,L|49:140,1,66.6666666666667,0|0,0:0|0:0,0:0:0:0:
79,238,182551,6,0,P|129:279|193:269,1,133.333333333333,4|0,0:1|0:0,0:0:0:0:
293,235,183598,2,0,P|357:216|421:231,1,133.333333333333,8|0,0:0|0:0,0:0:0:0:
507,168,184644,2,0,L|513:80,1,66.6666666666667,4|0,0:0|0:0,0:0:0:0:
410,66,185342,2,0,L|413:15,2,33.3333333333333,0|0|8,0:0|0:0|0:0,0:0:0:0:
403,172,186039,1,4,0:3:0:0:
398,278,186388,1,8,0:3:0:0:
303,229,186737,6,0,B|276:300|316:300|293:362,1,133.333333333333,4|0,0:1|0:0,0:0:0:0:
186,360,187784,2,0,P|153:364|120:359,2,66.6666666666667,8|0|0,0:0|0:0|0:0,0:0:0:0:
156,257,188830,6,0,P|158:194|151:142,1,100,2|0,0:0|0:0,0:0:0:0:
119,117,189528,1,0,0:0:0:0:
168,22,189877,1,8,0:0:0:0:
245,95,190225,2,0,P|278:97|311:93,1,66.6666666666667,0|0,0:0|0:0,0:0:0:0:
415,68,190923,6,0,L|412:134,1,66.6666666666667,4|0,0:0|0:0,0:0:0:0:
381,178,191446,2,0,L|411:255,1,66.6666666666667,0|0,0:0|0:0,0:0:0:0:
450,269,191970,2,0,L|421:353,2,66.6666666666667,8|0|0,0:0|0:0|0:0,0:0:0:0:
500,175,193016,2,0,L|486:81,1,66.6666666666667,2|0,0:0|0:0,0:0:0:0:
451,9,193714,1,0,0:0:0:0:
355,56,194063,2,0,P|289:47|223:59,1,133.333333333333,8|0,0:0|0:0,0:0:0:0:
197,162,195109,6,0,P|131:173|65:164,1,133.333333333333,4|0,0:0|0:0,0:0:0:0:
7,254,196156,2,0,P|14:286|11:319,1,66.6666666666667,8|0,0:0|0:0,0:0:0:0:
26,370,196679,2,0,L|91:357,1,66.6666666666667,0|0,0:0|0:0,0:0:0:0:
136,327,197202,2,0,L|277:353,1,133.333333333333,2|0,0:0|0:0,0:0:0:0:
372,331,198249,1,8,0:0:0:0:
471,368,198598,2,0,P|475:336|473:302,1,66.6666666666667,0|0,0:0|0:0,0:0:0:0:
445,199,199295,6,0,B|375:223|380:178|305:200,1,133.333333333333,4|0,0:1|0:0,0:0:0:0:
214,236,200342,2,0,P|217:202|213:169,2,66.6666666666667,8|8|8,0:0|0:3|0:3,0:0:0:0:
113,200,201388,2,0,P|109:150|130:106,1,100,4|0,0:0|0:0,0:0:0:0:
174,75,202086,1,4,0:3:0:0:
276,105,202435,2,0,P|309:101|341:92,2,66.6666666666667,8|4|8,0:3|0:3|0:3,0:0:0:0:
218,194,203481,6,0,B|243:253|212:324|212:324|277:369,1,200,4|8,0:1|0:0,0:0:0:0:
372,347,204877,2,0,P|403:336|435:341,1,66.6666666666667
503,258,205574,2,0,B|465:163|542:165|503:64,1,200,2|8,0:0|0:0,0:0:0:0:
192,142,207667,6,0,P|132:163|57:124,1,133.333333333333,6|0,0:0|0:0,0:0:0:0:
133,52,208713,1,8,0:0:0:0:
237,29,209063,2,0,L|303:29,1,66.6666666666667
384,98,209760,2,0,B|338:190|435:188|384:291,1,200,2|8,0:0|0:0,0:0:0:0:
302,354,211156,2,0,L|235:354,1,66.6666666666667
129,340,211853,6,0,P|156:281|129:222,1,133.333333333333,4|0,0:0|0:0,0:0:0:0:
60,140,212899,2,0,L|249:140,1,166.666666666667,8|0,0:0|0:0,0:0:0:0:
264,176,213946,2,0,P|245:220|263:266,2,100,2|0|8,0:0|0:0|0:0,0:0:0:0:
359,125,215342,2,0,L|431:126,1,66.6666666666667,0|0,0:0|0:0,0:0:0:0:
454,23,216039,6,0,L|311:22,1,133.333333333333,4|0,0:1|0:0,0:0:0:0:
232,83,217086,2,0,P|251:145|231:208,1,133.333333333333,4|0,0:0|0:0,0:0:0:0:
130,243,218132,2,0,L|46:243,1,66.6666666666667,6|0,0:0|0:0,0:0:0:0:
24,143,218830,2,0,L|17:90,2,33.3333333333333,0|0|8,0:0|0:0|0:0,0:0:0:0:
128,121,219527,1,8,0:3:0:0:
233,102,219876,1,8,0:3:0:0:
204,205,220226,6,0,L|293:207,1,66.6666666666667,4|0,0:1|0:0,0:0:0:0:
324,207,220749,1,2,0:1:0:0:
330,313,221098,1,2,0:1:0:0:
422,259,221447,1,2,0:1:0:0:
346,117,221970,2,0,P|296:120|255:148,1,100,4|0,0:0|0:0,0:0:0:0:
167,207,222842,2,0,P|159:125|204:57,1,166.666666666667,2|0,0:1|0:0,0:0:0:0:
256,45,223888,1,0,0:0:0:0:
256,192,223976,12,0,232784,0:0:0:0:
