osu file format v14

[General]
AudioFilename: wind.mp3
AudioLeadIn: 0
PreviewTime: 34709
Countdown: 0
SampleSet: Soft
StackLeniency: 0.7
Mode: 0
LetterboxInBreaks: 0
WidescreenStoryboard: 1

[Editor]
Bookmarks: 17235,36072,52816,75839,94676,111420,128164,139676,153249,169993,186737,203481,220226,225109,232784
DistanceSpacing: 2
BeatDivisor: 12
GridSize: 32
TimelineZoom: 1.45

[Metadata]
Title:Baramui Norae
TitleUnicode:바람의 노래
Artist:Jo Sung Mo
ArtistUnicode:조성모
Creator:Natsu
Version:Hard
Source:바람의 화원
Tags:The Song Of The Wind The Painter of the Wind 아프로 뮤직 Apro Music Euny
BeatmapID:1119651
BeatmapSetID:519665

[Difficulty]
HPDrainRate:5
CircleSize:4
OverallDifficulty:5
ApproachRate:7
SliderMultiplier:2.2
SliderTickRate:1

[Events]
//Background and Video events
0,0,"2.jpg",0,0
//Break Periods
2,128364,138776
//Storyboard Layer 0 (Background)
//Storyboard Layer 1 (Fail)
//Storyboard Layer 2 (Pass)
//Storyboard Layer 3 (Foreground)
//Storyboard Sound Samples

[TimingPoints]
510,1046.51771231228,4,2,34,20,1,0
597,-100,4,2,99,5,0,0
1033,-100,4,2,99,5,0,0
1207,-100,4,2,99,15,0,0
1294,-100,4,2,99,5,0,0
1556,-100,4,2,34,18,0,0
1643,-100,4,2,99,5,0,0
2341,-100,4,2,99,5,0,0
2603,-100,4,2,34,20,0,0
2690,-100,4,2,99,5,0,0
3649,-100,4,2,75,23,0,0
3823,-100,4,2,95,23,0,0
3998,-100,4,2,25,23,0,0
4172,-100,4,2,35,23,0,0
4347,-100,4,2,25,23,0,0
4521,-100,4,2,75,23,0,0
4696,-100,4,2,45,18,0,0
4783,-100,4,2,99,5,0,0
5393,-100,4,2,99,18,0,0
5480,-100,4,2,99,5,0,0
5742,-100,4,2,34,25,0,0
5829,-100,4,2,99,5,0,0
6789,-100,4,2,94,23,0,0
6876,-100,4,2,99,23,0,0
7661,-100,4,2,99,5,0,0
7835,-100,4,2,25,23,0,0
8184,-100,4,2,75,15,0,0
8533,-100,4,2,25,23,0,0
8882,-100,4,2,95,30,0,0
8969,-100,4,2,99,5,0,0
9230,-100,4,2,99,30,0,0
9318,-100,4,2,99,5,0,0
9579,-100,4,2,99,30,0,0
9928,-100,4,2,26,30,0,0
10451,-100,4,2,26,30,0,0
10539,-100,4,2,99,5,0,0
10800,-100,4,2,25,30,0,0
11411,-100,4,2,99,5,0,0
12021,-100,4,2,34,30,0,0
12108,-100,4,2,99,5,0,0
13068,-100,4,2,24,30,0,0
13155,-100,4,2,99,5,0,0
14114,-100,4,2,24,30,0,0
14201,-100,4,2,99,5,0,0
14463,-100,4,2,99,30,0,0
14550,-100,4,2,99,5,0,0
14812,-100,4,2,99,30,0,0
15161,-100,4,2,24,20,0,0
15248,-100,4,2,99,5,0,0
16207,1028.57730615604,4,2,99,20,1,0
16549,-100,4,2,99,25,0,0
16892,-100,4,2,99,30,0,0
17235,1046.51771231228,4,2,99,40,1,0
20025,-100,4,2,74,20,0,0
20374,-100,4,2,75,33,0,0
20548,-100,4,2,95,33,0,0
20723,-100,4,2,25,33,0,0
20897,-100,4,2,35,33,0,0
21072,-100,4,2,25,33,0,0
21246,-100,4,2,75,33,0,0
21421,-100,4,2,45,35,0,0
21508,-100,4,2,99,40,0,0
25258,-100,4,2,99,40,0,0
25345,-100,4,2,99,40,0,0
25607,-100,4,2,99,40,0,0
25694,-100,4,2,99,40,0,0
29793,-100,4,2,99,40,0,0
29880,-100,4,2,99,40,0,0
31886,-100,4,2,99,45,0,0
32932,-100,4,2,99,48,0,0
33979,-100,4,2,99,50,0,0
35025,-100,4,2,99,40,0,0
35374,-100,4,2,99,45,0,0
35723,-100,4,2,99,50,0,0
36072,1046.51771231228,4,2,99,60,1,1
36072,-76.9230769230769,4,2,99,60,0,1
36159,-76.9230769230769,4,2,99,60,0,0
52816,-76.9230769230769,4,2,99,70,0,1
52903,-76.9230769230769,4,2,99,60,0,0
71304,-76.9230769230769,4,2,99,40,0,0
71479,-76.9230769230769,4,2,99,60,0,0
73746,-100,4,2,99,40,0,0
75839,1046.51771231228,4,2,99,40,1,0
91536,-83.3333333333333,4,2,99,40,0,0
93629,-76.9230769230769,4,2,99,40,0,0
93977,-76.9230769230769,4,2,99,40,0,0
94327,-83.3333333333333,4,2,99,40,0,0
94676,1046.51771231228,4,2,99,70,1,1
94676,-76.9230769230769,4,2,99,70,0,1
94763,-76.9230769230769,4,2,99,60,0,0
111420,-76.9230769230769,4,2,99,70,0,1
111507,-76.9230769230769,4,2,99,60,0,0
127118,-100,4,2,99,40,0,0
139676,-76.9230769230769,4,2,99,40,0,0
153249,1046.51771231228,4,2,99,60,1,1
153249,-76.9230769230769,4,2,99,60,0,1
153336,-76.9230769230769,4,2,99,60,0,0
169993,-76.9230769230769,4,2,99,70,0,1
170080,-76.9230769230769,4,2,99,60,0,0
186737,-76.9230769230769,4,2,99,70,0,1
186824,-76.9230769230769,4,2,99,60,0,0
203481,-76.9230769230769,4,2,99,70,0,1
203569,-76.9230769230769,4,2,99,60,0,0
220226,-71.4285714285714,4,2,99,70,0,0
220749,-71.4285714285714,4,2,99,60,0,0
221970,-83.3333333333333,4,2,99,30,0,0
222842,-83.3333333333333,4,2,99,20,0,0
224412,-83.3333333333333,4,2,99,15,0,0
226505,-83.3333333333333,4,2,99,10,0,0
228598,-83.3333333333333,4,2,99,5,0,0

[Colours]
Combo1 : 192,196,70
Combo2 : 190,58,44
Combo3 : 74,100,166
SliderBorder : 255,255,255
SliderTrackOverride : 94,64,55

[HitObjects]
114,223,510,6,0,P|91:273|112:326,1,110,8|0,0:0|0:0,0:0:0:0:
174,276,1207,2,0,L|219:276,1,36.6666666666667,0|0,0:0|0:0,0:0:0:0:
269,218,1556,6,0,B|282:191|282:191|234:143|267:85,1,146.666666666667,8|0,0:0|0:0,0:0:0:0:
420,137,2603,2,0,P|379:156|323:124,1,110,8|0,0:0|0:0,0:0:0:0:
105,28,3649,6,0,L|123:59,1,36.6666666666667,2|2,0:0|0:0,0:0:0:0:
49,93,3998,1,8,0:0:0:0:
49,93,4172,1,8,0:0:0:0:
49,93,4347,2,0,L|30:124,1,36.6666666666667,8|2,0:0|0:0,0:0:0:0:
21,204,4696,6,0,P|56:194|92:198,1,73.3333333333333,2|0,0:0|0:0,0:0:0:0:
250,169,5393,2,0,L|266:118,1,36.6666666666667,0|0,0:0|0:0,0:0:0:0:
290,58,5742,2,0,P|324:69|359:58,1,73.3333333333333,8|0,0:0|0:0,0:0:0:0:
374,61,6789,6,0,B|374:98|361:123|361:123|393:148|393:148|378:190|378:190|364:219|380:259,1,220,2|8,0:0|0:0,0:0:0:0:
231,320,8184,1,2,0:0:0:0:
302,175,8533,1,2,0:0:0:0:
169,268,8882,6,0,P|135:277|99:270,2,73.3333333333333,2|0|0,0:0|0:0|0:0,0:0:0:0:
302,175,9928,1,2,0:0:0:0:
95,47,10451,2,0,P|86:81|96:116,1,73.3333333333333,2|2,0:0|0:0,0:0:0:0:
167,156,10975,1,2,0:0:0:0:
302,244,11324,6,0,P|311:209|301:174,1,73.3333333333333
152,237,12021,2,0,B|239:212|239:212|221:204,1,110,8|0,0:0|0:0,0:0:0:0:
6,91,13068,6,0,B|38:147|7:208|7:208|56:172,1,183.333333333333,8|0,0:0|0:0,0:0:0:0:
121,124,14114,2,0,L|180:81,2,73.3333333333333,8|0|0,0:0|0:0|0:0,0:0:0:0:
88,282,15161,6,0,P|167:241|250:273,1,183.333333333333,8|0,0:0|0:0,0:0:0:0:
289,345,16207,1,4,0:3:0:0:
278,177,16549,1,8,0:3:0:0:
421,253,16892,1,4,0:3:0:0:
259,261,17235,6,0,P|195:201|217:115,1,183.333333333333,4|0,0:0|0:0,0:0:0:0:
276,63,18281,2,0,L|121:72,1,146.666666666667,8|0,0:0|0:0,0:0:0:0:
25,197,19328,6,0,B|169:227,1,146.666666666667,2|2,0:0|0:0,0:0:0:0:
290,336,20374,1,2,0:0:0:0:
290,336,20548,2,0,L|298:374,1,36.6666666666667,2|8,0:0|0:0,0:0:0:0:
367,309,20897,1,8,0:0:0:0:
367,309,21072,2,0,L|359:262,1,36.6666666666667,8|2,0:0|0:0,0:0:0:0:
346,192,21421,6,0,P|282:223|212:208,1,146.666666666667,2|0,0:0|0:0,0:0:0:0:
149,157,22293,1,0,0:0:0:0:
78,196,22467,2,0,P|101:129|71:65,1,146.666666666667,8|0,0:0|0:0,0:0:0:0:
233,35,23514,2,0,L|282:49,2,36.6666666666667,2|0|0,0:0|0:0|0:0,0:0:0:0:
299,181,24211,5,0,0:0:0:0:
299,181,24386,1,0,0:0:0:0:
224,220,24560,1,8,0:0:0:0:
224,220,24735,2,0,L|212:264,2,36.6666666666667,0|0|0,0:0|0:0|0:0,0:0:0:0:
222,139,25258,1,2,0:0:0:0:
66,189,25607,6,0,B|65:222|79:247|79:247|55:309|55:309|79:312,1,146.666666666667,2|0,0:0|0:0,0:0:0:0:
213,225,26653,2,0,P|264:206|318:210,1,110,8|0,0:0|0:0,0:0:0:0:
490,382,27700,6,0,B|498:354|498:354|493:317|493:317|509:277|491:232,1,146.666666666667,2|0,0:0|0:0,0:0:0:0:
397,107,28746,1,8,0:0:0:0:
397,107,28921,2,0,L|358:122,1,36.6666666666667,0|0,0:0|0:0,0:0:0:0:
287,150,29269,2,0,P|297:116|294:79,1,73.3333333333333,0|0,0:0|0:0,0:0:0:0:
254,9,29793,6,0,P|224:36|152:44,1,110,2|0,0:0|0:0,0:0:0:0:
4,233,30839,1,8,0:0:0:0:
166,258,31188,1,0,0:0:0:0:
56,378,31537,1,0,0:0:0:0:
212,327,31886,6,0,B|243:305|248:263|248:263|291:275|291:275|326:244|393:253,1,220,4|8,0:1|0:0,0:0:0:0:
504,354,33281,1,0,0:0:0:0:
504,354,33456,2,0,L|512:303,1,36.6666666666667,0|0,0:0|0:0,0:0:0:0:
422,353,33804,1,0,0:0:0:0:
422,353,33979,6,0,L|333:368,1,73.3333333333333,4|0,0:0|0:0,0:0:0:0:
269,352,34502,2,0,L|280:312,2,36.6666666666667,0|0|0,0:0|0:0|0:0,0:0:0:0:
190,374,35025,5,4,0:3:0:0:
107,234,35374,1,8,0:3:0:0:
26,375,35723,1,4,0:3:0:0:
196,289,36072,6,0,L|264:283,1,47.6666644846599,4|0,0:1|0:0,0:0:0:0:
324,234,36420,2,0,P|280:192|335:169,1,142.99999345398,0|0,0:0|0:0,0:0:0:0:
411,228,37118,2,0,B|412:336|412:336|437:311,1,142.99999345398,8|0,0:0|0:0,0:0:0:0:
499,239,37816,1,0,0:0:0:0:
316,293,38165,6,0,P|271:308|227:293,1,95.3333289693199,2|0,0:0|0:0,0:0:0:0:
143,339,38688,2,0,P|127:294|142:250,1,95.3333289693199,0|0,0:0|0:0,0:0:0:0:
98,165,39211,2,0,P|142:149|186:164,1,95.3333289693199,8|0,0:0|0:0,0:0:0:0:
251,235,39734,2,0,L|292:191,1,47.6666644846599,0|0,0:0|0:0,0:0:0:0:
420,66,40258,6,0,B|394:133|447:134|419:204,1,142.99999345398,2|0,0:0|0:0,0:0:0:0:
364,282,40955,2,0,L|302:282,1,47.6666644846599,0|0,0:0|0:0,0:0:0:0:
242,342,41304,2,0,B|128:342|128:342|153:324,1,142.99999345398,8|0,0:0|0:0,0:0:0:0:
209,249,42001,2,0,P|215:226|210:203,1,47.6666644846599,0|0,0:0|0:0,0:0:0:0:
177,112,42351,6,0,P|203:157|223:62,1,238.3333224233,2|0,0:0|0:0,0:0:0:0:
143,20,43397,1,8,0:0:0:0:
49,186,43746,2,0,B|50:285|50:285|86:243,1,142.99999345398,0|0,0:0|0:0,0:0:0:0:
166,286,44444,6,0,P|190:292|213:289,1,47.6666644846599,6|0,0:0|0:0,0:0:0:0:
293,238,44792,1,0,0:0:0:0:
293,238,44966,1,0,0:0:0:0:
293,238,45141,2,0,P|316:234|339:240,1,47.6666644846599,0|0,0:0|0:0,0:0:0:0:
381,326,45490,2,0,L|390:132,1,190.66665793864,8|0,0:0|0:0,0:0:0:0:
423,46,46362,5,0,0:0:0:0:
328,64,46537,2,0,P|306:70|283:65,2,47.6666644846599,2|0|0,0:0|0:0|0:0,0:0:0:0:
423,46,47060,1,0,0:0:0:0:
389,135,47234,2,0,L|379:264,1,95.3333289693199,0|8,0:0|0:0,0:0:0:0:
478,348,47932,1,0,0:0:0:0:
303,225,48281,1,0,0:0:0:0:
175,366,48630,6,0,P|199:310|75:212,1,238.3333224233,4|0,0:1|0:0,0:0:0:0:
107,301,49676,1,8,0:0:0:0:
294,336,50025,1,8,0:3:0:0:
223,158,50374,1,8,0:3:0:0:
190,344,50723,6,0,B|238:318|293:337|293:337|265:271|326:271|289:210,1,238.3333224233,4|0,0:0|0:0,0:0:0:0:
210,157,51769,1,8,0:0:0:0:
387,226,52118,1,4,0:3:0:0:
351,38,52467,1,8,0:3:0:0:
273,212,52816,6,0,P|165:227|135:122,1,238.3333224233,4|0,0:1|0:0,0:0:0:0:
207,59,53862,2,0,B|183:67|159:56|159:56|111:79|111:79|73:53|27:69,1,190.66665793864,8|0,0:0|0:0,0:0:0:0:
0,258,54909,6,0,P|21:300|23:347,1,95.3333289693199,2|0,0:0|0:0,0:0:0:0:
119,349,55432,2,0,P|166:342|213:346,1,95.3333289693199,0|0,0:0|0:0,0:0:0:0:
306,370,55955,2,0,P|293:324|298:277,2,95.3333289693199,8|0|0,0:0|0:0|0:0,0:0:0:0:
497,370,57002,6,0,P|509:324|504:277,1,95.3333289693199,2|0,0:0|0:0,0:0:0:0:
441,205,57525,2,0,P|430:159|445:114,1,95.3333289693199,0|0,0:0|0:0,0:0:0:0:
509,43,58048,1,8,0:0:0:0:
336,125,58397,1,0,0:0:0:0:
437,286,58746,1,0,0:0:0:0:
274,186,59095,6,0,P|249:143|254:93,1,95.3333289693199,2|0,0:0|0:0,0:0:0:0:
277,6,59618,2,0,B|236:15|210:34|210:34|170:36|134:54,1,142.99999345398,0|8,0:0|0:0,0:0:0:0:
11,188,60490,1,0,0:0:0:0:
92,360,60839,1,0,0:0:0:0:
282,360,61188,6,0,B|262:327|262:327|326:336|326:336|367:319|367:319|403:366|456:367,1,238.3333224233,6|0,0:0|0:0,0:0:0:0:
453,271,62234,1,8,0:0:0:0:
452,271,62583,2,0,P|469:253|477:231,2,47.6666644846599,0|0|0,0:0|0:0|0:0,0:0:0:0:
264,240,63281,5,2,0:0:0:0:
264,240,63455,2,0,L|214:270,1,47.6666644846599,0|0,0:0|0:0,0:0:0:0:
323,165,63804,1,0,0:0:0:0:
323,165,63979,2,0,L|275:152,1,47.6666644846599
187,121,64327,1,8,0:0:0:0:
187,121,64676,6,0,P|199:98|204:66,1,47.6666644846599
112,50,65025,2,0,P|99:72|95:105,1,47.6666644846599
118,186,65374,6,0,L|59:174,1,47.6666644846599,4|0,2:1|0:0,0:0:0:0:
47,269,65723,2,0,L|99:265,1,47.6666644846599
260,302,66072,2,0,L|167:326,2,95.3333289693199,0|8|0,0:0|0:0|0:0,0:0:0:0:
304,283,66857,2,0,P|306:248|302:220,1,47.6666644846599
318,189,67118,2,0,P|316:159|324:131,1,47.6666644846599
334,47,67467,6,0,P|290:61|229:66,1,95.3333289693199,4|0,0:0|0:0,0:0:0:0:
61,5,68165,2,0,L|78:64,1,47.6666644846599,0|0,0:0|0:0,0:0:0:0:
75,146,68514,2,0,P|46:148|12:158,1,47.6666644846599,8|0,0:0|0:0,0:0:0:0:
0,234,68862,2,0,P|46:243|76:280,1,95.3333289693199,0|0,0:0|0:0,0:0:0:0:
251,355,69560,5,4,0:1:0:0:
251,355,69734,1,0,0:0:0:0:
251,355,69909,1,8,0:3:0:0:
279,263,70083,2,0,L|345:248,2,47.6666644846599,2|0|0,0:0|0:0|0:0,0:0:0:0:
302,169,70607,5,12,0:3:0:0:
302,169,70781,1,0,0:0:0:0:
302,169,70955,1,0,0:0:0:0:
330,77,71130,2,0,L|396:62,2,47.6666644846599,0|2|0,0:0|0:1|0:0,0:0:0:0:
236,95,71653,6,0,P|182:125|174:65,1,142.99999345398,2|0,0:0|0:0,0:0:0:0:
79,51,72351,2,0,L|85:98,1,47.6666644846599,0|0,0:0|0:0,0:0:0:0:
5,151,72700,2,0,L|-2:213,1,47.6666644846599,0|0,0:0|0:0,0:0:0:0:
89,227,73048,2,0,L|96:283,1,47.6666644846599,0|0,0:0|0:0,0:0:0:0:
5,307,73397,2,0,L|-1:364,1,47.6666644846599,0|0,0:0|0:0,0:0:0:0:
81,369,73746,6,0,B|191:320|163:396|300:347,1,220,2|0,0:0|0:0,0:0:0:0:
319,341,75839,6,0,P|302:289|311:235,1,110,6|0,0:0|0:0,0:0:0:0:
264,179,76536,2,0,L|227:179,1,36.6666666666667,0|0,0:0|0:0,0:0:0:0:
153,181,76885,2,0,P|127:244|83:191,1,165,8|0,0:0|0:0,0:0:0:0:
98,81,77932,6,0,B|88:5|88:5|58:20,2,110,2|0|8,0:0|0:0|0:0,0:0:0:0:
226,151,79327,2,0,P|262:155|296:144,1,73.3333333333333,0|0,0:0|0:0,0:0:0:0:
410,51,80025,5,2,0:0:0:0:
478,180,80373,2,0,L|483:253,1,73.3333333333333,0|0,0:0|0:0,0:0:0:0:
366,342,81071,2,0,B|324:355|324:355|281:335|281:335|240:359|192:340,1,183.333333333333,8|0,0:0|0:0,0:0:0:0:
136,291,82118,6,0,P|152:239|134:187,1,110,2|0,0:0|0:0,0:0:0:0:
84,134,82815,1,2,0:0:0:0:
218,192,83164,2,0,L|291:192,1,73.3333333333333,8|0,0:0|0:0,0:0:0:0:
417,116,83862,1,0,0:0:0:0:
344,243,84211,1,2,0:0:0:0:
484,282,84559,6,0,P|492:246|482:211,1,73.3333333333333,0|0,0:0|0:0,0:0:0:0:
342,172,85257,2,0,P|334:208|344:243,1,73.3333333333333,8|0,0:0|0:0,0:0:0:0:
279,278,85780,2,0,L|162:278,1,110,0|2,0:0|0:0,0:0:0:0:
48,192,86653,6,0,P|55:157|49:121,1,73.3333333333333,0|0,0:0|0:0,0:0:0:0:
170,38,87350,1,8,0:0:0:0:
170,38,87525,2,0,B|213:58|213:58|319:35,1,146.666666666667,0|0,0:0|0:0,0:0:0:0:
368,81,88397,6,0,B|334:148|366:220|366:220|311:201,1,201.666666666667,2|0,0:0|0:0,0:0:0:0:
275,192,89443,2,0,L|201:192,1,73.3333333333333,8|0,0:0|0:0,0:0:0:0:
70,287,90141,1,0,0:0:0:0:
129,143,90490,6,0,P|123:231|197:279,1,183.333333333333,4|0,0:1|0:0,0:0:0:0:
284,276,91536,1,8,0:0:0:0:
437,189,91885,5,0,0:0:0:0:
437,189,92060,2,0,L|445:247,1,43.9999986572266,0|0,0:0|0:0,0:0:0:0:
359,261,92408,1,0,0:0:0:0:
359,261,92583,2,0,L|367:319,1,43.9999986572266,4|0,0:0|0:0,0:0:0:0:
279,328,92932,2,0,L|264:232,1,87.9999973144532,4|8,0:3|0:3,0:0:0:0:
369,80,93629,5,4,0:3:0:0:
196,162,93978,1,8,0:3:0:0:
371,169,94327,1,4,0:3:0:0:
202,79,94676,6,0,P|124:125|131:215,1,190.66665793864,4|0,0:1|0:0,0:0:0:0:
320,241,95722,2,0,B|379:266|424:232|424:232|433:286|433:286|460:317|458:363,1,238.3333224233,8|0,0:0|0:0,0:0:0:0:
362,353,96769,6,0,L|258:337,1,95.3333289693199,2|0,0:0|0:0,0:0:0:0:
174,364,97292,2,0,P|173:316|152:274,1,95.3333289693199,0|0,0:0|0:0,0:0:0:0:
61,243,97815,1,8,0:0:0:0:
226,147,98164,1,0,0:0:0:0:
48,77,98513,1,0,0:0:0:0:
177,214,98862,6,0,P|222:229|268:217,1,95.3333289693199,2|0,0:0|0:0,0:0:0:0:
316,135,99385,1,0,0:0:0:0:
316,135,99559,1,0,0:0:0:0:
478,34,99908,2,0,L|487:92,1,47.6666644846599,8|0,0:0|0:0,0:0:0:0:
399,123,100257,2,0,L|391:174,1,47.6666644846599,0|0,0:0|0:0,0:0:0:0:
487,172,100606,2,0,L|496:234,1,47.6666644846599,0|0,0:0|0:0,0:0:0:0:
502,314,100955,6,0,P|409:295|318:320,1,190.66665793864,2|0,0:0|0:0,0:0:0:0:
133,369,102001,2,0,P|118:350|99:335,1,47.6666644846599,8|0,0:0|0:0,0:0:0:0:
4,323,102350,2,0,L|33:224,1,95.3333289693199,0|0,0:0|0:0,0:0:0:0:
69,43,103048,6,0,P|115:56|162:49,1,95.3333289693199,4|0,0:0|0:0,0:0:0:0:
246,3,103571,1,0,0:0:0:0:
246,3,103745,2,0,L|238:49,1,47.6666644846599,0|0,0:0|0:0,0:0:0:0:
244,146,104094,2,0,P|309:117|379:120,1,142.99999345398,8|0,0:0|0:0,0:0:0:0:
460,172,104792,5,0,0:0:0:0:
375,215,104966,1,0,0:0:0:0:
443,281,105141,2,0,P|376:304|308:280,1,142.99999345398,2|0,0:0|0:0,0:0:0:0:
241,216,105838,1,0,0:0:0:0:
52,184,106187,2,0,L|55:244,1,47.6666644846599,8|0,0:0|0:0,0:0:0:0:
56,327,106536,2,0,L|163:303,1,95.3333289693199,0|0,0:0|0:0,0:0:0:0:
335,348,107234,6,0,L|431:367,2,95.3333289693199,4|0|0,0:1|0:0|0:0,0:0:0:0:
212,201,108280,2,0,L|101:221,2,95.3333289693199,0|0|0,0:0|0:0|0:0,0:0:0:0:
402,197,109327,6,0,P|474:165|409:122,1,190.66665793864,4|0,0:0|0:0,0:0:0:0:
223,167,110373,1,8,0:0:0:0:
91,29,110722,1,4,0:3:0:0:
37,212,111071,1,8,0:3:0:0:
189,97,111420,6,0,B|245:76|286:111|296:149|296:149|330:46,1,238.3333224233,4|0,0:1|0:0,0:0:0:0:
423,48,112466,2,0,L|392:143,1,95.3333289693199,8|0,0:0|0:0,0:0:0:0:
324,317,113164,1,0,0:0:0:0:
191,179,113513,6,0,B|160:207|155:256|155:256|133:106,1,238.3333224233,2|0,0:0|0:0,0:0:0:0:
161,15,114559,2,0,P|109:9|65:43,2,95.3333289693199,8|0|0,0:0|0:0|0:0,0:0:0:0:
324,114,115606,6,0,B|391:142|454:104|454:104|434:155,1,190.66665793864,2|0,0:0|0:0,0:0:0:0:
360,331,116652,1,8,0:0:0:0:
200,226,117001,2,0,P|241:204|288:210,1,95.3333289693199,0|0,0:0|0:0,0:0:0:0:
439,327,117699,6,0,B|440:253|440:253|464:210|464:210|464:142,1,190.66665793864,2|0,0:0|0:0,0:0:0:0:
314,25,118745,1,8,0:0:0:0:
220,191,119094,2,0,P|267:193|309:173,1,95.3333289693199,0|0,0:0|0:0,0:0:0:0:
120,143,119792,6,0,P|108:163|107:187,1,47.6666644846599,4|0,0:0|0:0,0:0:0:0:
160,266,120141,1,0,0:0:0:0:
160,266,120315,2,0,L|225:261,1,47.6666644846599
363,314,120838,2,0,P|409:352|418:293,1,142.99999345398,8|0,0:0|0:0,0:0:0:0:
311,135,121711,5,0,0:0:0:0:
311,135,121885,2,0,L|333:195,1,47.6666644846599,2|0,0:0|0:0,0:0:0:0:
232,171,122234,1,0,0:0:0:0:
232,171,122408,1,0,0:0:0:0:
232,171,122583,2,0,L|191:69,1,95.3333289693199,0|8,0:0|0:0,0:0:0:0:
72,227,123280,2,0,L|113:329,1,95.3333289693199,0|0,0:0|0:0,0:0:0:0:
298,330,123978,6,0,P|341:312|388:318,1,95.3333289693199,4|0,0:1|0:0,0:0:0:0:
482,151,124676,1,0,0:0:0:0:
307,227,125025,2,0,P|242:254|175:232,1,142.99999345398,8|0,0:0|0:0,0:0:0:0:
115,158,125722,1,0,0:0:0:0:
23,325,126071,6,0,L|14:373,1,47.6666644846599,4|0,0:0|0:0,0:0:0:0:
108,359,126420,2,0,P|154:346|200:354,1,95.3333289693199,0|0,0:0|0:0,0:0:0:0:
291,383,126943,1,0,0:0:0:0:
266,302,127118,6,0,B|219:195|314:195|265:89,1,220,2|0,0:0|0:0,0:0:0:0:
447,351,139676,6,0,P|474:286|443:223,1,142.99999345398,4|0,0:3|0:0,0:0:0:0:
363,173,140373,1,0,0:0:0:0:
212,290,140722,6,0,B|181:321|181:321|180:272|130:218|75:245,1,190.66665793864,4|0,0:0|0:0,0:0:0:0:
225,384,141769,2,0,L|325:277,1,142.99999345398,8|0,0:0|0:0,0:0:0:0:
337,185,142466,5,0,0:0:0:0:
411,244,142641,1,0,0:0:0:0:
322,279,142815,2,0,P|278:261|250:223,1,95.3333289693199,2|0,0:0|0:0,0:0:0:0:
211,35,143513,1,0,0:0:0:0:
164,117,143687,1,0,0:0:0:0:
76,156,143862,2,0,P|123:208|192:208,1,142.99999345398,8|0,0:0|0:0,0:0:0:0:
280,170,144560,1,0,0:0:0:0:
448,81,144908,6,0,B|463:207|463:207|435:264,1,190.66665793864,4|0,0:0|0:0,0:0:0:0:
252,319,145955,2,0,P|187:293|122:321,1,142.99999345398,8|0,0:0|0:0,0:0:0:0:
52,256,146653,5,0,0:0:0:0:
58,161,146827,1,0,0:0:0:0:
64,66,147001,2,0,L|57:176,1,95.3333289693199,2|0,0:0|0:0,0:0:0:0:
44,351,147699,5,0,0:0:0:0:
107,279,147873,1,0,0:0:0:0:
151,361,148048,2,0,P|198:372|243:358,1,95.3333289693199,12|0,0:0|0:0,0:0:0:0:
293,276,148571,2,0,L|295:213,1,47.6666644846599
239,104,149094,6,0,B|298:181|298:181|346:100,1,190.66665793864,4|2,0:0|0:0,0:0:0:0:
155,117,150141,2,0,L|208:195,1,95.3333289693199,8|0,0:0|0:0,0:0:0:0:
325,347,150839,1,0,0:0:0:0:
136,323,151187,6,0,B|179:284|255:320|255:320|263:292|298:276,1,190.66665793864,2|4,0:0|0:1,0:0:0:0:
484,230,152234,1,4,0:1:0:0:
485,208,152932,2,0,L|485:183,3,23.83333224233,0|0|0|0,0:0|0:0|0:0|0:0,0:0:0:0:
478,150,153249,6,0,B|440:159|440:159|385:134|385:134|322:194|248:144,1,238.3333224233,4|0,0:1|0:0,0:0:0:0:
312,72,154295,2,0,B|328:267|328:267|282:250,1,238.3333224233,8|0,0:0|0:0,0:0:0:0:
200,214,155342,6,0,P|150:223|107:253,1,95.3333289693199,2|0,0:0|0:0,0:0:0:0:
36,304,155865,2,0,L|33:208,1,95.3333289693199,0|0,0:0|0:0,0:0:0:0:
37,113,156388,1,8,0:0:0:0:
219,57,156737,1,0,0:0:0:0:
33,13,157086,1,0,0:0:0:0:
179,132,157435,6,0,P|226:142|272:124,1,95.3333289693199,2|0,0:0|0:0,0:0:0:0:
363,139,157958,1,0,0:0:0:0:
363,139,158132,2,0,L|359:199,1,47.6666644846599
360,283,158481,2,0,L|313:270,1,47.6666644846599,8|0,0:0|0:0,0:0:0:0:
188,225,158830,2,0,L|235:215,1,47.6666644846599
108,278,159179,2,0,L|52:264,1,47.6666644846599,0|0,0:0|0:0,0:0:0:0:
24,178,159528,6,0,B|31:133|31:133|28:19,1,142.99999345398,2|0,0:0|0:0,0:0:0:0:
123,30,160225,2,0,L|187:41,1,47.6666644846599,0|0,0:0|0:0,0:0:0:0:
305,52,160574,2,0,L|260:68,1,47.6666644846599,8|0,0:0|0:0,0:0:0:0:
393,16,160923,1,0,0:0:0:0:
504,170,161272,1,0,0:0:0:0:
316,133,161621,6,0,P|327:184|327:233,1,95.3333289693199,4|0,0:0|0:0,0:0:0:0:
380,306,162144,2,0,B|426:216,1,95.3333289693199,0|0,0:0|0:0,0:0:0:0:
503,169,162667,2,0,P|509:241|494:310,1,142.99999345398,8|0,0:0|0:0,0:0:0:0:
416,365,163365,1,0,0:0:0:0:
416,365,163539,1,0,0:0:0:0:
329,324,163714,6,0,L|276:345,1,47.6666644846599,2|0,0:0|0:0,0:0:0:0:
195,376,164063,1,0,0:0:0:0:
195,376,164237,2,0,L|91:352,1,95.3333289693199,0|0,0:0|0:0,0:0:0:0:
7,338,164760,1,8,0:0:0:0:
175,249,165109,1,0,0:0:0:0:
9,153,165458,1,0,0:0:0:0:
179,68,165807,6,0,B|216:38|216:38|211:113|209:168|256:213|296:148,1,238.3333224233,4|0,0:1|0:0,0:0:0:0:
322,75,166853,1,8,0:0:0:0:
507,28,167202,1,8,0:3:0:0:
450,210,167551,1,8,0:3:0:0:
274,135,167900,6,0,L|287:287,1,142.99999345398,4|0,0:0|0:0,0:0:0:0:
246,364,168597,2,0,L|198:343,1,47.6666644846599,0|0,0:0|0:0,0:0:0:0:
113,308,168946,2,0,P|85:346|41:361,2,95.3333289693199,4|8|4,0:3|0:3|0:3,0:0:0:0:
113,116,169993,6,0,B|128:223|128:223|157:135|208:129,1,238.3333224233,4|0,0:1|0:0,0:0:0:0:
299,158,171039,1,8,0:0:0:0:
172,301,171388,1,0,0:0:0:0:
359,337,171737,1,0,0:0:0:0:
205,223,172086,6,0,B|174:251|172:302|172:302|147:150,1,238.3333224233,2|0,0:0|0:0,0:0:0:0:
58,119,173132,2,0,L|71:214,2,95.3333289693199,8|0|0,0:0|0:0|0:0,0:0:0:0:
248,131,174179,6,0,B|336:177|335:93|430:127,1,190.66665793864,2|0,0:0|0:0,0:0:0:0:
275,239,175225,1,8,0:0:0:0:
292,49,175574,1,0,0:0:0:0:
390,212,175923,1,0,0:0:0:0:
230,95,176272,6,0,B|201:53|222:8|222:8|198:51|132:32,1,190.66665793864,2|0,0:0|0:0,0:0:0:0:
99,198,177318,1,8,0:0:0:0:
99,198,177667,2,0,L|158:102,1,95.3333289693199,0|0,0:0|0:0,0:0:0:0:
396,155,178365,5,4,0:0:0:0:
396,155,178539,1,0,0:0:0:0:
315,211,178714,1,0,0:0:0:0:
315,211,178888,2,0,L|291:269,1,47.6666644846599
170,361,179411,2,0,P|176:307|201:355,1,142.99999345398,8|0,0:0|0:0,0:0:0:0:
392,360,180284,5,0,0:0:0:0:
392,360,180458,2,0,L|451:351,1,47.6666644846599,2|0,0:0|0:0,0:0:0:0:
358,276,180807,1,0,0:0:0:0:
358,276,180981,1,0,0:0:0:0:
358,276,181156,2,0,L|250:285,1,95.3333289693199,0|8,0:0|0:0,0:0:0:0:
72,296,181853,2,0,P|51:253|58:207,1,95.3333289693199,0|0,0:0|0:0,0:0:0:0:
221,108,182551,6,0,P|266:119|312:106,1,95.3333289693199,4|0,0:1|0:0,0:0:0:0:
481,17,183249,1,0,0:0:0:0:
396,187,183598,2,0,P|369:252|391:319,1,142.99999345398,8|0,0:0|0:0,0:0:0:0:
473,364,184295,1,0,0:0:0:0:
289,311,184644,5,4,0:0:0:0:
289,311,184818,1,0,0:0:0:0:
289,311,184993,2,0,L|192:311,1,95.3333289693199,0|0,0:0|0:0,0:0:0:0:
110,357,185516,1,0,0:0:0:0:
60,275,185691,5,8,0:0:0:0:
245,232,186039,1,4,0:3:0:0:
109,97,186388,1,8,0:3:0:0:
297,68,186737,6,0,B|281:39|281:39|350:60|350:60|397:42|397:42|414:84|459:118,1,238.3333224233,4|0,0:1|0:0,0:0:0:0:
504,185,187784,2,0,L|484:233,1,47.6666644846599,8|0,0:0|0:0,0:0:0:0:
428,337,188132,2,0,L|414:292,1,47.6666644846599,0|0,0:0|0:0,0:0:0:0:
338,368,188481,2,0,L|315:308,1,47.6666644846599,0|0,0:0|0:0,0:0:0:0:
277,237,188830,6,0,P|237:262|190:260,1,95.3333289693199,2|0,0:0|0:0,0:0:0:0:
108,210,189353,1,0,0:0:0:0:
108,210,189528,1,0,0:0:0:0:
38,32,189877,2,0,L|98:39,1,47.6666644846599,8|0,0:0|0:0,0:0:0:0:
172,75,190225,1,0,0:0:0:0:
172,75,190400,1,0,0:0:0:0:
251,22,190574,1,0,0:0:0:0:
251,22,190749,1,0,0:0:0:0:
315,91,190923,6,0,P|311:138|314:201,1,95.3333289693199,4|0,0:0|0:0,0:0:0:0:
362,267,191446,2,0,P|314:263|271:282,1,95.3333289693199,0|0,0:0|0:0,0:0:0:0:
195,341,191970,1,8,0:0:0:0:
383,365,192318,1,0,0:0:0:0:
312,186,192667,1,0,0:0:0:0:
499,221,193016,6,0,L|489:374,1,142.99999345398,2|0,0:0|0:0,0:0:0:0:
348,337,193714,2,0,P|372:339|396:344,1,47.6666644846599,0|0,0:0|0:0,0:0:0:0:
253,346,194063,2,0,L|264:198,1,142.99999345398,8|0,0:0|0:0,0:0:0:0:
272,108,194760,1,0,0:0:0:0:
83,137,195109,6,0,L|89:186,1,47.6666644846599,4|0,0:0|0:0,0:0:0:0:
137,266,195458,1,0,0:0:0:0:
137,266,195632,1,0,0:0:0:0:
137,266,195807,1,0,0:0:0:0:
318,211,196156,2,0,P|363:195|411:194,1,95.3333289693199,8|0,0:0|0:0,0:0:0:0:
491,243,196679,2,0,B|487:195|487:195|491:147,1,95.3333289693199,0|0,0:0|0:0,0:0:0:0:
499,52,197202,6,0,L|444:65,1,47.6666644846599,2|0,0:0|0:0,0:0:0:0:
358,78,197551,1,0,0:0:0:0:
358,78,197726,1,0,0:0:0:0:
358,78,197900,1,0,0:0:0:0:
167,75,198249,6,0,L|117:50,1,47.6666644846599,8|0,0:0|0:0,0:0:0:0:
35,19,198598,1,0,0:0:0:0:
35,19,198772,1,0,0:0:0:0:
52,112,198946,1,0,0:0:0:0:
52,112,199121,1,0,0:0:0:0:
128,167,199295,6,0,B|200:198|195:149|267:168,1,142.99999345398,4|0,0:1|0:0,0:0:0:0:
351,213,199993,1,0,0:0:0:0:
480,72,200342,2,0,L|467:22,1,47.6666644846599,8|0,0:0|0:0,0:0:0:0:
385,62,200691,2,0,L|372:17,1,47.6666644846599,8|0,0:3|0:0,0:0:0:0:
315,126,201039,2,0,L|296:72,1,47.6666644846599,8|0,0:3|0:0,0:0:0:0:
208,51,201388,6,0,B|226:26|226:26|115:44,1,142.99999345398,4|0,0:0|0:0,0:0:0:0:
19,46,202086,2,0,P|29:67|34:91,1,47.6666644846599,4|0,0:3|0:0,0:0:0:0:
20,226,202435,2,0,P|10:205|6:182,1,47.6666644846599,8|0,0:3|0:0,0:0:0:0:
96,168,202784,6,0,L|161:145,1,47.6666644846599,4|0,0:3|0:0,0:0:0:0:
270,209,203133,2,0,L|224:198,1,47.6666644846599,8|0,0:3|0:0,0:0:0:0:
322,149,203481,6,0,P|347:224|269:208,1,190.66665793864,4|0,0:1|0:0,0:0:0:0:
156,55,204528,1,8,0:0:0:0:
78,231,204877,1,0,0:0:0:0:
239,129,205226,1,0,0:0:0:0:
78,230,205574,6,0,P|49:294|72:360,1,142.99999345398,2|0,0:0|0:0,0:0:0:0:
148,302,206272,1,0,0:0:0:0:
329,360,206621,2,0,B|371:373|371:373|404:344|404:344|451:377|500:345,1,190.66665793864,8|0,0:0|0:0,0:0:0:0:
422,171,207667,5,6,0:0:0:0:
243,238,208016,1,0,0:0:0:0:
271,49,208365,1,0,0:0:0:0:
340,226,208714,1,8,0:0:0:0:
153,187,209062,1,0,0:0:0:0:
335,131,209411,1,0,0:0:0:0:
145,108,209760,6,0,P|87:146|82:215,2,142.99999345398,2|0|8,0:0|0:0|0:0,0:0:0:0:
311,203,211156,2,0,P|359:205|401:164,1,95.3333289693199,0|0,0:0|0:0,0:0:0:0:
494,14,211853,6,0,L|504:79,1,47.6666644846599,4|0,0:0|0:0,0:0:0:0:
466,150,212202,1,0,0:0:0:0:
466,150,212377,1,0,0:0:0:0:
466,150,212551,2,0,L|481:255,2,95.3333289693199,0|8|0,0:0|0:0|0:0,0:0:0:0:
290,73,213598,2,0,P|266:77|243:72,1,47.6666644846599,0|0,0:0|0:0,0:0:0:0:
148,61,213947,6,0,L|134:117,1,47.6666644846599,2|0,0:0|0:0,0:0:0:0:
114,199,214295,1,0,0:0:0:0:
114,199,214469,1,0,0:0:0:0:
113,199,214644,2,0,P|160:192|203:212,1,95.3333289693199,0|8,0:0|0:0,0:0:0:0:
313,368,215342,1,0,0:0:0:0:
147,272,215691,1,0,0:0:0:0:
336,262,216039,6,0,P|298:290|252:293,1,95.3333289693199,4|0,0:1|0:0,0:0:0:0:
106,169,216737,1,0,0:0:0:0:
183,343,217086,1,4,0:0:0:0:
298,190,217435,1,0,0:0:0:0:
118,255,217784,1,0,0:0:0:0:
307,266,218132,6,0,P|364:229|368:160,1,142.99999345398,6|0,0:0|0:0,0:0:0:0:
334,70,218830,2,0,L|368:160,1,95.3333289693199,0|8,0:0|0:0,0:0:0:0:
447,333,219528,1,8,0:3:0:0:
257,310,219877,1,8,0:3:0:0:
420,247,220226,6,0,P|369:239|325:214,1,102.666663533529,4|0,0:1|0:0,0:0:0:0:
237,161,220749,2,0,L|229:221,1,51.3333317667644,2|0,0:1|0:0,0:0:0:0:
177,345,221098,2,0,L|170:295,1,51.3333317667644,2|0,0:1|0:0,0:0:0:0:
272,307,221447,1,2,0:1:0:0:
272,307,221970,6,0,P|338:319|402:306,1,131.99999597168,4|0,0:0|0:0,0:0:0:0:
482,150,222842,5,2,0:1:0:0:
482,150,223016,1,2,0:1:0:0:
482,150,223191,1,2,0:1:0:0:
438,73,223365,2,0,L|344:92,1,87.9999973144532,2|0,0:1|0:0,0:0:0:0:
220,60,223888,1,0,0:0:0:0:
256,192,223976,12,0,232784,0:0:0:0:
