osu file format v14

[General]
AudioFilename: FLAMER.mp3
AudioLeadIn: 0
PreviewTime: 186
Countdown: 0
SampleSet: Soft
StackLeniency: 0.7
Mode: 0
LetterboxInBreaks: 1
WidescreenStoryboard: 1

[Editor]
DistanceSpacing: 0.6
BeatDivisor: 4
GridSize: 8
TimelineZoom: 1

[Metadata]
Title:Various 443 Production MAD
TitleUnicode:Various 443 Production MAD
Artist:Jismic
ArtistUnicode:じすみっく
Creator:HICCA
Version:SHUZO FLAMER
Source:Nico Nico Douga
Tags:松岡修造 アイドルマスター シンジテルガールズ劇場 キタッ!松岡スマイル エシューゾは1球だけ SHUZO♡FLAMER the idolm@ster cinderella girls theater hicari
BeatmapID:1343432
BeatmapSetID:632939

[Difficulty]
HPDrainRate:7
CircleSize:4
OverallDifficulty:8
ApproachRate:9.3
SliderMultiplier:1.9
SliderTickRate:1

[Events]
//Background and Video events
0,0,"FLAMER.jpg",0,0
Video,-45000,"443 Production.avi"
//Break Periods
//Storyboard Layer 0 (Background)
//Storyboard Layer 1 (Fail)
//Storyboard Layer 2 (Pass)
//Storyboard Layer 3 (Foreground)
//Storyboard Sound Samples

[TimingPoints]
186,363.636363636364,4,2,1,70,1,0
22004,-100,4,2,1,70,0,1
27822,-100,4,2,1,70,0,0

[HitObjects]
418,90,186,6,0,P|444:133|429:182,1,95,2|8,0:0|0:0,0:0:0:0:
296,202,458,2,0,P|320:157|370:145,1,95,2|0,0:0|0:0,0:0:0:0:
454,252,731,2,0,P|421:248|389:232,1,47.5,8|0,0:0|0:0,0:0:0:0:
422,353,913,1,2,0:0:0:0:
256,280,1095,1,8,0:0:0:0:
90,353,1276,1,2,0:0:0:0:
127,355,1367,1,0,0:0:0:0:
164,357,1458,1,8,0:0:0:0:
177,321,1549,1,0,0:0:0:0:
190,285,1640,6,0,L|183:169,1,95,2|8,0:0|0:0,0:0:0:0:
109,102,1913,1,2,0:0:0:0:
87,120,2004,2,0,L|83:200,1,47.5
21,300,2186,2,0,L|18:252,1,47.5,8|0,0:0|0:0,0:0:0:0:
6,94,2367,2,0,P|38:51|109:35,1,95,2|8,0:0|0:0,0:0:0:0:
173,33,2640,1,0,0:0:0:0:
169,70,2731,1,2,0:0:0:0:
206,67,2822,1,0,0:0:0:0:
240,82,2913,1,8,0:0:0:0:
277,78,3004,1,0,0:0:0:0:
308,98,3095,5,2,0:0:0:0:
184,190,3276,1,8,0:0:0:0:
146,186,3367,1,2,0:0:0:0:
108,182,3458,1,0,0:0:0:0:
286,202,3640,1,8,0:0:0:0:
409,123,3822,1,2,0:0:0:0:
422,222,4004,1,8,0:0:0:0:
396,24,4185,1,2,0:0:0:0:
434,28,4276,1,0,0:0:0:0:
472,32,4367,1,8,0:0:0:0:
496,256,4549,6,0,P|441:304|366:291,1,142.5,10|0,0:0|0:0,0:0:0:0:
301,180,4913,2,0,P|370:175|422:222,1,142.5,8|0,0:0|0:0,0:0:0:0:
343,255,5276,1,8,0:0:0:0:
488,179,5458,1,2,0:0:0:0:
444,373,5640,1,2,0:0:0:0:
438,335,5731,1,0,0:0:0:0:
432,297,5822,1,2,0:0:0:0:
426,259,5913,1,2,0:0:0:0:
421,221,6004,6,0,P|369:174|303:177,1,95,4|8,0:0|0:0,0:0:0:0:
307,89,6276,2,0,P|292:156|328:212,1,95,2|0,0:0|0:0,0:0:0:0:
250,254,6549,2,0,P|315:232|346:173,2,95,8|2|8,0:0|0:0|0:0,0:0:0:0:
325,350,7004,1,0,0:0:0:0:
325,350,7095,2,0,P|255:336|186:349,1,142.5,10|0,0:0|0:0,0:0:0:0:
108,381,7458,6,0,P|82:341|83:295,1,95,2|8,0:0|0:0,0:0:0:0:
100,184,7731,1,2,0:0:0:0:
132,184,7822,2,0,P|171:158|217:159,1,95,0|8,0:0|0:0,0:0:0:0:
169,56,8186,1,2,0:0:0:0:
195,246,8367,2,0,L|144:240,1,47.5,8|0,0:0|0:0,0:0:0:0:
27,297,8549,2,0,P|40:239|19:171,1,95,10|0,0:0|0:0,0:0:0:0:
14,99,8822,1,0,0:0:0:0:
14,123,8913,1,2,0:0:0:0:
169,56,9095,6,0,L|60:44,1,95,8|0,0:0|0:0,0:0:0:0:
147,240,9458,1,10,0:0:0:0:
272,103,9640,1,2,0:0:0:0:
90,139,9822,1,8,0:0:0:0:
259,216,10004,1,2,0:0:0:0:
169,56,10186,1,8,0:0:0:0:
218,290,10367,6,0,P|279:299|325:265,1,95,2|8,0:0|0:0,0:0:0:0:
326,163,10640,1,0,0:0:0:0:
300,142,10731,2,0,P|239:133|193:167,1,95,0|8,0:0|0:0,0:0:0:0:
185,175,11004,1,0,0:0:0:0:
199,129,11095,5,2,0:0:0:0:
235,98,11186,1,0,0:0:0:0:
281,90,11276,1,8,0:0:0:0:
325,106,11367,1,0,0:0:0:0:
359,138,11458,1,2,0:0:0:0:
344,193,11549,1,2,0:0:0:0:
371,243,11640,1,10,0:0:0:0:
424,262,11731,1,2,0:0:0:0:
476,239,11822,6,0,L|471:126,1,95,4|0,0:0|0:0,0:0:0:0:
400,25,12095,2,0,L|404:119,1,95,2|0,0:0|0:0,0:0:0:0:
343,192,12367,2,0,L|339:119,1,47.5,2|0,0:0|0:0,0:0:0:0:
256,32,12549,5,4,0:0:0:0:
256,32,12731,1,4,0:0:0:0:
256,32,12913,2,0,L|263:195,1,142.5,4|0,0:0|0:0,0:0:0:0:
285,302,13276,6,0,P|258:276|164:272,1,95,4|0,0:0|0:0,0:0:0:0:
76,211,13549,1,2,0:0:0:0:
76,211,13640,2,0,P|112:200|162:121,1,95,2|2,0:0|0:0,0:0:0:0:
259,75,14004,5,4,0:0:0:0:
76,126,14186,1,4,0:0:0:0:
213,342,14367,2,0,P|284:369|365:346,1,142.5,4|0,0:0|0:0,0:0:0:0:
293,248,14731,6,0,L|228:258,1,47.5,4|0,0:0|0:0,0:0:0:0:
135,278,14913,1,2,0:0:0:0:
394,314,15095,1,0,0:0:0:0:
401,276,15186,1,0,0:0:0:0:
409,239,15276,1,2,0:0:0:0:
417,201,15367,1,2,0:0:0:0:
425,163,15458,5,4,0:0:0:0:
243,178,15640,1,4,0:0:0:0:
468,179,15822,1,4,0:0:0:0:
200,162,16004,1,2,0:0:0:0:
511,195,16186,5,4,0:0:0:0:
468,179,16549,1,12,0:0:0:0:
425,163,16913,1,6,0:0:0:0:
382,147,17276,2,0,P|427:109|423:165,1,142.5,10|0,0:0|0:0,0:0:0:0:
306,131,17640,6,0,P|323:80|366:44,1,95,4|8,0:0|0:0,0:0:0:0:
355,221,17913,1,0,0:0:0:0:
355,221,18004,2,0,P|338:170|295:134,1,95,2|8,0:0|0:0,0:0:0:0:
184,180,18367,1,2,0:0:0:0:
214,52,18549,1,8,0:0:0:0:
56,130,18731,2,0,P|85:225|101:235,1,95,0|8,0:0|0:0,0:0:0:0:
139,152,19004,1,0,0:0:0:0:
219,174,19095,6,0,P|218:133|170:70,1,95,2|10,0:0|0:0,0:0:0:0:
294,110,19458,1,0,0:0:0:0:
162,244,19640,1,8,0:0:0:0:
112,63,19822,1,2,0:0:0:0:
294,110,20004,2,0,P|258:107|227:117,1,47.5,8|0,0:0|0:0,0:0:0:0:
131,189,20186,2,0,P|80:195|23:180,1,95,2|8,0:0|0:0,0:0:0:0:
112,63,20458,1,0,0:0:0:0:
152,78,20549,6,0,P|161:126|147:179,1,95,2|8,0:0|0:0,0:0:0:0:
122,307,20913,1,2,0:0:0:0:
264,236,21095,1,8,0:0:0:0:
89,122,21276,1,2,0:0:0:0:
116,114,21367,1,0,0:0:0:0:
143,106,21458,1,8,0:0:0:0:
170,98,21549,1,0,0:0:0:0:
197,90,21640,1,2,0:0:0:0:
224,82,21731,1,0,0:0:0:0:
251,74,21822,1,10,0:0:0:0:
278,66,21913,1,2,0:0:0:0:
305,58,22004,5,6,0:0:0:0:
282,242,22186,1,8,0:0:0:0:
160,133,22367,5,0,0:0:0:0:
371,134,22549,2,0,L|312:134,1,47.5,10|2,0:0|0:0,0:0:0:0:
200,301,22731,5,0,0:0:0:0:
190,53,22913,2,0,L|194:125,1,47.5,8|0,0:0|0:0,0:0:0:0:
348,226,23095,5,2,0:0:0:0:
83,220,23276,1,8,0:0:0:0:
341,57,23458,6,0,L|340:138,1,47.5,6|0,0:0|0:0,0:0:0:0:
341,330,23640,1,8,0:0:0:0:
442,92,23822,5,0,0:0:0:0:
239,295,24004,2,0,L|307:298,1,47.5,10|2,0:0|0:0,0:0:0:0:
490,194,24186,6,0,L|403:188,1,47.5
190,194,24367,1,8,0:0:0:0:
452,305,24549,6,0,L|447:219,1,47.5,2|0,0:0|0:0,0:0:0:0:
229,82,24731,1,8,0:0:0:0:
340,342,24913,6,0,L|245:333,1,95,2|0,0:0|0:0,0:0:0:0:
48,263,25276,2,0,L|142:254,1,95,0|2,0:0|0:0,0:0:0:0:
142,254,25549,1,2,0:0:0:0:
105,126,25731,1,2,0:0:0:0:
105,126,25822,1,2,0:0:0:0:
108,324,26004,1,0,0:0:0:0:
24,193,26186,1,2,0:0:0:0:
194,141,26367,5,8,0:0:0:0:
250,340,26549,2,0,P|220:347|183:337,1,47.5,2|2,0:0|0:0,0:0:0:0:
396,264,26731,2,0,P|417:286|426:323,1,47.5
258,175,26913,2,0,P|266:145|294:118,1,47.5,2|0,0:0|0:0,0:0:0:0:
437,60,27095,5,8,0:0:0:0:
256,356,27458,5,8,0:0:0:0:
75,60,27822,5,14,0:0:0:0:
