osu file format v14

[General]
AudioFilename: Smile.mp3
AudioLeadIn: 0
PreviewTime: 5290
Countdown: 0
SampleSet: Soft
StackLeniency: 0.7
Mode: 0
LetterboxInBreaks: 1
WidescreenStoryboard: 1

[Editor]
DistanceSpacing: 1
BeatDivisor: 4
GridSize: 8
TimelineZoom: 1

[Metadata]
Title:Various 443 Production MAD
TitleUnicode:Various 443 Production MAD
Artist:Jismic
ArtistUnicode:じすみっく
Creator:HICCA
Version:Kita! Matsuoka Smile
Source:Nico Nico Douga
Tags:松岡修造 アイドルマスター シンジテルガールズ劇場 キタッ!松岡スマイル エシューゾは1球だけ SHUZO♡FLAMER the idolm@ster cinderella girls theater hicari
BeatmapID:1343431
BeatmapSetID:632939

[Difficulty]
HPDrainRate:7
CircleSize:4
OverallDifficulty:7.5
ApproachRate:9.1
SliderMultiplier:1.8
SliderTickRate:1

[Events]
//Background and Video events
0,0,"Smile.jpg",0,0
Video,-5000,"443 Production.avi"
//Break Periods
//Storyboard Layer 0 (Background)
//Storyboard Layer 1 (Fail)
//Storyboard Layer 2 (Pass)
//Storyboard Layer 3 (Foreground)
//Storyboard Sound Samples

[TimingPoints]
192,363.636363636364,4,2,1,70,1,0
17646,-100,4,2,1,70,0,1
28919,-100,4,2,1,5,0,0

[HitObjects]
109,88,192,6,0,P|152:96|196:88,1,90,2|0,0:0|0:0,0:0:0:0:
288,33,464,1,0,0:0:0:0:
288,33,555,2,0,P|308:74|307:124,1,90,8|0,0:0|0:0,0:0:0:0:
154,13,919,1,2,0:0:0:0:
33,118,1101,2,0,L|46:220,1,90,2|8,0:0|0:0,0:0:0:0:
180,358,1464,2,0,B|196:367|196:367|223:319|193:256,1,135,2|0,0:0|0:0,0:0:0:0:
164,238,1828,2,0,L|282:225,1,90,2|8,0:0|0:0,0:0:0:0:
347,343,2192,1,0,0:0:0:0:
415,186,2373,5,0,0:0:0:0:
421,343,2555,1,10,0:0:0:0:
283,270,2737,1,8,0:0:0:0:
489,231,2919,1,2,0:0:0:0:
307,154,3101,2,0,L|204:154,1,90,2|0,0:0|0:0,0:0:0:0:
505,120,3464,2,0,L|402:120,1,90,8|0,0:0|0:0,0:0:0:0:
347,209,3737,1,0,0:0:0:0:
347,209,3828,2,0,P|368:212|392:209,1,45,2|0,0:0|0:0,0:0:0:0:
512,193,4010,2,0,P|498:209|489:231,1,45,2|0,0:0|0:0,0:0:0:0:
443,343,4192,2,0,P|435:323|420:304,1,45,8|0,0:0|0:0,0:0:0:0:
283,270,4373,6,0,P|247:297|204:307,1,90,2|0,0:0|0:0,0:0:0:0:
160,295,4646,1,0,0:0:0:0:
115,288,4737,1,0,0:0:0:0:
75,309,4828,1,0,0:0:0:0:
53,348,4919,1,8,0:0:0:0:
38,295,5010,1,0,0:0:0:0:
42,241,5101,1,2,0:0:0:0:
59,190,5192,1,2,0:0:0:0:
92,148,5282,5,2,0:0:0:0:
267,183,5464,1,2,0:0:0:0:
146,52,5646,1,8,0:0:0:0:
166,229,5828,1,2,0:0:0:0:
253,73,6010,2,0,B|363:10|362:104|251:72,1,180,2|8,0:0|0:0,0:0:0:0:
46,47,6555,1,2,0:0:0:0:
165,141,6737,5,0,0:0:0:0:
161,105,6828,1,0,0:0:0:0:
157,69,6919,1,0,0:0:0:0:
76,316,7101,1,12,0:0:0:0:
253,245,7282,6,0,B|203:229|203:229|160:229,2,90,2|0|0,0:0|0:0|0:0,0:0:0:0:
294,346,7737,1,0,0:0:0:0:
294,346,7828,2,0,P|341:349|398:329,1,90,8|0,0:0|0:0,0:0:0:0:
480,250,8192,1,2,0:0:0:0:
294,168,8373,2,0,P|338:164|381:176,1,90,2|8,0:0|0:0,0:0:0:0:
306,75,8737,1,2,0:0:0:0:
330,259,8919,1,0,0:0:0:0:
303,57,9101,1,2,0:0:0:0:
334,277,9282,6,0,L|318:171,1,90,10|0,0:0|0:0,0:0:0:0:
411,91,9555,1,0,0:0:0:0:
432,81,9646,2,0,L|418:169,1,90,0|2,0:0|0:0,0:0:0:0:
255,172,10010,1,8,0:0:0:0:
396,284,10192,2,0,L|409:204,1,45
499,85,10373,2,0,P|459:95|397:85,1,90,2|0,0:0|0:0,0:0:0:0:
273,32,10737,1,8,0:0:0:0:
330,208,10919,1,2,0:0:0:0:
238,141,11101,5,0,0:0:0:0:
388,33,11282,1,10,0:0:0:0:
330,208,11464,1,8,0:0:0:0:
273,32,11646,1,2,0:0:0:0:
419,147,11828,2,0,B|417:176|417:176|424:176|424:176|417:192|417:192|410:192|410:192|416:209|416:209|423:208|423:208|416:232|416:232|407:231|407:231|413:252|413:252|423:252|423:252|414:279,1,180,2|8,0:0|0:0,0:0:0:0:
343,363,12282,1,0,0:0:0:0:
320,348,12373,2,0,P|278:334|236:350,1,90,2|0,0:0|0:0,0:0:0:0:
56,79,12737,5,8,0:0:0:0:
39,219,12919,1,8,0:0:0:0:
152,286,13101,6,0,P|195:270|261:284,2,90,2|0|0,0:0|0:0|0:0,0:0:0:0:
47,340,13555,1,0,0:0:0:0:
39,309,13646,2,0,L|39:200,1,90,8|0,0:0|0:0,0:0:0:0:
204,349,14010,1,2,0:0:0:0:
154,183,14192,2,0,P|66:187|30:253,1,135,10|0,0:0|0:0,0:0:0:0:
114,259,14555,1,8,0:0:0:0:
71,110,14737,1,0,0:0:0:0:
221,147,14919,1,0,0:0:0:0:
19,172,15101,6,0,P|-6:139|-7:91,1,90,10|0,0:0|0:0,0:0:0:0:
80,31,15373,1,0,0:0:0:0:
111,39,15464,2,0,P|142:67|151:114,1,90,0|2,0:0|0:0,0:0:0:0:
114,259,15828,1,8,0:0:0:0:
295,164,16010,1,0,0:0:0:0:
259,160,16101,1,0,0:0:0:0:
223,156,16192,1,2,0:0:0:0:
305,38,16373,1,0,0:0:0:0:
306,242,16555,1,8,0:0:0:0:
187,152,16737,1,2,0:0:0:0:
331,168,16919,2,0,L|443:181,1,90
482,288,17282,5,8,0:0:0:0:
508,88,17464,2,0,L|418:77,1,90,2|0,0:0|0:0,0:0:0:0:
236,112,17828,1,2,0:0:0:0:
357,24,18010,1,8,0:0:0:0:
357,24,18101,1,0,0:0:0:0:
357,24,18192,1,0,0:0:0:0:
416,180,18373,1,2,0:0:0:0:
390,217,18464,1,0,0:0:0:0:
380,261,18555,1,10,0:0:0:0:
390,304,18646,1,0,0:0:0:0:
415,341,18737,1,8,0:0:0:0:
250,295,18919,6,0,L|173:298,1,45,2|0,0:0|0:0,0:0:0:0:
82,306,19101,1,0,0:0:0:0:
60,134,19282,2,0,L|64:192,1,45,2|0,0:0|0:0,0:0:0:0:
82,306,19464,1,8,0:0:0:0:
214,163,19646,2,0,L|176:201,1,45
82,306,19828,1,2,0:0:0:0:
124,320,19919,1,0,0:0:0:0:
168,326,20010,1,10,0:0:0:0:
212,319,20101,1,0,0:0:0:0:
250,295,20192,2,0,P|268:271|314:259,1,45
425,281,20373,1,8,0:0:0:0:
254,118,20555,6,0,P|223:111|191:112,1,45,2|0,0:0|0:0,0:0:0:0:
132,220,20737,2,0,P|163:227|195:226,1,45,2|0,0:0|0:0,0:0:0:0:
289,145,20919,2,0,P|259:121|224:105,1,45,8|0,0:0|0:0,0:0:0:0:
96,192,21101,2,0,P|125:215|160:231,1,45,2|0,0:0|0:0,0:0:0:0:
309,185,21282,1,2,0:0:0:0:
289,145,21373,1,0,0:0:0:0:
292,95,21464,1,2,0:0:0:0:
331,57,21555,1,0,0:0:0:0:
389,61,21646,1,8,0:0:0:0:
154,28,21828,6,0,B|174:42|199:20|148:-24|74:-24|148:78|171:91|148:112|160:138|147:157,1,180,2|0,0:0|0:0,0:0:0:0:
59,248,22282,1,0,0:0:0:0:
59,248,22373,2,0,P|38:208|36:171,1,45,8|0,0:0|0:0,0:0:0:0:
185,341,22555,2,0,P|163:334|143:323,1,45,2|0,0:0|0:0,0:0:0:0:
341,330,22737,2,0,P|320:339|298:343,1,45,2|0,0:0|0:0,0:0:0:0:
454,223,22919,1,8,0:0:0:0:
445,243,23010,1,0,0:0:0:0:
429,260,23101,2,0,P|448:200|424:126,1,135,8|0,0:0|0:0,0:0:0:0:
361,82,23464,6,0,P|405:68|478:70,1,90,2|0,0:0|0:0,0:0:0:0:
280,21,23828,1,8,0:0:0:0:
330,181,24010,1,2,0:0:0:0:
145,101,24192,1,2,0:0:0:0:
305,101,24373,1,0,0:0:0:0:
161,191,24555,2,0,P|111:182|57:133,1,90,8|0,0:0|0:0,0:0:0:0:
105,300,24828,1,0,0:0:0:0:
119,309,24919,6,0,L|178:306,1,45,2|0,0:0|0:0,0:0:0:0:
254,229,25101,2,0,L|114:236,1,135,8|0,0:0|0:0,0:0:0:0:
11,238,25464,1,10,0:0:0:0:
161,191,25646,1,2,0:0:0:0:
89,355,25828,1,0,0:0:0:0:
59,110,26010,1,8,0:0:0:0:
67,74,26101,1,0,0:0:0:0:
75,38,26192,1,0,0:0:0:0:
161,191,26373,5,2,0:0:0:0:
161,191,26464,1,2,0:0:0:0:
309,162,26646,5,2,0:0:0:0:
309,162,26737,1,2,0:0:0:0:
116,294,26919,5,2,0:0:0:0:
116,294,27010,1,2,0:0:0:0:
400,227,27192,5,2,0:0:0:0:
398,225,27282,2,0,B|366:195|375:159|375:159|394:150|394:150|404:104|363:76,1,180,2|0,0:0|0:0,0:0:0:0:
278,308,27828,6,0,L|221:302,1,45,8|0,0:0|0:0,0:0:0:0:
40,229,28010,2,0,P|117:225|177:159,1,135,2|0,0:0|0:0,0:0:0:0:
71,102,28373,1,8,0:0:0:0:
512,384,28919,5,4,0:0:0:0:
