osu file format v14

[General]
AudioFilename: audio.mp3
AudioLeadIn: 0
PreviewTime: 82643
Countdown: 0
SampleSet: Soft
StackLeniency: 0.7
Mode: 3
LetterboxInBreaks: 0
SpecialStyle: 1
WidescreenStoryboard: 1

[Editor]
DistanceSpacing: 0.6
BeatDivisor: 4
GridSize: 16
TimelineZoom: 1.1

[Metadata]
Title:Piano Rendanteki "You" ~Higurashi no Naku Koro ni~
TitleUnicode:ピアノ連弾的「You」~ひぐらしのなく頃に~
Artist:Jipotan
ArtistUnicode:じぽたん
Creator:imariL
Version:Hyper
Source:
Tags:MIDI NekoHime .RED 07th Expansion When They Cry arrange Neta Kuzino Chocoliti Lami- other instrumental
BeatmapID:3767747
BeatmapSetID:1830075

[Difficulty]
HPDrainRate:7
CircleSize:4
OverallDifficulty:8
ApproachRate:5
SliderMultiplier:1.4
SliderTickRate:1

[Events]
//Background and Video events
0,0,"bg.png",0,0
//Break Periods
//Storyboard Layer 0 (Background)
//Storyboard Layer 1 (Fail)
//Storyboard Layer 2 (Pass)
//Storyboard Layer 3 (Foreground)
//Storyboard Layer 4 (Overlay)
//Storyboard Sound Samples
Sample,28643,0,"2G#4.ogg",40
Sample,29500,0,"2B3.ogg",40
Sample,30357,0,"2E3.ogg",40
Sample,32929,0,"0.50G#3.ogg",40
Sample,33250,0,"0.50C#4.ogg",40
Sample,33572,0,"0.50C#4.ogg",40
Sample,33572,0,"0.50G#3.ogg",40
Sample,33786,0,"0.50A4.ogg",40
Sample,34107,0,"0.50A4.ogg",40
Sample,34429,0,"0.50B3.ogg",40
Sample,34643,0,"0.50B4.ogg",40
Sample,34965,0,"0.50F#3.ogg",40
Sample,35286,0,"0.50B3.ogg",40
Sample,35500,0,"0.50B2.ogg",40
Sample,35715,0,"0.50B3.ogg",40
Sample,35929,0,"0.50B4.ogg",40
Sample,36357,0,"0.50G#4.ogg",40
Sample,36679,0,"0.50C#5.ogg",40
Sample,37000,0,"0.50C#5.ogg",40
Sample,37215,0,"0.50A3.ogg",40
Sample,37536,0,"0.50A3.ogg",40
Sample,37857,0,"0.50B2.ogg",40
Sample,38072,0,"0.50B4.ogg",40
Sample,38393,0,"0.50B4.ogg",40
Sample,38715,0,"0.50E3.ogg",40
Sample,39143,0,"0.50G#2.ogg",40
Sample,39357,0,"0.50D#3.ogg",40
Sample,39572,0,"0.50D#3.ogg",40
Sample,39786,0,"0.50C#3.ogg",40
Sample,40107,0,"0.50C#4.ogg",40
Sample,40429,0,"0.50B4.ogg",40
Sample,40643,0,"0.25E3.ogg",40
Sample,40965,0,"1E3.ogg",40
Sample,41286,0,"0.50B3.ogg",40
Sample,41500,0,"2E2.ogg",40
Sample,41500,0,"0.50E3.ogg",40
Sample,41822,0,"0.50E3.ogg",40
Sample,42357,0,"0.50F#4.ogg",40
Sample,42572,0,"0.50F#4.ogg",40
Sample,42786,0,"1C3.ogg",40
Sample,43215,0,"0.50C#4.ogg",40
Sample,43536,0,"0.50C#4.ogg",40
Sample,43857,0,"0.50C#4.ogg",40
Sample,44072,0,"0.50E3.ogg",40
Sample,44393,0,"0.50E5.ogg",40
Sample,44929,0,"0.50B4.ogg",40
Sample,45250,0,"0.50B4.ogg",40
Sample,45572,0,"0.50B3.ogg",40
Sample,45786,0,"0.50B3.ogg",40
Sample,46965,0,"0.50B5s.ogg",40
Sample,48679,0,"0.50F#4.ogg",40
Sample,49000,0,"0.50B5s.ogg",40
Sample,49215,0,"1G#5.ogg",40
Sample,49322,0,"2G#3.ogg",40
Sample,49536,0,"2D#4.ogg",40
Sample,49643,0,"1G#4.ogg",40
Sample,49643,0,"2E4.ogg",40
Sample,50393,0,"0.50E5s.ogg",40
Sample,50715,0,"1E4.ogg",40
Sample,51572,0,"0.50E5.ogg",40
Sample,51786,0,"2B2.ogg",40
Sample,52107,0,"2C#4.ogg",40
Sample,52750,0,"2G3.ogg",40
Sample,52965,0,"2D#4.ogg",40
Sample,53179,0,"2B4.ogg",40
Sample,53393,0,"0.25B4.ogg",40
Sample,56072,0,"2E4.ogg",40
Sample,56179,0,"0.25B4.ogg",40
Sample,56393,0,"0.50B4.ogg",40
Sample,56500,0,"0.25B5.ogg",40
Sample,56607,0,"0.25G#6.ogg",40
Sample,56715,0,"0.25E6.ogg",40
Sample,56822,0,"0.25B5.ogg",40
Sample,57250,0,"0.50G#5.ogg",40
Sample,57572,0,"1G#4.ogg",40
Sample,58643,0,"4B3.ogg",40
Sample,58750,0,"3F#4.ogg",40
Sample,58857,0,"4B4.ogg",40
Sample,60465,0,"0.50D#4.ogg",40
Sample,60572,0,"1G#3.ogg",40
Sample,60679,0,"0.50C5.ogg",40
Sample,60786,0,"1F#3.ogg",40
Sample,60893,0,"2D#3.ogg",40
Sample,61000,0,"1G#3.ogg",40
Sample,61107,0,"1C4.ogg",40
Sample,61215,0,"1D#4.ogg",40
Sample,61322,0,"0.50G#4.ogg",40
Sample,61429,0,"0.50C5.ogg",40
Sample,61536,0,"0.25D#5.ogg",40
Sample,61643,0,"0.50G#5.ogg",40
Sample,61857,0,"0.50B5.ogg",40
Sample,62072,0,"0.50D#3.ogg",40
Sample,62072,0,"0.50B4.ogg",40
Sample,62393,0,"0.50B5.ogg",40
Sample,62715,0,"0.50C#3.ogg",40
Sample,62929,0,"0.50E3.ogg",40
Sample,63250,0,"0.50F#4.ogg",40
Sample,63572,0,"0.50A#3.ogg",40
Sample,63786,0,"0.50F#4.ogg",40
Sample,64107,0,"0.50E3.ogg",40
Sample,64429,0,"0.50B1.ogg",40
Sample,64965,0,"0.50B4.ogg",40
Sample,64965,0,"0.50E3.ogg",40
Sample,65500,0,"0.50C#3.ogg",40
Sample,66036,0,"0.25G#3.ogg",40
Sample,66250,0,"0.25F#3.ogg",40
Sample,66679,0,"0.50F#2.ogg",40
Sample,67000,0,"0.50C#5.ogg",40
Sample,67215,0,"0.50E3.ogg",40
Sample,67215,0,"0.50C#4.ogg",40
Sample,67322,0,"0.25A#5.ogg",40
Sample,67429,0,"0.25A#5.ogg",40
Sample,67536,0,"0.50C#4.ogg",40
Sample,67536,0,"0.25A#5.ogg",40
Sample,67536,0,"0.50C#3.ogg",40
Sample,67643,0,"0.25A#5.ogg",40
Sample,67750,0,"0.25A#5.ogg",40
Sample,67857,0,"0.25A#5.ogg",40
Sample,67857,0,"0.50B1.ogg",40
Sample,67857,0,"0.50C#4.ogg",40
Sample,67965,0,"0.25A#5.ogg",40
Sample,68072,0,"1G#2.ogg",40
Sample,68072,0,"0.25A#5.ogg",40
Sample,68179,0,"0.25A5.ogg",40
Sample,68286,0,"0.25G#5.ogg",40
Sample,68393,0,"0.25G5.ogg",40
Sample,68500,0,"0.25F#5.ogg",40
Sample,68500,0,"0.50C2.ogg",40
Sample,68607,0,"0.25F5.ogg",40
Sample,68715,0,"0.25E5.ogg",40
Sample,68715,0,"0.50C2.ogg",40
Sample,68822,0,"0.25D#5.ogg",40
Sample,69250,0,"0.50G#3.ogg",40
Sample,69465,0,"0.25B4.ogg",40
Sample,70322,0,"0.50F#4.ogg",40
Sample,70857,0,"0.25A#4.ogg",40
Sample,71179,0,"0.25B4.ogg",40
Sample,71286,0,"0.25A#4.ogg",40
Sample,71393,0,"0.25A4.ogg",40
Sample,71607,0,"0.25E5.ogg",40
Sample,71715,0,"0.50E4.ogg",40
Sample,71822,0,"0.25C#5.ogg",40
Sample,72143,0,"0.50F#4.ogg",40
Sample,72572,0,"0.25B3.ogg",40
Sample,72572,0,"0.25B4.ogg",40
Sample,72679,0,"0.50C4.ogg",40
Sample,72893,0,"0.25G#4.ogg",40
Sample,72893,0,"0.25G#3.ogg",40
Sample,73000,0,"0.25G3.ogg",40
Sample,73107,0,"0.25F#3.ogg",40
Sample,73107,0,"0.25F#4.ogg",40
Sample,73536,0,"1C#3.ogg",40
Sample,73857,0,"0.50E3.ogg",40
Sample,74286,0,"0.50B4.ogg",40
Sample,74500,0,"1A2.ogg",40
Sample,74929,0,"1B2.ogg",40
Sample,74929,0,"0.50B3.ogg",40
Sample,75357,0,"1B3.ogg",40
Sample,75357,0,"1B4.ogg",40
Sample,75786,0,"0.50B4.ogg",40
Sample,76107,0,"0.50B4.ogg",40
Sample,76429,0,"0.50B4.ogg",40
Sample,76643,0,"0.50F3.ogg",40
Sample,76965,0,"0.50F3.ogg",40
Sample,77286,0,"0.50F3.ogg",40
Sample,77500,0,"0.50E3.ogg",40
Sample,77822,0,"0.50E3.ogg",40
Sample,78143,0,"0.25A#4.ogg",40
Sample,78572,0,"0.50E3.ogg",40
Sample,79536,0,"0.50G#4.ogg",40
Sample,79857,0,"0.50G#4.ogg",40
Sample,80072,0,"0.50A#3.ogg",40
Sample,80393,0,"0.50A#3.ogg",40
Sample,80929,0,"0.50D#4.ogg",40
Sample,82215,0,"1D#4.ogg",40
Sample,82215,0,"1C3.ogg",40
Sample,82965,0,"0.50B4.ogg",40
Sample,83286,0,"0.50B4.ogg",40
Sample,83500,0,"0.50A#2.ogg",40
Sample,83822,0,"0.50C#4.ogg",40
Sample,84143,0,"0.50F#4.ogg",40
Sample,84357,0,"0.50E3.ogg",40
Sample,84679,0,"0.50E3.ogg",40
Sample,85000,0,"0.50F#3.ogg",40
Sample,85322,0,"0.25B4.ogg",40
Sample,85536,0,"0.25A#4.ogg",40
Sample,85643,0,"0.50C3.ogg",40
Sample,85857,0,"0.50G#5.ogg",40
Sample,86072,0,"0.50F#5.ogg",40
Sample,86715,0,"0.50C#4.ogg",40
Sample,86929,0,"0.50C#4.ogg",40
Sample,87250,0,"0.50B3.ogg",40
Sample,87250,0,"0.50F#5.ogg",40
Sample,87465,0,"0.25E5.ogg",40
Sample,87572,0,"0.50B3.ogg",40
Sample,87786,0,"0.50B5.ogg",40
Sample,87786,0,"0.25C#6.ogg",40
Sample,88000,0,"0.25E5.ogg",40
Sample,88215,0,"0.25D#5.ogg",40
Sample,88429,0,"0.25D5.ogg",40
Sample,88643,0,"0.25C#6.ogg",40
Sample,88965,0,"0.25A#4.ogg",40
Sample,89393,0,"0.25E4.ogg",40
Sample,89822,0,"0.50C#4.ogg",40
Sample,90143,0,"0.50G#3.ogg",40
Sample,90357,0,"0.25E3.ogg",40
Sample,90357,0,"0.50A2.ogg",40
Sample,90465,0,"0.25E5.ogg",40
Sample,90572,0,"0.25F#5.ogg",40
Sample,90679,0,"0.50B4.ogg",40
Sample,91000,0,"0.50B3.ogg",40
Sample,91215,0,"0.50B3.ogg",40
Sample,91857,0,"0.50B3.ogg",40
Sample,92072,0,"1D#4.ogg",40
Sample,92500,0,"1C2.ogg",40
Sample,92500,0,"1C4.ogg",40
Sample,93572,0,"0.50E3.ogg",40
Sample,93786,0,"0.50E3.ogg",40
Sample,93893,0,"0.25E4.ogg",40
Sample,93893,0,"0.25E3.ogg",40
Sample,94000,0,"0.25E3.ogg",40
Sample,94000,0,"0.25E4.ogg",40
Sample,94107,0,"1E3.ogg",40
Sample,94107,0,"1A4.ogg",40
Sample,94643,0,"1F#3.ogg",40
Sample,94643,0,"1F#4.ogg",40
Sample,94965,0,"0.50B3.ogg",40
Sample,95179,0,"0.50F#3.ogg",40
Sample,95286,0,"0.50B3.ogg",40
Sample,95286,0,"0.50F#2.ogg",40
Sample,95500,0,"0.50B2.ogg",40

[TimingPoints]
0,750,4,2,0,40,1,0
0,-57.1428571428571,4,2,0,40,0,0
15000,845.070422535211,4,2,0,40,1,0
15000,-50.761421319797,4,2,0,40,0,0
16690,1250,4,2,0,40,1,0
16690,-34.2465753424658,4,2,0,40,0,0
19215,428.571428571429,4,2,0,40,1,0

[HitObjects]
320,192,3000,5,0,2:0:0:40:##2D#6.ogg
448,192,3750,1,0,2:0:0:40:##0.50F6.ogg
320,192,3937,1,0,2:0:0:40:##0.50D#6.ogg
192,192,4125,1,0,2:0:0:40:##1C#6.ogg
320,192,4500,1,0,2:0:0:40:##2D#6.ogg
448,192,5250,1,0,2:0:0:40:##0.50F6.ogg
320,192,5437,1,0,2:0:0:40:##0.50D#6.ogg
192,192,5625,1,0,2:0:0:40:##1C#6.ogg
320,192,6000,1,0,2:0:0:40:##2D#6.ogg
448,192,6750,1,0,2:0:0:40:##0.50F6.ogg
320,192,6937,1,0,2:0:0:40:##0.50D#6.ogg
192,192,7125,1,0,2:0:0:40:##1C#6.ogg
64,192,7500,1,0,2:0:0:40:##1C#6.ogg
448,192,7875,1,0,2:0:0:40:##1G#6.ogg
320,192,8250,1,0,2:0:0:40:##2D#6.ogg
320,192,9000,1,0,2:0:0:40:##2D#6.ogg
448,192,9750,1,0,2:0:0:40:##0.50F6.ogg
320,192,9937,1,0,2:0:0:40:##0.50D#6.ogg
192,192,10125,1,0,2:0:0:40:##1C#6.ogg
320,192,10500,1,0,2:0:0:40:##2D#6.ogg
448,192,11250,1,0,2:0:0:40:##0.50F6.ogg
320,192,11437,1,0,2:0:0:40:##0.50D#6.ogg
192,192,11625,1,0,2:0:0:40:##1C#6.ogg
320,192,12000,1,0,2:0:0:40:##2D#6.ogg
448,192,12750,1,0,2:0:0:40:##0.50F6.ogg
192,192,12937,1,0,2:0:0:40:##2D#6.ogg
64,192,13500,1,0,2:0:0:40:##2C#6.ogg
64,192,14250,1,0,2:0:0:40:##2C#6ss.ogg
64,192,15000,1,0,2:0:0:40:##2C#6ss.ogg
64,192,15845,1,0,2:0:0:40:##2C#6ss.ogg
64,192,16690,1,0,2:0:0:40:##2C#6ss.ogg
64,192,17627,1,0,2:0:0:40:##2C#6ss.ogg
448,192,19215,1,0,2:0:0:40:#2C#2.ogg
64,192,19215,1,0,2:0:0:40:##0.50B4.ogg
192,192,19429,1,0,2:0:0:40:##0.50E5.ogg
320,192,19643,1,0,2:0:0:40:##0.50B5.ogg
64,192,19857,1,0,2:0:0:40:##0.50B4.ogg
192,192,20072,1,0,2:0:0:40:##0.50E5.ogg
448,192,20072,1,0,2:0:0:40:#2E3.ogg
320,192,20286,1,0,2:0:0:40:##0.50B5.ogg
64,192,20500,1,0,2:0:0:40:##0.50B4.ogg
192,192,20715,1,0,2:0:0:40:##0.50E5.ogg
320,192,20929,1,0,2:0:0:40:##0.50B5.ogg
448,192,20929,1,0,2:0:0:40:#2B3.ogg
64,192,21143,1,0,2:0:0:40:##0.50B4.ogg
192,192,21357,1,0,2:0:0:40:##0.50E5.ogg
320,192,21572,1,0,2:0:0:40:##0.50B5.ogg
64,192,21786,1,0,2:0:0:40:##0.50E5.ogg
448,192,21786,1,0,2:0:0:40:#2E2.ogg
192,192,22000,1,0,2:0:0:40:##0.50B5.ogg
448,192,22215,1,0,2:0:0:40:##0.50F#6.ogg
320,192,22429,1,0,2:0:0:40:##0.50E6.ogg
192,192,22643,1,0,2:0:0:40:##0.50B5.ogg
64,192,22643,1,0,2:0:0:40:#2C#2.ogg
320,192,22857,1,0,2:0:0:40:##0.50E6.ogg
448,192,23072,1,0,2:0:0:40:##0.50B6.ogg
192,192,23286,1,0,2:0:0:40:##0.50B5.ogg
320,192,23500,1,0,2:0:0:40:##0.50E6.ogg
64,192,23500,1,0,2:0:0:40:#2A2.ogg
448,192,23715,1,0,2:0:0:40:##0.50B6.ogg
192,192,23929,1,0,2:0:0:40:##0.50B5.ogg
320,192,24143,1,0,2:0:0:40:##0.50E6.ogg
192,192,24357,1,0,2:0:0:40:##0.50B5.ogg
64,192,24357,1,0,2:0:0:40:#2B3.ogg
448,192,24572,1,0,2:0:0:40:##0.50E6.ogg
320,192,24786,1,0,2:0:0:40:##0.50B5.ogg
192,192,25000,1,0,2:0:0:40:##0.50F#5.ogg
320,192,25215,1,0,2:0:0:40:#2E3.ogg
64,192,25215,1,0,2:0:0:40:##0.50B4.ogg
448,192,25429,1,0,2:0:0:40:##0.50F#5.ogg
192,192,25643,1,0,2:0:0:40:##0.50B4.ogg
320,192,25857,1,0,2:0:0:40:##0.50E5.ogg
64,192,26072,1,0,2:0:0:40:##0.50B4.ogg
448,192,26072,1,0,2:0:0:40:#2G#3.ogg
192,192,26286,1,0,2:0:0:40:##0.50F#5.ogg
320,192,26500,1,0,2:0:0:40:##0.50B5.ogg
64,192,26715,1,0,2:0:0:40:##0.50B4.ogg
192,192,26929,1,0,2:0:0:40:2A2.ogg
320,192,26929,1,0,2:0:0:40:##0.50E5.ogg
448,192,27143,1,0,2:0:0:40:##0.50B5.ogg
64,192,27357,1,0,2:0:0:40:##0.50E5.ogg
320,192,27572,1,0,2:0:0:40:##0.50F#5.ogg
448,192,27786,1,0,2:0:0:40:##0.50B5.ogg
64,192,27786,1,0,2:0:0:40:#2B1.ogg
192,192,28000,1,0,2:0:0:40:##0.50F#5.ogg
320,192,28215,1,0,2:0:0:40:##0.50B5.ogg
448,192,28429,1,0,2:0:0:40:##0.50F#6.ogg
192,192,28643,1,0,2:0:0:40:##0.50B5.ogg
64,192,28643,1,0,2:0:0:40:2E2.ogg
448,192,28857,1,0,2:0:0:40:##0.50B6.ogg
320,192,29072,1,0,2:0:0:40:S-5-0.50E6.ogg
192,192,29286,1,0,2:0:0:40:S-5-0.50B5.ogg
448,192,29500,1,0,2:0:0:40:S-4-0.50B6.ogg
64,192,29500,1,0,2:0:0:40:2C#2.ogg
192,192,29715,1,0,2:0:0:40:S-4-0.50B5.ogg
320,192,29929,1,0,2:0:0:40:S-3-0.50E6.ogg
448,192,30143,1,0,2:0:0:40:S-3-0.50B6.ogg
64,192,30357,1,0,2:0:0:40:S-2-0.50B5.ogg
320,192,30357,1,0,2:0:0:40:2A2.ogg
448,192,30572,1,0,2:0:0:40:S-2-0.50E6.ogg
64,192,30786,1,0,2:0:0:40:S-1-0.50B6.ogg
192,192,31000,1,0,2:0:0:40:S-1-0.50B5.ogg
448,192,31215,1,0,2:0:0:40:0.25B6.ogg
64,192,31215,1,0,2:0:0:40:2B1.ogg
320,192,31322,1,0,2:0:0:40:0.25A6.ogg
192,192,31429,1,0,2:0:0:40:0.25G#6.ogg
64,192,31536,1,0,2:0:0:40:0.25E6.ogg
448,192,31643,1,0,2:0:0:40:0.25B5.ogg
320,192,31750,1,0,2:0:0:40:0.25A5.ogg
192,192,31857,1,0,2:0:0:40:0.25G#5.ogg
64,192,31965,1,0,2:0:0:40:0.25E5.ogg
448,192,32072,1,0,2:0:0:40:0.25B4.ogg
320,192,32072,1,0,2:0:0:40:1G#2.ogg
64,192,32179,1,0,2:0:0:40:0.25A4.ogg
448,192,32286,1,0,2:0:0:40:0.25G#4.ogg
320,192,32393,1,0,2:0:0:40:0.25E4.ogg
192,192,32500,1,0,2:0:0:40:0.25B3.ogg
64,192,32500,1,0,2:0:0:40:1B4.ogg
448,192,32607,1,0,2:0:0:40:0.25G#3.ogg
320,192,32715,1,0,2:0:0:40:0.25E3.ogg
192,192,32822,1,0,2:0:0:40:0.25B2.ogg
448,192,32929,1,0,2:0:0:40:0.50C#4.ogg
64,192,32929,1,0,2:0:0:40:0.50F#5.ogg
64,192,33143,1,0,2:0:0:40:0.25C#5.ogg
448,192,33250,1,0,2:0:0:40:0.50G#5.ogg
192,192,33250,1,0,2:0:0:40:0.50G#3.ogg
448,192,33465,1,0,2:0:0:40:0.25F#5.ogg
320,192,33572,1,0,2:0:0:40:0.25E5.ogg
64,192,33679,1,0,2:0:0:40:0.25C#5.ogg
192,192,33786,1,0,2:0:0:40:0.50A2.ogg
320,192,33786,1,0,2:0:0:40:0.50F#5.ogg
192,192,34000,1,0,2:0:0:40:0.25C#5.ogg
448,192,34107,1,0,2:0:0:40:0.50G#5.ogg
64,192,34107,1,0,2:0:0:40:0.50E2.ogg
320,192,34322,1,0,2:0:0:40:0.25F#5.ogg
192,192,34429,1,0,2:0:0:40:0.25E5.ogg
64,192,34429,1,0,2:0:0:40:0.50E2.ogg
320,192,34536,1,0,2:0:0:40:0.25C#5.ogg
448,192,34643,1,0,2:0:0:40:0.50F#5.ogg
64,192,34643,1,0,2:0:0:40:0.50F#3.ogg
192,192,34750,1,0,2:0:0:40:0.25B4.ogg
320,192,34965,1,0,2:0:0:40:0.50B4.ogg
192,192,34965,1,0,2:0:0:40:0.50B3.ogg
448,192,35179,1,0,2:0:0:40:0.25F#5.ogg
64,192,35286,1,0,2:0:0:40:0.50F#3.ogg
320,192,35286,1,0,2:0:0:40:0.50E5.ogg
448,192,35500,1,0,2:0:0:40:0.50E5.ogg
192,192,35500,1,0,2:0:0:40:0.50B4.ogg
320,192,35715,1,0,2:0:0:40:0.50B4.ogg
64,192,35715,1,0,2:0:0:40:0.50B2.ogg
448,192,35929,1,0,2:0:0:40:0.25B5.ogg
64,192,35929,1,0,2:0:0:40:0.50B2.ogg
320,192,36036,1,0,2:0:0:40:0.25A5.ogg
192,192,36143,1,0,2:0:0:40:0.25G#5.ogg
64,192,36250,1,0,2:0:0:40:0.25F#5.ogg
448,192,36357,1,0,2:0:0:40:0.50C#5.ogg
320,192,36357,1,0,2:0:0:40:0.50F#5.ogg
64,192,36572,1,0,2:0:0:40:0.25C#5.ogg
192,192,36679,1,0,2:0:0:40:0.50G#3.ogg
448,192,36679,1,0,2:0:0:40:0.50G#5.ogg
448,192,36893,1,0,2:0:0:40:0.25F#5.ogg
320,192,37000,1,0,2:0:0:40:0.50E5.ogg
64,192,37000,1,0,2:0:0:40:0.50G#3.ogg
448,192,37215,1,0,2:0:0:40:0.50F#5.ogg
64,192,37215,1,0,2:0:0:40:0.50E2.ogg
192,192,37429,1,0,2:0:0:40:0.25C#5.ogg
448,192,37536,1,0,2:0:0:40:0.50G#5.ogg
64,192,37536,1,0,2:0:0:40:0.50F#2.ogg
320,192,37750,1,0,2:0:0:40:0.25F#5.ogg
448,192,37857,1,0,2:0:0:40:0.50E5.ogg
192,192,37857,1,0,2:0:0:40:0.50A3.ogg
64,192,38072,1,0,2:0:0:40:0.50E3.ogg
448,192,38072,1,0,2:0:0:40:0.50F#5.ogg
192,192,38286,1,0,2:0:0:40:0.25C#5.ogg
448,192,38393,1,0,2:0:0:40:0.50G#5.ogg
64,192,38393,1,0,2:0:0:40:0.50E2.ogg
320,192,38607,1,0,2:0:0:40:0.25F#5.ogg
192,192,38715,1,0,2:0:0:40:0.50E5.ogg
64,192,38715,1,0,2:0:0:40:0.50E2.ogg
448,192,38929,1,0,2:0:0:40:0.25B5.ogg
64,192,38929,1,0,2:0:0:40:0.50G#2.ogg
320,192,39036,1,0,2:0:0:40:0.25A5.ogg
192,192,39143,1,0,2:0:0:40:0.25G#5.ogg
64,192,39250,1,0,2:0:0:40:0.25F#5.ogg
320,192,39357,1,0,2:0:0:40:0.25E5.ogg
192,192,39465,1,0,2:0:0:40:0.25D#5.ogg
64,192,39572,1,0,2:0:0:40:0.25C#5.ogg
320,192,39679,1,0,2:0:0:40:0.25D#5.ogg
448,192,39786,1,0,2:0:0:40:0.50F#5.ogg
64,192,39786,1,0,2:0:0:40:0.50B4.ogg
64,192,40000,1,0,2:0:0:40:0.25C#5.ogg
448,192,40107,1,0,2:0:0:40:0.50G#5.ogg
192,192,40107,1,0,2:0:0:40:0.50C#3.ogg
320,192,40322,1,0,2:0:0:40:0.25F#5.ogg
64,192,40429,1,0,2:0:0:40:0.50C#3.ogg
192,192,40429,1,0,2:0:0:40:0.50E5.ogg
320,192,40643,1,0,2:0:0:40:0.25A4.ogg
64,192,40643,1,0,2:0:0:40:0.50A2.ogg
192,192,40750,1,0,2:0:0:40:0.25A4.ogg
320,192,40857,1,0,2:0:0:40:0.25A4.ogg
448,192,40965,1,0,2:0:0:40:0.50G#5.ogg
64,192,40965,1,0,2:0:0:40:1A2.ogg
320,192,41179,1,0,2:0:0:40:0.50F#5.ogg
64,192,41286,1,0,2:0:0:40:0.50B4.ogg
320,192,41393,1,0,2:0:0:40:0.25E5.ogg
448,192,41500,1,0,2:0:0:40:0.25E5.ogg
192,192,41607,1,0,2:0:0:40:0.25B4.ogg
320,192,41715,1,0,2:0:0:40:0.25E5.ogg
448,192,41822,1,0,2:0:0:40:0.50F#5.ogg
64,192,41822,1,0,2:0:0:40:0.50B2.ogg
448,192,42036,1,0,2:0:0:40:0.50G#5.ogg
192,192,42143,1,0,2:0:0:40:0.50B3.ogg
64,192,42143,1,0,2:0:0:40:0.50B2.ogg
320,192,42250,1,0,2:0:0:40:0.25F#5.ogg
448,192,42357,1,0,2:0:0:40:0.50E5.ogg
64,192,42357,1,0,2:0:0:40:0.50B4.ogg
64,192,42572,1,0,2:0:0:40:0.50B4.ogg
320,192,42572,1,0,2:0:0:40:0.50B5.ogg
320,192,42786,1,0,2:0:0:40:0.50B4.ogg
192,192,42786,1,0,2:0:0:40:0.50F#5.ogg
192,192,43000,1,0,2:0:0:40:0.50B4.ogg
448,192,43000,1,0,2:0:0:40:0.50B5.ogg
320,192,43215,1,0,2:0:0:40:0.50F#5.ogg
64,192,43215,1,0,2:0:0:40:0.50C#3.ogg
192,192,43429,1,0,2:0:0:40:0.25C#5.ogg
448,192,43536,1,0,2:0:0:40:0.50G#5.ogg
64,192,43536,1,0,2:0:0:40:0.50C#3.ogg
320,192,43750,1,0,2:0:0:40:0.25F#5.ogg
192,192,43857,1,0,2:0:0:40:0.25E5.ogg
64,192,43857,1,0,2:0:0:40:0.50E3.ogg
448,192,43965,1,0,2:0:0:40:0.25C5.ogg
320,192,44072,1,0,2:0:0:40:0.50B5.ogg
64,192,44072,1,0,2:0:0:40:0.50A2.ogg
192,192,44286,1,0,2:0:0:40:0.25B5.ogg
448,192,44393,1,0,2:0:0:40:0.50E6.ogg
64,192,44393,1,0,2:0:0:40:1A2.ogg
320,192,44607,1,0,2:0:0:40:0.25D#6.ogg
192,192,44715,1,0,2:0:0:40:0.25C#6.ogg
320,192,44822,1,0,2:0:0:40:0.25D#6.ogg
448,192,44929,1,0,2:0:0:40:0.50B2.ogg
64,192,44929,1,0,2:0:0:40:0.50B5.ogg
320,192,45143,1,0,2:0:0:40:0.25B5.ogg
64,192,45250,1,0,2:0:0:40:0.50B2.ogg
320,192,45250,1,0,2:0:0:40:0.50B5.ogg
448,192,45465,1,0,2:0:0:40:0.25A5.ogg
320,192,45572,1,0,2:0:0:40:0.25G#5.ogg
192,192,45679,1,0,2:0:0:40:0.25F#5.ogg
448,192,45786,1,0,2:0:0:40:0.50E5.ogg
64,192,45786,1,0,2:0:0:40:1E2.ogg
192,192,46000,1,0,2:0:0:40:0.25B3.ogg
448,192,46000,1,0,2:0:0:40:0.50E5.ogg
192,192,46215,1,0,2:0:0:40:1B2.ogg
448,192,46215,1,0,2:0:0:40:1E5.ogg
64,192,46215,1,0,2:0:0:40:1E2.ogg
64,192,46643,1,0,2:0:0:40:2G#2.ogg
448,192,46643,1,0,2:0:0:40:1B4.ogg
192,192,46750,1,0,2:0:0:40:2D#3.ogg
320,192,46857,1,0,2:0:0:40:2G#3.ogg
448,192,46965,1,0,2:0:0:40:2B3.ogg
64,192,46965,1,0,2:0:0:40:1G#4.ogg
192,192,47072,1,0,2:0:0:40:2B4.ogg
320,192,47179,1,0,2:0:0:40:2D#5.ogg
448,192,47286,1,0,2:0:0:40:0.25G#5.ogg
64,192,47286,1,0,2:0:0:40:0.50B4.ogg
320,192,47393,1,0,2:0:0:40:0.25F#5.ogg
192,192,47500,1,0,2:0:0:40:0.50E5.ogg
64,192,47500,1,0,2:0:0:40:0.50G#5s.ogg
320,192,47607,1,0,2:0:0:40:2E3.ogg
448,192,47715,1,0,2:0:0:40:2A3.ogg
192,192,47822,1,0,2:0:0:40:0.50E5.ogg
320,192,47822,1,0,2:0:0:40:0.50G#5s.ogg
64,192,47929,1,0,2:0:0:40:2E4.ogg
320,192,48036,1,0,2:0:0:40:2B4.ogg
448,192,48143,1,0,2:0:0:40:0.50F#5.ogg
64,192,48143,1,0,2:0:0:40:0.25A4.ogg
192,192,48250,1,0,2:0:0:40:0.25B4.ogg
448,192,48357,1,0,2:0:0:40:0.50F#5.ogg
64,192,48357,1,0,2:0:0:40:2B2.ogg
192,192,48465,1,0,2:0:0:40:2F#3.ogg
320,192,48572,1,0,2:0:0:40:2B3.ogg
448,192,48679,1,0,2:0:0:40:0.50B5s.ogg
64,192,48679,1,0,2:0:0:40:0.50F#5.ogg
320,192,48786,1,0,2:0:0:40:0.50B4.ogg
192,192,48893,1,0,2:0:0:40:0.25F#4.ogg
320,192,49000,1,0,2:0:0:40:0.50G#5.ogg
64,192,49000,1,0,2:0:0:40:1B4.ogg
192,192,49107,1,0,2:0:0:40:0.50F#4.ogg
448,192,49215,1,0,2:0:0:40:1B5.ogg
64,192,49215,1,0,2:0:0:40:2C#2.ogg
320,192,49429,1,0,2:0:0:40:2C#4.ogg
64,192,49643,1,0,2:0:0:40:0.25B6.ogg
448,192,49750,1,0,2:0:0:40:0.25A6.ogg
320,192,49857,1,0,2:0:0:40:0.25G#6.ogg
192,192,49965,1,0,2:0:0:40:0.25E6.ogg
448,192,50072,1,0,2:0:0:40:0.50B5s.ogg
64,192,50072,1,0,2:0:0:40:2G#2.ogg
192,192,50179,1,0,2:0:0:40:2E3.ogg
320,192,50286,1,0,2:0:0:40:2G#3.ogg
448,192,50393,1,0,2:0:0:40:2B3.ogg
64,192,50393,1,0,2:0:0:40:1G#4.ogg
192,192,50500,1,0,2:0:0:40:2G#4.ogg
320,192,50607,1,0,2:0:0:40:0.25B4.ogg
448,192,50715,1,0,2:0:0:40:0.50B4.ogg
64,192,50715,1,0,2:0:0:40:0.50G#5s.ogg
192,192,50822,1,0,2:0:0:40:0.25B5.ogg
320,192,50929,1,0,2:0:0:40:0.50B5s.ogg
64,192,50929,1,0,2:0:0:40:2A2.ogg
192,192,51036,1,0,2:0:0:40:2E3.ogg
320,192,51143,1,0,2:0:0:40:2A3.ogg
448,192,51250,1,0,2:0:0:40:2B3.ogg
64,192,51250,1,0,2:0:0:40:0.50E5.ogg
192,192,51357,1,0,2:0:0:40:2E4.ogg
448,192,51465,1,0,2:0:0:40:2B4.ogg
192,192,51572,1,0,2:0:0:40:0.25G#4.ogg
64,192,51572,1,0,2:0:0:40:0.50G#5s.ogg
320,192,51679,1,0,2:0:0:40:0.25B4.ogg
64,192,51786,1,0,2:0:0:40:0.50F#5.ogg
448,192,51786,1,0,2:0:0:40:0.50A5s.ogg
192,192,51893,1,0,2:0:0:40:2F#3.ogg
320,192,52000,1,0,2:0:0:40:2B3.ogg
448,192,52107,1,0,2:0:0:40:0.50B5s.ogg
64,192,52107,1,0,2:0:0:40:0.50F#5.ogg
192,192,52215,1,0,2:0:0:40:2D#4.ogg
320,192,52322,1,0,2:0:0:40:2A4.ogg
192,192,52429,1,0,2:0:0:40:0.25F#5.ogg
448,192,52429,1,0,2:0:0:40:0.50A5.ogg
320,192,52536,1,0,2:0:0:40:0.25A5.ogg
448,192,52643,1,0,2:0:0:40:0.50G#5.ogg
64,192,52643,1,0,2:0:0:40:2C#2.ogg
64,192,52857,1,0,2:0:0:40:2C#4.ogg
320,192,52857,1,0,2:0:0:40:0.50F#5.ogg
192,192,53072,1,0,2:0:0:40:2E4.ogg
448,192,53072,1,0,2:0:0:40:0.50G#5.ogg
448,192,53286,1,0,2:0:0:40:0.50B5.ogg
320,192,53286,1,0,2:0:0:40:0.25G#4.ogg
192,192,53500,1,0,2:0:0:40:2G#3.ogg
448,192,53500,1,0,2:0:0:40:1B5.ogg
64,192,53607,1,0,2:0:0:40:0.50D#4.ogg
320,192,53715,1,0,2:0:0:40:2G#4.ogg
448,192,53822,1,0,2:0:0:40:0.50G#5.ogg
64,192,53822,1,0,2:0:0:40:1D#4.ogg
192,192,53929,1,0,2:0:0:40:0.50D#5.ogg
64,192,54036,1,0,2:0:0:40:1B4.ogg
192,192,54143,1,0,2:0:0:40:1D#5.ogg
448,192,54143,1,0,2:0:0:40:0.50B5.ogg
320,192,54250,1,0,2:0:0:40:0.25G#5.ogg
448,192,54357,1,0,2:0:0:40:1B5.ogg
64,192,54357,1,0,2:0:0:40:2A3.ogg
192,192,54465,1,0,2:0:0:40:2E4.ogg
320,192,54572,1,0,2:0:0:40:2A4.ogg
448,192,54679,1,0,2:0:0:40:0.50E5.ogg
64,192,54679,1,0,2:0:0:40:0.50B4.ogg
320,192,54786,1,0,2:0:0:40:2E5.ogg
64,192,54893,1,0,2:0:0:40:1B5.ogg
192,192,55000,1,0,2:0:0:40:1B4.ogg
448,192,55000,1,0,2:0:0:40:0.50E5.ogg
64,192,55107,1,0,2:0:0:40:0.25B5.ogg
192,192,55215,1,0,2:0:0:40:2B3.ogg
320,192,55215,1,0,2:0:0:40:0.50F#5.ogg
448,192,55322,1,0,2:0:0:40:2F#4.ogg
64,192,55429,1,0,2:0:0:40:2B4.ogg
320,192,55536,1,0,2:0:0:40:0.50F#5.ogg
448,192,55536,1,0,2:0:0:40:1F#5.ogg
192,192,55643,1,0,2:0:0:40:2B5.ogg
448,192,55750,1,0,2:0:0:40:0.25F#6.ogg
320,192,55857,1,0,2:0:0:40:0.50A5.ogg
64,192,55965,1,0,2:0:0:40:1F#5.ogg
320,192,56072,1,0,2:0:0:40:0.50G#5.ogg
192,192,56286,1,0,2:0:0:40:0.50F#5.ogg
320,192,56500,1,0,2:0:0:40:0.50G#5.ogg
448,192,56715,1,0,2:0:0:40:0.50B5.ogg
448,192,56929,1,0,2:0:0:40:1B5.ogg
64,192,56929,1,0,2:0:0:40:2G#3.ogg
192,192,57036,1,0,2:0:0:40:2E4.ogg
320,192,57143,1,0,2:0:0:40:1G#4.ogg
64,192,57250,1,0,2:0:0:40:1B4.ogg
192,192,57357,1,0,2:0:0:40:2E5.ogg
320,192,57465,1,0,2:0:0:40:2B5.ogg
448,192,57572,1,0,2:0:0:40:0.50B5.ogg
192,192,57679,1,0,2:0:0:40:1B4.ogg
448,192,57786,1,0,2:0:0:40:1B5.ogg
64,192,57786,1,0,2:0:0:40:2A3.ogg
192,192,57893,1,0,2:0:0:40:2E4.ogg
320,192,58000,1,0,2:0:0:40:2A4.ogg
192,192,58107,1,0,2:0:0:40:0.50E5.ogg
320,192,58215,1,0,2:0:0:40:1A5.ogg
448,192,58322,1,0,2:0:0:40:0.25B5.ogg
64,192,58429,1,0,2:0:0:40:0.50E5.ogg
320,192,58536,1,0,2:0:0:40:0.25A5.ogg
448,192,58643,1,0,2:0:0:40:0.25B5.ogg
320,192,58750,1,0,2:0:0:40:0.25A5.ogg
192,192,58857,1,0,2:0:0:40:0.25G#5.ogg
64,192,58965,1,0,2:0:0:40:0.25E5.ogg
448,192,59072,1,0,2:0:0:40:0.25B4.ogg
320,192,59179,1,0,2:0:0:40:0.25A4.ogg
192,192,59286,1,0,2:0:0:40:0.25G#4.ogg
64,192,59393,1,0,2:0:0:40:0.25E4.ogg
448,192,59500,1,0,2:0:0:40:0.25B3.ogg
320,192,59607,1,0,2:0:0:40:0.25A3.ogg
192,192,59715,1,0,2:0:0:40:0.25G#3.ogg
64,192,59822,1,0,2:0:0:40:0.25E3.ogg
448,192,59929,1,0,2:0:0:40:4B2.ogg
320,192,60036,1,0,2:0:0:40:1A2.ogg
192,192,60143,1,0,2:0:0:40:0.50G#2.ogg
64,192,60250,1,0,2:0:0:40:3F#2.ogg
448,192,60357,1,0,2:0:0:40:3G#2.ogg
64,192,60465,1,0,2:0:0:40:1D#3.ogg
192,192,60572,1,0,2:0:0:40:0.50G#4.ogg
320,192,60679,1,0,2:0:0:40:1C4.ogg
64,192,60786,1,0,2:0:0:40:1D#4.ogg
192,192,60893,1,0,2:0:0:40:1G#4.ogg
320,192,61000,1,0,2:0:0:40:1C5.ogg
448,192,61107,1,0,2:0:0:40:1D#5.ogg
64,192,61215,1,0,2:0:0:40:1F#5.ogg
192,192,61322,1,0,2:0:0:40:0.50A5.ogg
320,192,61429,1,0,2:0:0:40:0.50C6.ogg
448,192,61536,1,0,2:0:0:40:0.25D#6.ogg
320,192,61643,1,0,2:0:0:40:0.50F#6.ogg
64,192,61643,1,0,2:0:0:40:0.50G#2.ogg
192,192,61857,1,0,2:0:0:40:0.50C4.ogg
448,192,61857,1,0,2:0:0:40:0.50G#6.ogg
64,192,61857,1,0,2:0:0:40:0.50G#2.ogg
320,192,62072,1,0,2:0:0:40:0.50F#5.ogg
64,192,62072,1,0,2:0:0:40:0.50C#2.ogg
192,192,62286,1,0,2:0:0:40:0.25C#5.ogg
64,192,62393,1,0,2:0:0:40:0.50E3.ogg
448,192,62393,1,0,2:0:0:40:0.50G5.ogg
320,192,62607,1,0,2:0:0:40:0.25F#5.ogg
192,192,62715,1,0,2:0:0:40:0.25E5.ogg
64,192,62715,1,0,2:0:0:40:0.50C#2.ogg
448,192,62822,1,0,2:0:0:40:0.25C#5.ogg
64,192,62929,1,0,2:0:0:40:0.50C#3.ogg
320,192,62929,1,0,2:0:0:40:0.50F#5.ogg
192,192,63143,1,0,2:0:0:40:0.25C#5.ogg
448,192,63250,1,0,2:0:0:40:0.50G5.ogg
64,192,63250,1,0,2:0:0:40:0.50A#3.ogg
320,192,63465,1,0,2:0:0:40:0.25F#5.ogg
192,192,63572,1,0,2:0:0:40:0.25E5.ogg
64,192,63572,1,0,2:0:0:40:0.50C#5.ogg
320,192,63679,1,0,2:0:0:40:0.25C#5.ogg
448,192,63786,1,0,2:0:0:40:0.50F#5.ogg
64,192,63786,1,0,2:0:0:40:0.50B2.ogg
192,192,64000,1,0,2:0:0:40:0.25C#5.ogg
448,192,64107,1,0,2:0:0:40:0.50G5.ogg
64,192,64107,1,0,2:0:0:40:0.50C#3.ogg
320,192,64322,1,0,2:0:0:40:0.25F#5.ogg
192,192,64429,1,0,2:0:0:40:0.25E5.ogg
448,192,64429,1,0,2:0:0:40:0.50B2.ogg
64,192,64536,1,0,2:0:0:40:0.25C#5.ogg
320,192,64643,1,0,2:0:0:40:0.25E5.ogg
448,192,64643,1,0,2:0:0:40:0.50B2.ogg
64,192,64750,1,0,2:0:0:40:0.25B4.ogg
448,192,64857,1,0,2:0:0:40:0.25B5.ogg
320,192,64965,1,0,2:0:0:40:0.25A#5.ogg
64,192,64965,1,0,2:0:0:40:0.50B2.ogg
192,192,65072,1,0,2:0:0:40:0.25A5.ogg
64,192,65179,1,0,2:0:0:40:0.25G#5.ogg
448,192,65286,1,0,2:0:0:40:0.25E5.ogg
320,192,65286,1,0,2:0:0:40:0.50G#2.ogg
192,192,65393,1,0,2:0:0:40:0.25C5.ogg
448,192,65500,1,0,2:0:0:40:0.50F#5.ogg
64,192,65500,1,0,2:0:0:40:0.50C#2.ogg
64,192,65715,1,0,2:0:0:40:0.25B4.ogg
320,192,65822,1,0,2:0:0:40:0.50G5.ogg
192,192,65822,1,0,2:0:0:40:0.50B2.ogg
448,192,66036,1,0,2:0:0:40:0.25F#5.ogg
192,192,66143,1,0,2:0:0:40:0.25G3.ogg
320,192,66143,1,0,2:0:0:40:0.25E5.ogg
64,192,66250,1,0,2:0:0:40:0.25C#5.ogg
192,192,66357,1,0,2:0:0:40:0.50C#3.ogg
448,192,66357,1,0,2:0:0:40:0.50F#5.ogg
192,192,66572,1,0,2:0:0:40:0.25C#4.ogg
448,192,66679,1,0,2:0:0:40:0.50G5.ogg
64,192,66679,1,0,2:0:0:40:0.50C#3.ogg
448,192,66893,1,0,2:0:0:40:0.25F#5.ogg
320,192,67000,1,0,2:0:0:40:0.25E5.ogg
192,192,67107,1,0,2:0:0:40:0.25C#5.ogg
320,192,67215,1,0,2:0:0:40:0.50B4.ogg
64,192,67215,1,0,2:0:0:40:0.50B2.ogg
448,192,67322,1,0,2:0:0:40:0.25B5.ogg
192,192,67429,1,0,2:0:0:40:0.25B5.ogg
448,192,67536,1,0,2:0:0:40:0.25B5.ogg
192,192,67643,1,0,2:0:0:40:0.25B5.ogg
448,192,67750,1,0,2:0:0:40:0.25B5.ogg
192,192,67857,1,0,2:0:0:40:0.25B5.ogg
448,192,67965,1,0,2:0:0:40:0.25B5.ogg
192,192,68072,1,0,2:0:0:40:0.25B5.ogg
448,192,68179,1,0,2:0:0:40:0.25A#5.ogg
320,192,68286,1,0,2:0:0:40:0.25A5.ogg
192,192,68393,1,0,2:0:0:40:0.25G#5.ogg
64,192,68500,1,0,2:0:0:40:0.25G5.ogg
448,192,68607,1,0,2:0:0:40:0.25F#5.ogg
320,192,68715,1,0,2:0:0:40:0.25F5.ogg
192,192,68822,1,0,2:0:0:40:0.25E5.ogg
448,192,68929,1,0,2:0:0:40:0.50C#3.ogg
64,192,68929,1,0,2:0:0:40:0.50G#3.ogg
192,192,69036,1,0,2:0:0:40:0.25B5.ogg
320,192,69143,1,0,2:0:0:40:0.25A#5.ogg
448,192,69250,1,0,2:0:0:40:0.25A5.ogg
64,192,69250,1,0,2:0:0:40:0.50C#3.ogg
320,192,69357,1,0,2:0:0:40:0.25G#5.ogg
192,192,69465,1,0,2:0:0:40:0.25B5.ogg
320,192,69572,1,0,2:0:0:40:0.25A#5.ogg
64,192,69572,1,0,2:0:0:40:0.50G#3.ogg
192,192,69679,1,0,2:0:0:40:0.25A5.ogg
320,192,69786,1,0,2:0:0:40:0.25G#5.ogg
64,192,69786,1,0,2:0:0:40:0.50E3.ogg
192,192,69893,1,0,2:0:0:40:0.25B5.ogg
320,192,70000,1,0,2:0:0:40:0.25A#5.ogg
448,192,70107,1,0,2:0:0:40:0.25A5.ogg
64,192,70107,1,0,2:0:0:40:0.50C#3.ogg
320,192,70215,1,0,2:0:0:40:0.25G#5.ogg
192,192,70322,1,0,2:0:0:40:0.25G5.ogg
320,192,70429,1,0,2:0:0:40:0.25F#5.ogg
448,192,70429,1,0,2:0:0:40:0.50F#3.ogg
192,192,70536,1,0,2:0:0:40:0.25F5.ogg
448,192,70643,1,0,2:0:0:40:0.25C#6.ogg
64,192,70643,1,0,2:0:0:40:0.50B3.ogg
320,192,70750,1,0,2:0:0:40:0.25C6.ogg
192,192,70857,1,0,2:0:0:40:0.25B5.ogg
448,192,70965,1,0,2:0:0:40:0.25A#5.ogg
64,192,70965,1,0,2:0:0:40:0.50A3.ogg
320,192,71072,1,0,2:0:0:40:0.25A5.ogg
192,192,71179,1,0,2:0:0:40:0.25G#5.ogg
64,192,71286,1,0,2:0:0:40:0.50B2.ogg
320,192,71286,1,0,2:0:0:40:0.25G5.ogg
448,192,71393,1,0,2:0:0:40:0.25F#5.ogg
192,192,71500,1,0,2:0:0:40:0.25F5.ogg
64,192,71500,1,0,2:0:0:40:0.50E2.ogg
320,192,71715,1,0,2:0:0:40:0.25D#5.ogg
64,192,71715,1,0,2:0:0:40:0.50E2.ogg
320,192,71929,1,0,2:0:0:40:0.25C5.ogg
192,192,71929,1,0,2:0:0:40:0.50G#2.ogg
448,192,72143,1,0,2:0:0:40:0.50G#5.ogg
192,192,72143,1,0,2:0:0:40:0.50G#2.ogg
320,192,72357,1,0,2:0:0:40:0.50F#5.ogg
64,192,72357,1,0,2:0:0:40:0.50C#2.ogg
192,192,72572,1,0,2:0:0:40:0.25C#5.ogg
448,192,72679,1,0,2:0:0:40:0.50G5.ogg
64,192,72679,1,0,2:0:0:40:0.50G#2.ogg
448,192,72893,1,0,2:0:0:40:0.25F#5.ogg
192,192,73000,1,0,2:0:0:40:0.25G4.ogg
320,192,73000,1,0,2:0:0:40:0.25E5.ogg
448,192,73107,1,0,2:0:0:40:0.25C#5.ogg
192,192,73215,1,0,2:0:0:40:0.25F#5.ogg
64,192,73215,1,0,2:0:0:40:2F#2.ogg
320,192,73322,1,0,2:0:0:40:0.25F#5.ogg
192,192,73429,1,0,2:0:0:40:0.25F#5.ogg
64,192,73536,1,0,2:0:0:40:1G#4.ogg
448,192,73536,1,0,2:0:0:40:0.50G5.ogg
448,192,73750,1,0,2:0:0:40:0.25F#5.ogg
320,192,73857,1,0,2:0:0:40:0.25E5.ogg
64,192,73857,1,0,2:0:0:40:0.50C#4.ogg
192,192,73965,1,0,2:0:0:40:0.25C#5.ogg
448,192,74072,1,0,2:0:0:40:0.50F#5.ogg
320,192,74072,1,0,2:0:0:40:1B2.ogg
64,192,74286,1,0,2:0:0:40:0.50B3.ogg
192,192,74286,1,0,2:0:0:40:0.25C#5.ogg
448,192,74393,1,0,2:0:0:40:0.50G5.ogg
64,192,74500,1,0,2:0:0:40:1A3.ogg
320,192,74607,1,0,2:0:0:40:0.25F#5.ogg
192,192,74715,1,0,2:0:0:40:0.25E5.ogg
448,192,74929,1,0,2:0:0:40:0.50E5.ogg
64,192,74929,1,0,2:0:0:40:1E2.ogg
192,192,75143,1,0,2:0:0:40:0.50B4.ogg
64,192,75143,1,0,2:0:0:40:0.50B3.ogg
320,192,75357,1,0,2:0:0:40:1E5.ogg
64,192,75357,1,0,2:0:0:40:1E2.ogg
448,192,75786,1,0,2:0:0:40:0.50F#5.ogg
64,192,75786,1,0,2:0:0:40:0.50C#3.ogg
192,192,76000,1,0,2:0:0:40:0.25C#5.ogg
448,192,76107,1,0,2:0:0:40:0.50G5.ogg
64,192,76107,1,0,2:0:0:40:0.50C#3.ogg
320,192,76322,1,0,2:0:0:40:0.25F#5.ogg
192,192,76429,1,0,2:0:0:40:0.25E5.ogg
64,192,76429,1,0,2:0:0:40:0.50C#3.ogg
320,192,76536,1,0,2:0:0:40:0.25C#5.ogg
448,192,76643,1,0,2:0:0:40:0.25B5.ogg
64,192,76643,1,0,2:0:0:40:0.50C#2.ogg
320,192,76750,1,0,2:0:0:40:0.25A#5.ogg
192,192,76857,1,0,2:0:0:40:0.25A5.ogg
448,192,76965,1,0,2:0:0:40:0.50G#5.ogg
64,192,76965,1,0,2:0:0:40:0.50C#2.ogg
192,192,77179,1,0,2:0:0:40:0.50A5.ogg
320,192,77286,1,0,2:0:0:40:0.25A#5.ogg
64,192,77286,1,0,2:0:0:40:0.50C#2.ogg
448,192,77393,1,0,2:0:0:40:0.25B5.ogg
320,192,77500,1,0,2:0:0:40:0.25A#5.ogg
64,192,77500,1,0,2:0:0:40:0.50B1.ogg
192,192,77607,1,0,2:0:0:40:0.25A5.ogg
448,192,77715,1,0,2:0:0:40:0.25G#5.ogg
320,192,77822,1,0,2:0:0:40:0.25E5.ogg
64,192,77822,1,0,2:0:0:40:0.50B1.ogg
192,192,77929,1,0,2:0:0:40:0.25B4.ogg
64,192,78036,1,0,2:0:0:40:0.25A4.ogg
192,192,78143,1,0,2:0:0:40:0.50B3.ogg
320,192,78143,1,0,2:0:0:40:0.50F#4.ogg
64,192,78357,1,0,2:0:0:40:0.50E2.ogg
448,192,78357,1,0,2:0:0:40:0.50B3.ogg
192,192,78572,1,0,2:0:0:40:0.50E5.ogg
64,192,78572,1,0,2:0:0:40:0.50E2.ogg
64,192,78786,1,0,2:0:0:40:0.50G#2.ogg
320,192,78786,1,0,2:0:0:40:0.50D#3.ogg
448,192,78786,1,0,2:0:0:40:0.50F#5.ogg
64,192,79000,1,0,2:0:0:40:0.50G#2.ogg
320,192,79000,1,0,2:0:0:40:0.50D#3.ogg
448,192,79000,1,0,2:0:0:40:0.50F#5.ogg
320,192,79215,1,0,2:0:0:40:0.50F#5.ogg
192,192,79215,1,0,2:0:0:40:0.50G#4.ogg
64,192,79215,1,0,2:0:0:40:0.50C#3.ogg
192,192,79429,1,0,2:0:0:40:0.25C#5.ogg
448,192,79536,1,0,2:0:0:40:0.50G5.ogg
64,192,79536,1,0,2:0:0:40:0.50C#3.ogg
320,192,79750,1,0,2:0:0:40:0.25F#5.ogg
448,192,79857,1,0,2:0:0:40:0.25E5.ogg
64,192,79857,1,0,2:0:0:40:0.50C#3.ogg
192,192,79965,1,0,2:0:0:40:0.25C#5.ogg
320,192,80072,1,0,2:0:0:40:0.25F#5.ogg
64,192,80072,1,0,2:0:0:40:0.50C#3.ogg
320,192,80393,1,0,2:0:0:40:0.50F#5.ogg
192,192,80393,1,0,2:0:0:40:0.50F#2.ogg
64,192,80607,1,0,2:0:0:40:0.25E5.ogg
320,192,80715,1,0,2:0:0:40:0.50F#2.ogg
448,192,80715,1,0,2:0:0:40:0.25C#5.ogg
192,192,80822,1,0,2:0:0:40:0.25B4.ogg
320,192,80929,1,0,2:0:0:40:0.50C3.ogg
64,192,80929,1,0,2:0:0:40:0.50G#1.ogg
448,192,81036,1,0,2:0:0:40:0.25G5.ogg
192,192,81143,1,0,2:0:0:40:0.25G5.ogg
448,192,81250,1,0,2:0:0:40:0.25G5.ogg
192,192,81357,1,0,2:0:0:40:0.25G5.ogg
448,192,81465,1,0,2:0:0:40:0.25G5.ogg
192,192,81572,1,0,2:0:0:40:0.25G5.ogg
448,192,81679,1,0,2:0:0:40:0.25G5.ogg
192,192,81786,1,0,2:0:0:40:0.25G5.ogg
320,192,81893,1,0,2:0:0:40:0.25F#5.ogg
192,192,82000,1,0,2:0:0:40:0.25E5.ogg
64,192,82107,1,0,2:0:0:40:0.25C#5.ogg
320,192,82215,1,0,2:0:0:40:1G#1.ogg
448,192,82215,1,0,2:0:0:40:0.25E5.ogg
64,192,82322,1,0,2:0:0:40:0.25F#5.ogg
448,192,82429,1,0,2:0:0:40:0.25G5.ogg
192,192,82643,1,0,2:0:0:40:0.50C#4.ogg
320,192,82643,1,0,2:0:0:40:0.50F#5.ogg
448,192,82643,1,0,2:0:0:40:0.50B4.ogg
64,192,82643,1,0,2:0:0:40:0.50C#3.ogg
64,192,82857,1,0,2:0:0:40:0.25C#5.ogg
448,192,82965,1,0,2:0:0:40:0.50G5.ogg
192,192,82965,1,0,2:0:0:40:0.50B3.ogg
448,192,83179,1,0,2:0:0:40:0.25F#5.ogg
320,192,83286,1,0,2:0:0:40:0.25E5.ogg
192,192,83286,1,0,2:0:0:40:0.50C#3.ogg
64,192,83393,1,0,2:0:0:40:0.25C#5.ogg
192,192,83500,1,0,2:0:0:40:0.50F#2.ogg
448,192,83500,1,0,2:0:0:40:0.50F#5.ogg
192,192,83715,1,0,2:0:0:40:0.25C#5.ogg
448,192,83822,1,0,2:0:0:40:0.50G5.ogg
64,192,83822,1,0,2:0:0:40:0.50F#2.ogg
448,192,84036,1,0,2:0:0:40:0.25F#5.ogg
64,192,84143,1,0,2:0:0:40:0.50F#2.ogg
320,192,84143,1,0,2:0:0:40:0.25E5.ogg
192,192,84250,1,0,2:0:0:40:0.25C#5.ogg
448,192,84357,1,0,2:0:0:40:0.50F#5.ogg
64,192,84357,1,0,2:0:0:40:0.50B1.ogg
192,192,84572,1,0,2:0:0:40:0.25C#5.ogg
448,192,84679,1,0,2:0:0:40:0.50G5.ogg
64,192,84679,1,0,2:0:0:40:0.50B1.ogg
320,192,84893,1,0,2:0:0:40:0.25F#5.ogg
192,192,85000,1,0,2:0:0:40:0.25E5.ogg
64,192,85000,1,0,2:0:0:40:0.50B1.ogg
448,192,85107,1,0,2:0:0:40:0.25C#5.ogg
320,192,85215,1,0,2:0:0:40:0.25E5.ogg
192,192,85215,1,0,2:0:0:40:0.50E3.ogg
192,192,85429,1,0,2:0:0:40:0.50E3.ogg
448,192,85429,1,0,2:0:0:40:0.25B5.ogg
320,192,85643,1,0,2:0:0:40:0.50F#5.ogg
64,192,85643,1,0,2:0:0:40:0.50C4.ogg
192,192,85857,1,0,2:0:0:40:0.50F#4.ogg
448,192,85857,1,0,2:0:0:40:0.50B5.ogg
448,192,86072,1,0,2:0:0:40:0.50B5.ogg
64,192,86072,1,0,2:0:0:40:0.50G#3.ogg
192,192,86286,1,0,2:0:0:40:0.25C#5.ogg
320,192,86393,1,0,2:0:0:40:0.50B3.ogg
448,192,86393,1,0,2:0:0:40:0.50G5.ogg
448,192,86607,1,0,2:0:0:40:0.25F#5.ogg
320,192,86715,1,0,2:0:0:40:0.25E5.ogg
64,192,86715,1,0,2:0:0:40:0.50C#3.ogg
192,192,86822,1,0,2:0:0:40:0.25C#5.ogg
448,192,86929,1,0,2:0:0:40:1C#6.ogg
64,192,86929,1,0,2:0:0:40:0.50A2.ogg
320,192,87250,1,0,2:0:0:40:0.50B5.ogg
64,192,87250,1,0,2:0:0:40:0.50A2.ogg
192,192,87572,1,0,2:0:0:40:0.50B5.ogg
64,192,87572,1,0,2:0:0:40:0.25C5.ogg
320,192,87679,1,0,2:0:0:40:0.25C#6.ogg
64,192,87786,1,0,2:0:0:40:1B1.ogg
448,192,87786,1,0,2:0:0:40:0.25D#6.ogg
448,192,88000,1,0,2:0:0:40:0.25E6.ogg
192,192,88000,1,0,2:0:0:40:0.50C#2.ogg
320,192,88215,1,0,2:0:0:40:0.50D#2.ogg
448,192,88215,1,0,2:0:0:40:0.25D#6.ogg
448,192,88429,1,0,2:0:0:40:0.25D6.ogg
64,192,88429,1,0,2:0:0:40:0.50B2.ogg
448,192,88643,1,0,2:0:0:40:0.25C#5.ogg
192,192,88643,1,0,2:0:0:40:1E2.ogg
64,192,88750,1,0,2:0:0:40:0.25C6.ogg
448,192,88857,1,0,2:0:0:40:0.25B5.ogg
320,192,88965,1,0,2:0:0:40:0.25A#5.ogg
192,192,89072,1,0,2:0:0:40:0.25A5.ogg
64,192,89072,1,0,2:0:0:40:1G#2.ogg
448,192,89179,1,0,2:0:0:40:0.25G#5.ogg
64,192,89286,1,0,2:0:0:40:0.25G4.ogg
320,192,89286,1,0,2:0:0:40:0.25G5.ogg
192,192,89393,1,0,2:0:0:40:0.25E5.ogg
64,192,89500,1,0,2:0:0:40:0.50C#3.ogg
448,192,89500,1,0,2:0:0:40:0.50F#5.ogg
192,192,89715,1,0,2:0:0:40:0.25C#5.ogg
448,192,89822,1,0,2:0:0:40:0.50G#5.ogg
64,192,89822,1,0,2:0:0:40:0.50C#3.ogg
448,192,90036,1,0,2:0:0:40:0.25F#5.ogg
192,192,90143,1,0,2:0:0:40:0.50C#3.ogg
320,192,90143,1,0,2:0:0:40:0.50E5.ogg
64,192,90357,1,0,2:0:0:40:0.25F#5.ogg
320,192,90357,1,0,2:0:0:40:0.25A4.ogg
192,192,90465,1,0,2:0:0:40:0.25A4.ogg
320,192,90572,1,0,2:0:0:40:0.25A4.ogg
448,192,90679,1,0,2:0:0:40:0.50G#5.ogg
64,192,90679,1,0,2:0:0:40:1E3.ogg
448,192,90893,1,0,2:0:0:40:0.50F#5.ogg
320,192,91000,1,0,2:0:0:40:0.50B4.ogg
64,192,91107,1,0,2:0:0:40:0.25E5.ogg
192,192,91215,1,0,2:0:0:40:0.50E3.ogg
320,192,91215,1,0,2:0:0:40:0.25E5.ogg
64,192,91322,1,0,2:0:0:40:0.25B4.ogg
320,192,91429,1,0,2:0:0:40:0.25E5.ogg
448,192,91536,1,0,2:0:0:40:0.50F#5.ogg
192,192,91536,1,0,2:0:0:40:0.50E3.ogg
448,192,91750,1,0,2:0:0:40:0.50G#5.ogg
192,192,91857,1,0,2:0:0:40:0.50E3.ogg
64,192,91857,1,0,2:0:0:40:0.50B2.ogg
320,192,91965,1,0,2:0:0:40:0.25F#5.ogg
448,192,92072,1,0,2:0:0:40:0.50E5.ogg
64,192,92072,1,0,2:0:0:40:1C3.ogg
320,192,92286,1,0,2:0:0:40:0.50B5.ogg
64,192,92286,1,0,2:0:0:40:0.50B4.ogg
192,192,92500,1,0,2:0:0:40:1C3.ogg
320,192,92500,1,0,2:0:0:40:0.50F#5.ogg
192,192,92715,1,0,2:0:0:40:0.50B4.ogg
448,192,92715,1,0,2:0:0:40:0.50B5.ogg
320,192,92929,1,0,2:0:0:40:0.50F#5.ogg
64,192,92929,1,0,2:0:0:40:0.50C#3.ogg
192,192,93143,1,0,2:0:0:40:0.25C#5.ogg
448,192,93250,1,0,2:0:0:40:0.50G#5.ogg
64,192,93250,1,0,2:0:0:40:0.50C#3.ogg
320,192,93465,1,0,2:0:0:40:0.25F#5.ogg
192,192,93572,1,0,2:0:0:40:0.25E5.ogg
64,192,93572,1,0,2:0:0:40:0.50C#4.ogg
448,192,93679,1,0,2:0:0:40:0.25C5.ogg
320,192,93786,1,0,2:0:0:40:1B4.ogg
64,192,93786,1,0,2:0:0:40:0.50A2.ogg
192,192,93893,1,0,2:0:0:40:0.25B5.ogg
320,192,94000,1,0,2:0:0:40:0.25B5.ogg
448,192,94107,1,0,2:0:0:40:0.50C#5.ogg
64,192,94107,1,0,2:0:0:40:1A2.ogg
320,192,94322,1,0,2:0:0:40:0.25D#6.ogg
192,192,94429,1,0,2:0:0:40:0.25C#6.ogg
448,192,94536,1,0,2:0:0:40:0.25D#6.ogg
64,192,94643,1,0,2:0:0:40:0.50B3.ogg
320,192,94643,1,0,2:0:0:40:0.50B5.ogg
320,192,94857,1,0,2:0:0:40:0.25B5.ogg
320,192,94965,1,0,2:0:0:40:0.50B5.ogg
192,192,94965,1,0,2:0:0:40:0.50B2.ogg
448,192,95179,1,0,2:0:0:40:0.25A5.ogg
320,192,95286,1,0,2:0:0:40:0.25G#5.ogg
192,192,95393,1,0,2:0:0:40:0.25F#5.ogg
320,192,95500,1,0,2:0:0:40:0.50E5.ogg
448,192,95500,1,0,2:0:0:40:0.50B3.ogg
64,192,95500,1,0,2:0:0:40:1E2.ogg
192,192,95929,1,0,2:0:0:40:1B3.ogg
320,192,95929,1,0,2:0:0:40:1E2.ogg
448,192,95929,1,0,2:0:0:40:1E5.ogg
64,192,95929,1,0,2:0:0:40:1G#4.ogg
